<?xml version="1.0" standalone="no"?>
<!DOCTYPE svg PUBLIC "-//W3C//DTD SVG 1.1//EN" "http://www.w3.org/Graphics/SVG/1.1/DTD/svg11.dtd">
<svg xmlns="http://www.w3.org/2000/svg">
<defs >
<font id="SourceSansPro" horiz-adv-x="494" ><font-face
    font-family="Source Sans Pro ExtraLight"
    units-per-em="1000"
    panose-1="2 11 3 3 3 4 3 2 2 4"
    ascent="984"
    descent="-273"
    alphabetic="0" />
<glyph unicode=" " glyph-name="space" horiz-adv-x="200" />
<glyph unicode="!" glyph-name="exclam" horiz-adv-x="248" d="M112 172L108 608V670H140V608L136 172H112ZM124 -12Q111 -12 100 -2T88 26Q88 46 99 56T124 66Q138 66 149 56T160 26Q160 8 149 -2T124 -12Z" />
<glyph unicode="&quot;" glyph-name="quotedbl" horiz-adv-x="336" d="M90 494L84 634V694H122V634L116 494H90ZM218 494L212 634V694H250V634L244 494H218Z" />
<glyph unicode="#" glyph-name="numbersign" horiz-adv-x="472" d="M94 0L120 218H36V246H124L146 424H56V452H148L174 650H202L176 452H332L358 650H386L360 452H442V424H358L336 246H422V218H332L306 0H278L304 218H148L122 0H94ZM152 246H308L330 424H174L152 246Z" />
<glyph unicode="$" glyph-name="dollar" horiz-adv-x="472" d="M228 -110V-11Q175 -7 133 16T62 66L80 88Q107 63 148 40T244 16Q310 16 345 52T380 146Q380 199 359 231T305 285T234 324T164 363T109 416T88 500Q88 562 128 604T228 651V750H258V652Q307 649
338 629T394 582L374 562Q346 591 318 607T242 624Q188 624 154 589T120 502Q120 456 141 427T195 379T266 343T336 303T391 244T412 148Q412 77 368 35T258 -12V-110H228Z" />
<glyph unicode="%" glyph-name="percent" horiz-adv-x="798" d="M180 258Q116 258 79 312T42 466Q42 565 79 618T180 672Q245 672 281 619T318 466Q318 366 282 312T180 258ZM180 284Q230 284 259 332T288 466Q288 552 259 599T180 646Q131 646 102 599T72 466Q72
381 101 333T180 284ZM196 -12L566 672H598L228 -12H196ZM618 -12Q554 -12 517 42T480 196Q480 295 517 348T618 402Q683 402 719 349T756 196Q756 96 720 42T618 -12ZM618 14Q668 14 697 62T726 196Q726 282 697 329T618 376Q569 376 540 329T510 196Q510 111
539 63T618 14Z" />
<glyph unicode="&amp;" glyph-name="ampersand" horiz-adv-x="562" d="M160 530Q160 495 170 457T199 380Q234 406 264 432T314 488T334 554Q334 587 317 615T258 644Q212 644 186 611T160 530ZM224 -12Q174 -12 132 9T64 71T38 166Q38 209 57 243T108 306T175
362Q154 405 142 447T130 528Q130 591 166 631T260 672Q311 672 337 639T364 556Q364 514 342 480T284 416T210 357Q245 290 296 227T399 115Q437 162 463 219T508 342H538Q519 273 490 210T420 97Q490 39 550 16L538 -12Q508 -1 474 20T401 74Q365 36 322 12T224
-12ZM70 168Q70 122 91 88T148 35T226 16Q270 16 309 37T380 93Q326 143 275 207T187 339Q140 302 105 262T70 168Z" />
<glyph unicode="&apos;" glyph-name="quotesingle" horiz-adv-x="208" d="M90 494L84 634V694H122V634L116 494H90Z" />
<glyph unicode="(" glyph-name="parenleft" horiz-adv-x="270" d="M222 -174Q161 -75 126 35T90 278Q90 410 125 520T222 730L240 718Q180 624 149 511T118 278Q118 158 149 46T240 -162L222 -174Z" />
<glyph unicode=")" glyph-name="parenright" horiz-adv-x="270" d="M48 -174L30 -162Q90 -67 121 45T152 278Q152 398 121 511T30 718L48 730Q110 631 145 521T180 278Q180 146 145 36T48 -174Z" />
<glyph unicode="*" glyph-name="asterisk" horiz-adv-x="386" d="M130 478L108 494L162 580L74 614L82 638L174 612L180 712H206L212 614L304 638L312 614L224 580L278 494L256 478L194 560L130 478Z" />
<glyph unicode="+" glyph-name="plus" horiz-adv-x="472" d="M220 112V316H34V344H220V548H252V344H438V316H252V112H220Z" />
<glyph unicode="," glyph-name="comma" horiz-adv-x="208" d="M60 -150L48 -126Q80 -108 100 -77T120 -5Q117 -6 114 -6T108 -6Q93 -6 83 3T72 30Q72 48 83 57T108 66Q128 66 140 50T152 4Q152 -47 126 -86T60 -150Z" />
<glyph unicode="-" glyph-name="hyphen" horiz-adv-x="294" d="M40 234V264H256V234H40Z" />
<glyph unicode="." glyph-name="period" horiz-adv-x="208" d="M104 -12Q91 -12 80 -2T68 26Q68 46 79 56T104 66Q118 66 129 56T140 26Q140 8 129 -2T104 -12Z" />
<glyph unicode="/" glyph-name="slash" horiz-adv-x="360" d="M8 -160L328 710H358L38 -160H8Z" />
<glyph unicode="0" glyph-name="zero" horiz-adv-x="472" d="M236 -12Q146 -12 98 75T50 322Q50 481 98 566T236 652Q326 652 374 567T422 322Q422 163 374 76T236 -12ZM236 16Q307 16 348 95T390 322Q390 471 349 547T236 624Q166 624 124 548T82 322Q82 174
124 95T236 16Z" />
<glyph unicode="1" glyph-name="one" horiz-adv-x="472" d="M86 0V28H238V580H124V602Q162 608 191 618T242 640H268V28H410V0H86Z" />
<glyph unicode="2" glyph-name="two" horiz-adv-x="472" d="M42 0V20Q150 131 221 212T327 356T362 476Q362 538 328 581T216 624Q171 624 132 600T62 538L40 558Q75 597 118 624T218 652Q302 652 348 604T394 476Q394 411 357 345T251 202T88 24Q115 26 142 27T196
28H426V0H42Z" />
<glyph unicode="3" glyph-name="three" horiz-adv-x="472" d="M230 -12Q179 -12 142 2T77 36T30 78L50 100Q79 69 121 43T232 16Q300 16 344 57T388 166Q388 235 334 278T158 322V352Q234 352 279 372T344 425T364 498Q364 555 327 589T228 624Q183 624 144 603T78
552L58 574Q90 606 131 629T228 652Q275 652 313 634T373 582T396 500Q396 436 361 397T272 340V336Q312 328 345 306T399 249T420 168Q420 113 395 73T327 10T230 -12Z" />
<glyph unicode="4" glyph-name="four" horiz-adv-x="472" d="M58 224H312V476Q312 497 313 529T316 582H312Q300 563 287 545T260 506L58 224ZM312 0V196H16V212L322 640H342V224H440V196H342V0H312Z" />
<glyph unicode="5" glyph-name="five" horiz-adv-x="472" d="M224 -12Q173 -12 136 1T73 34T26 74L46 96Q75 66 116 41T226 16Q270 16 308 39T369 103T392 198Q392 279 348 325T228 372Q191 372 163 360T106 328L80 344L104 640H390V612H132L110 366Q136 382 164
392T230 402Q284 402 328 381T398 315T424 200Q424 132 395 85T320 13T224 -12Z" />
<glyph unicode="6" glyph-name="six" horiz-adv-x="472" d="M250 356Q215 356 172 333T87 255Q91 186 110 132T166 47T260 16Q299 16 330 39T378 100T396 186Q396 234 381 272T334 333T250 356ZM258 -12Q162 -12 108 67T54 288Q54 390 73 460T124 572T198 633T286
652Q328 652 359 636T414 592L394 570Q372 597 344 610T284 624Q231 624 186 593T114 489T86 293Q120 334 163 359T252 384Q336 384 382 333T428 186Q428 129 405 85T343 14T258 -12Z" />
<glyph unicode="7" glyph-name="seven" horiz-adv-x="472" d="M192 0Q197 132 218 236T281 430T388 612H44V640H430V622Q372 545 334 473T274 328T241 174T226 0H192Z" />
<glyph unicode="8" glyph-name="eight" horiz-adv-x="472" d="M240 -12Q182 -12 137 11T66 74T40 164Q40 208 60 243T110 305T170 348V352Q136 375 107 411T78 498Q78 543 100 578T158 632T240 652Q321 652 365 605T410 486Q410 450 395 418T358 361T318 320V316Q345
299 371 278T413 227T430 154Q430 108 407 71T340 11T240 -12ZM288 330Q332 365 355 404T378 486Q378 523 362 554T315 605T240 624Q183 624 147 588T110 498Q110 450 136 419T204 368T288 330ZM240 16Q288 16 323 34T378 84T398 154Q398 206 369 238T292 292T194
334Q142 304 107 262T72 164Q72 123 93 90T153 36T240 16Z" />
<glyph unicode="9" glyph-name="nine" horiz-adv-x="472" d="M76 454Q76 406 91 368T138 307T222 284Q257 284 300 307T385 385Q382 455 363 508T306 593T212 624Q173 624 143 601T94 540T76 454ZM186 -12Q144 -12 113 4T58 48L78 70Q100 43 128 30T188 16Q241
16 286 47T358 151T386 347Q352 306 310 281T220 256Q136 256 90 307T44 454Q44 511 67 556T129 626T214 652Q310 652 364 574T418 352Q418 250 399 180T348 68T274 7T186 -12Z" />
<glyph unicode=":" glyph-name="colon" horiz-adv-x="208" d="M104 378Q91 378 80 388T68 416Q68 436 79 446T104 456Q118 456 129 446T140 416Q140 398 129 388T104 378ZM104 -12Q91 -12 80 -2T68 26Q68 46 79 56T104 66Q118 66 129 56T140 26Q140 8 129 -2T104 -12Z" />
<glyph unicode=";" glyph-name="semicolon" horiz-adv-x="208" d="M104 378Q91 378 80 388T68 416Q68 436 79 446T104 456Q118 456 129 446T140 416Q140 398 129 388T104 378ZM60 -150L48 -126Q80 -108 100 -77T120 -5Q117 -6 114 -6T108 -6Q93 -6 83 3T72 30Q72
48 83 57T108 66Q128 66 140 50T152 4Q152 -47 126 -86T60 -150Z" />
<glyph unicode="&lt;" glyph-name="less" horiz-adv-x="472" d="M438 152L34 314V350L438 512V480L198 386L66 334V330L198 278L438 184V152Z" />
<glyph unicode="=" glyph-name="equal" horiz-adv-x="472" d="M34 416V444H438V416H34ZM34 472V500H438V472H34Z" />
<glyph unicode="&gt;" glyph-name="greater" horiz-adv-x="472" d="M34 152V184L274 278L406 330V334L274 386L34 480V512L438 350V314L34 152Z" />
<glyph unicode="?" glyph-name="question" horiz-adv-x="394" d="M164 172Q157 223 170 262T205 334T252 397T293 459T310 530Q310 562 298 590T259 636T190 654Q153 654 118 637T56 588L36 606Q65 638 103 660T192 682Q240 682 273 662T324 607T342 532Q342 491
325 457T284 391T236 327T200 257T192 172H164ZM182 -12Q169 -12 158 -2T146 26Q146 46 157 56T182 66Q196 66 207 56T218 26Q218 8 207 -2T182 -12Z" />
<glyph unicode="@" glyph-name="at" horiz-adv-x="802" d="M382 -142Q286 -142 212 -101T95 17T52 202Q52 299 83 377T169 512T294 598T442 628Q537 628 606 589T712 480T750 316Q750 232 722 175T653 88T572 58Q533 58 507 76T478 134H476Q449 106 419 85T354
64Q309 64 276 97T242 198Q242 233 254 272T289 344T347 399T426 420Q480 420 510 372H512L520 412H546L512 228Q477 86 574 86Q606 86 640 112T697 190T720 314Q720 402 686 466T588 565T440 600Q371 600 307 572T192 492T112 367T82 204Q82 107 119 36T225 -75T384
-114Q435 -114 476 -100T554 -64L568 -88Q484 -142 382 -142ZM356 92Q382 92 410 109T470 162L502 340Q483 370 466 381T424 392Q377 392 343 363T291 289T272 200Q272 140 297 116T356 92Z" />
<glyph unicode="A" glyph-name="A" horiz-adv-x="520" d="M182 396L135 264H384L338 396Q317 456 299 510T262 626H258Q240 565 222 511T182 396ZM10 0L246 660H274L510 0H476L394 236H125L42 0H10Z" />
<glyph unicode="B" glyph-name="B" horiz-adv-x="574" d="M100 0V660H272Q371 660 428 621T486 500Q486 448 460 410T382 356V352Q448 342 488 302T528 192Q528 98 463 49T284 0H100ZM132 366H252Q360 366 407 401T454 498Q454 572 404 602T258 632H132V366ZM132
28H272Q376 28 436 67T496 190Q496 265 438 301T272 338H132V28Z" />
<glyph unicode="C" glyph-name="C" horiz-adv-x="562" d="M328 -12Q247 -12 186 30T90 150T56 332Q56 436 90 512T187 630T334 672Q391 672 434 648T502 594L482 572Q455 604 418 623T334 642Q258 642 204 604T120 497T90 332Q90 237 119 167T202 57T330 18Q383
18 424 39T502 102L522 82Q485 39 439 14T328 -12Z" />
<glyph unicode="D" glyph-name="D" horiz-adv-x="600" d="M100 0V660H248Q350 660 415 619T512 504T544 332Q544 234 513 159T416 42T248 0H100ZM132 28H244Q338 28 396 68T482 176T510 332Q510 419 483 487T397 593T244 632H132V28Z" />
<glyph unicode="E" glyph-name="E" horiz-adv-x="510" d="M100 0V660H454V632H132V366H402V338H132V28H464V0H100Z" />
<glyph unicode="F" glyph-name="F" horiz-adv-x="470" d="M100 0V660H452V632H132V354H402V326H132V0H100Z" />
<glyph unicode="G" glyph-name="G" horiz-adv-x="600" d="M334 -12Q250 -12 188 30T91 150T56 332Q56 436 92 512T192 630T344 672Q410 672 452 647T520 594L500 572Q475 601 438 621T344 642Q265 642 208 604T121 497T90 332Q90 237 119 167T204 57T336 18Q384
18 426 32T494 72V290H330V318H526V62Q496 29 448 9T334 -12Z" />
<glyph unicode="H" glyph-name="H" horiz-adv-x="634" d="M100 0V660H132V366H502V660H534V0H502V338H132V0H100Z" />
<glyph unicode="I" glyph-name="I" horiz-adv-x="232" d="M100 0V660H132V0H100Z" />
<glyph unicode="J" glyph-name="J" horiz-adv-x="456" d="M200 -12Q148 -12 108 12T44 82L70 98Q96 55 127 37T202 18Q265 18 295 57T326 178V660H358V174Q358 122 343 80T293 13T200 -12Z" />
<glyph unicode="K" glyph-name="K" horiz-adv-x="550" d="M100 0V660H132V280H134L470 660H510L298 418L538 0H500L274 394L132 234V0H100Z" />
<glyph unicode="L" glyph-name="L" horiz-adv-x="460" d="M100 0V660H132V28H442V0H100Z" />
<glyph unicode="M" glyph-name="M" horiz-adv-x="698" d="M100 0V660H152L294 260Q308 223 321 186T348 110H352Q366 148 378 185T404 260L546 660H598V0H566V460Q566 499 567 545T570 632H566L515 486L366 74H332L182 486L130 632H126Q128 592 129 546T130 460V0H100Z" />
<glyph unicode="N" glyph-name="N" horiz-adv-x="632" d="M100 0V660H134L426 176L502 46H506Q505 94 504 140T502 232V660H532V0H498L206 484L130 614H126Q128 568 129 525T130 434V0H100Z" />
<glyph unicode="O" glyph-name="O" horiz-adv-x="648" d="M324 -12Q246 -12 186 30T91 150T56 332Q56 436 90 512T185 630T324 672Q402 672 462 631T557 513T592 332Q592 228 558 151T463 31T324 -12ZM324 18Q394 18 446 57T528 166T558 332Q558 427 529 496T447
604T324 642Q254 642 202 604T120 497T90 332Q90 237 119 167T201 57T324 18Z" />
<glyph unicode="P" glyph-name="P" horiz-adv-x="542" d="M100 0V660H258Q371 660 432 620T494 480Q494 386 434 339T262 292H132V0H100ZM132 320H250Q357 320 408 357T460 480Q460 567 407 599T246 632H132V320Z" />
<glyph unicode="Q" glyph-name="Q" horiz-adv-x="648" d="M324 16Q394 16 446 55T528 166T558 332Q558 427 529 496T447 604T324 642Q254 642 202 604T120 497T90 332Q90 237 119 166T201 56T324 16ZM514 -152Q434 -152 381 -112T304 -11Q232 -5 176 38T88 157T56
332Q56 436 90 512T185 630T324 672Q402 672 462 631T557 513T592 332Q592 232 560 157T472 38T341 -11Q363 -63 407 -91T516 -120Q539 -120 554 -118T582 -112L590 -142Q578 -145 558 -148T514 -152Z" />
<glyph unicode="R" glyph-name="R" horiz-adv-x="534" d="M100 0V660H282Q380 660 437 621T494 490Q494 411 447 367T316 314L504 0H466L280 312H132V0H100ZM132 340H270Q362 340 411 377T460 490Q460 568 411 600T270 632H132V340Z" />
<glyph unicode="S" glyph-name="S" horiz-adv-x="516" d="M268 -12Q195 -12 141 16T48 88L70 110Q106 68 157 43T268 18Q348 18 395 57T442 160Q442 204 425 230T381 274T320 306L218 352Q190 365 159 384T106 434T84 514Q84 561 108 596T175 652T270 672Q330
672 376 649T450 594L430 572Q402 604 362 623T270 642Q201 642 159 608T116 516Q116 475 135 450T181 409T232 382L334 336Q371 320 402 299T454 246T474 162Q474 112 449 73T377 11T268 -12Z" />
<glyph unicode="T" glyph-name="T" horiz-adv-x="520" d="M244 0V632H30V660H490V632H276V0H244Z" />
<glyph unicode="U" glyph-name="U" horiz-adv-x="630" d="M314 -12Q274 -12 236 0T166 40T117 119T98 246V660H130V254Q130 163 156 112T224 39T314 18Q363 18 406 39T475 111T502 254V660H532V246Q532 170 513 120T463 41T393 0T314 -12Z" />
<glyph unicode="V" glyph-name="V" horiz-adv-x="482" d="M226 0L6 660H40L168 264Q188 203 203 153T240 41H244Q265 102 281 152T316 264L444 660H476L258 0H226Z" />
<glyph unicode="W" glyph-name="W" horiz-adv-x="764" d="M184 0L30 660H64L152 260L200 44H204Q216 98 229 152T256 260L364 660H400L508 260L562 44H566Q578 98 589 152T612 260L700 660H732L580 0H548L420 474Q411 513 402 548T384 622H380Q371 583 361 548T342
474L216 0H184Z" />
<glyph unicode="X" glyph-name="X" horiz-adv-x="470" d="M18 0L218 342L32 660H66L182 456Q196 434 208 415T236 368H240Q255 395 266 414T290 456L406 660H438L252 340L452 0H418L296 212Q283 236 268 261T234 316H230Q214 286 200 261T172 212L50 0H18Z" />
<glyph unicode="Y" glyph-name="Y" horiz-adv-x="436" d="M202 0V272L4 660H38L144 446Q162 410 179 375T216 304H220Q240 340 259 375T294 446L400 660H432L234 272V0H202Z" />
<glyph unicode="Z" glyph-name="Z" horiz-adv-x="538" d="M52 0V18L444 632H86V660H484V642L92 28H488V0H52Z" />
<glyph unicode="[" glyph-name="bracketleft" horiz-adv-x="270" d="M100 -152V708H252V686H124V-130H252V-152H100Z" />
<glyph unicode="\" glyph-name="backslash" horiz-adv-x="360" d="M322 -160L2 710H32L352 -160H322Z" />
<glyph unicode="]" glyph-name="bracketright" horiz-adv-x="270" d="M18 -152V-130H146V686H18V708H170V-152H18Z" />
<glyph unicode="^" glyph-name="asciicircum" horiz-adv-x="472" d="M68 292L218 670H254L404 292H372L290 506L238 638H234L182 506L100 292H68Z" />
<glyph unicode="_" glyph-name="underscore" horiz-adv-x="500" d="M12 -114V-82H488V-114H12Z" />
<glyph unicode="`" glyph-name="grave" horiz-adv-x="532" d="M300 574L162 724L186 744L318 590L300 574Z" />
<glyph unicode="a" glyph-name="a" horiz-adv-x="486" d="M198 -12Q161 -12 130 1T79 43T60 117Q60 197 136 238T374 298Q375 337 367 375T332 437T256 462Q205 462 164 442T100 404L84 428Q99 439 125 453T185 479T258 490Q314 490 346 465T391 399T404 310V0H378L374
64H372Q335 34 291 11T198 -12ZM200 16Q244 16 285 37T374 98V272Q269 260 208 240T119 189T92 118Q92 63 124 40T200 16Z" />
<glyph unicode="b" glyph-name="b" horiz-adv-x="538" d="M274 -12Q240 -12 202 4T128 48H126L122 0H96V722H126V508L124 412Q162 444 205 467T294 490Q392 490 439 424T486 246Q486 165 457 108T379 19T274 -12ZM276 16Q328 16 368 45T431 127T454 246Q454 307
438 356T387 433T292 462Q255 462 213 441T126 378V82Q168 46 208 31T276 16Z" />
<glyph unicode="c" glyph-name="c" horiz-adv-x="446" d="M268 -12Q207 -12 159 17T82 103T54 238Q54 318 84 374T162 460T268 490Q318 490 351 472T408 430L388 408Q364 431 335 446T268 462Q217 462 176 434T111 355T86 238Q86 172 108 122T172 44T268 16Q309
16 343 33T402 74L420 52Q390 25 353 7T268 -12Z" />
<glyph unicode="d" glyph-name="d" horiz-adv-x="540" d="M252 -12Q162 -12 108 52T54 238Q54 315 83 371T161 459T268 490Q312 490 345 475T416 430L414 520V722H444V0H418L414 64H412Q382 34 342 11T252 -12ZM254 16Q296 16 335 38T414 100V396Q374 432 339
447T266 462Q215 462 175 432T110 351T86 238Q86 139 129 78T254 16Z" />
<glyph unicode="e" glyph-name="e" horiz-adv-x="478" d="M272 -12Q212 -12 163 18T84 104T54 238Q54 316 83 372T160 459T260 490Q343 490 391 434T440 270Q440 263 440 255T438 238H86Q86 174 109 124T175 45T274 16Q315 16 347 28T406 60L420 34Q393 18 360
3T272 -12ZM86 266H410Q410 365 369 413T260 462Q217 462 179 439T116 371T86 266Z" />
<glyph unicode="f" glyph-name="f" horiz-adv-x="252" d="M100 0V450H34V474L100 478V596Q100 667 129 700T210 734Q241 734 276 718L266 692Q251 700 237 703T208 706Q168 706 149 676T130 592V478H244V450H130V0H100Z" />
<glyph unicode="g" glyph-name="g" horiz-adv-x="480" d="M250 -234Q159 -234 107 -197T54 -100Q54 -68 73 -37T126 18V22Q108 33 96 52T84 98Q84 131 102 153T136 186V190Q114 210 95 244T76 322Q76 370 98 408T157 468T240 490Q260 490 276 487T302 478H462V450H346Q372
429 388 396T404 322Q404 274 382 236T323 175T240 152Q219 152 197 158T158 174Q142 161 129 144T116 100Q116 73 135 54T210 34H316Q396 34 433 8T470 -74Q470 -114 443 -150T367 -210T250 -234ZM240 180Q275 180 305 198T353 248T372 322Q372 365 354 396T306
444T240 462Q186 462 147 425T108 322Q108 280 126 248T175 198T240 180ZM252 -206Q309 -206 350 -187T415 -138T438 -76Q438 -34 409 -16T322 2H212Q208 2 191 4T154 10Q118 -14 102 -42T86 -98Q86 -146 129 -176T252 -206Z" />
<glyph unicode="h" glyph-name="h" horiz-adv-x="522" d="M96 0V722H126V400Q165 439 205 464T294 490Q368 490 403 446T438 308V0H408V304Q408 384 381 423T292 462Q247 462 210 438T126 366V0H96Z" />
<glyph unicode="i" glyph-name="i" horiz-adv-x="222" d="M96 0V478H126V0H96ZM112 600Q99 600 90 610T80 636Q80 651 89 660T112 670Q126 670 135 661T144 636Q144 620 135 610T112 600Z" />
<glyph unicode="j" glyph-name="j" horiz-adv-x="222" d="M28 -234Q13 -234 -3 -230T-30 -222L-22 -196Q-13 -199 1 -202T30 -206Q72 -206 84 -175T96 -98V478H126V-102Q126 -171 102 -202T28 -234ZM110 600Q97 600 88 610T78 636Q78 651 87 660T110 670Q124 670
133 661T142 636Q142 620 133 610T110 600Z" />
<glyph unicode="k" glyph-name="k" horiz-adv-x="452" d="M96 0V722H126V174H128L376 478H412L258 290L440 0H406L240 266L126 132V0H96Z" />
<glyph unicode="l" glyph-name="l" horiz-adv-x="230" d="M144 -12Q122 -12 109 3T96 52V722H126V46Q126 16 146 16Q149 16 153 16T164 18L170 -8Q164 -9 159 -10T144 -12Z" />
<glyph unicode="m" glyph-name="m" horiz-adv-x="806" d="M96 0V478H122L126 402H128Q161 440 201 465T280 490Q339 490 369 463T412 390Q454 437 495 463T576 490Q647 490 682 446T718 308V0H688V304Q688 462 574 462Q538 462 501 438T422 366V0H392V304Q392
462 278 462Q210 462 126 366V0H96Z" />
<glyph unicode="n" glyph-name="n" horiz-adv-x="526" d="M96 0V478H122L126 402H128Q166 440 205 465T294 490Q368 490 403 446T438 308V0H408V304Q408 384 381 423T292 462Q247 462 210 438T126 366V0H96Z" />
<glyph unicode="o" glyph-name="o" horiz-adv-x="532" d="M266 -12Q209 -12 161 17T83 103T54 238Q54 318 83 374T160 460T266 490Q323 490 371 461T448 375T478 238Q478 159 449 103T371 18T266 -12ZM266 16Q317 16 358 44T422 122T446 238Q446 304 423 354T358
433T266 462Q215 462 175 434T110 355T86 238Q86 172 110 122T174 44T266 16Z" />
<glyph unicode="p" glyph-name="p" horiz-adv-x="540" d="M96 -222V478H122L126 416H128Q164 445 206 467T294 490Q392 490 439 424T486 246Q486 165 457 108T379 19T274 -12Q240 -12 203 4T126 48V-222H96ZM276 16Q328 16 368 45T431 127T454 246Q454 307 438
356T387 433T292 462Q255 462 214 441T126 378V82Q170 46 209 31T276 16Z" />
<glyph unicode="q" glyph-name="q" horiz-adv-x="540" d="M414 -222V-32L416 66Q383 35 343 12T252 -12Q162 -12 108 52T54 238Q54 315 83 371T161 459T268 490Q312 490 345 475T412 434H414L418 478H444V-222H414ZM254 16Q296 16 335 38T414 100V396Q374 432
339 447T266 462Q215 462 175 432T110 351T86 238Q86 139 129 78T254 16Z" />
<glyph unicode="r" glyph-name="r" horiz-adv-x="306" d="M96 0V478H122L126 388H128Q152 432 186 461T264 490Q276 490 287 488T310 480L302 452Q290 457 282 458T260 460Q227 460 191 432T126 332V0H96Z" />
<glyph unicode="s" glyph-name="s" horiz-adv-x="400" d="M208 -12Q154 -12 110 7T34 54L54 78Q84 53 120 35T210 16Q270 16 301 47T332 118Q332 150 314 171T268 206T212 230Q175 243 140 259T83 300T60 366Q60 416 98 453T210 490Q246 490 281 477T342 442L324
418Q300 436 273 449T208 462Q148 462 120 433T92 368Q92 339 108 321T149 290T204 266Q242 251 279 236T340 194T364 120Q364 85 346 55T293 7T208 -12Z" />
<glyph unicode="t" glyph-name="t" horiz-adv-x="302" d="M218 -12Q152 -12 129 26T106 126V450H30V474L106 478L110 618H136V478H278V450H136V122Q136 76 152 46T220 16Q234 16 251 21T282 32L292 6Q271 -1 251 -6T218 -12Z" />
<glyph unicode="u" glyph-name="u" horiz-adv-x="524" d="M232 -12Q159 -12 124 32T88 170V478H118V174Q118 95 145 56T234 16Q279 16 316 41T398 120V478H428V0H402L398 82H396Q360 40 321 14T232 -12Z" />
<glyph unicode="v" glyph-name="v" horiz-adv-x="422" d="M194 0L12 478H46L160 168Q172 134 185 99T210 32H214Q226 64 239 99T264 168L378 478H410L230 0H194Z" />
<glyph unicode="w" glyph-name="w" horiz-adv-x="672" d="M168 0L24 478H58L150 156Q159 123 168 93T184 30H188Q197 62 206 92T224 156L316 478H358L450 156Q459 123 468 93T486 30H490Q499 62 508 92T526 156L616 478H648L508 0H466L376 312Q366 347 358 380T338
448H334Q325 414 316 380T294 310L206 0H168Z" />
<glyph unicode="x" glyph-name="x" horiz-adv-x="392" d="M14 0L178 250L28 478H62L144 350Q156 331 169 312T196 272H200Q214 292 226 311T252 350L332 478H364L214 248L378 0H344L254 138Q241 161 226 183T196 226H192Q177 205 163 183T134 138L46 0H14Z" />
<glyph unicode="y" glyph-name="y" horiz-adv-x="424" d="M66 -222Q40 -222 20 -212L28 -184Q36 -187 47 -189T68 -192Q113 -192 145 -153T196 -56L210 -12L12 478H46L168 164Q180 134 194 98T222 30H226Q238 62 250 98T272 164L380 478H412L220 -68Q208 -105
188 -140T137 -199T66 -222Z" />
<glyph unicode="z" glyph-name="z" horiz-adv-x="396" d="M26 0V16L320 450H58V478H360V462L66 28H370V0H26Z" />
<glyph unicode="{" glyph-name="braceleft" horiz-adv-x="270" d="M222 -152Q168 -152 141 -127T114 -26Q114 30 118 81T122 184Q122 216 106 241T36 266V290Q71 290 89 301T115 331T122 370Q122 424 118 475T114 582Q114 657 141 682T222 708H252V686H220Q172
686 156 659T140 578Q140 529 143 484T146 382Q146 340 137 315T98 280V276Q127 267 136 241T146 174Q146 119 143 74T140 -22Q140 -76 156 -103T220 -130H252V-152H222Z" />
<glyph unicode="|" glyph-name="bar" horiz-adv-x="220" d="M96 -250V750H124V-250H96Z" />
<glyph unicode="}" glyph-name="braceright" horiz-adv-x="270" d="M18 -152V-130H50Q98 -130 114 -103T130 -22Q130 28 127 73T124 174Q124 215 134 241T172 276V280Q144 289 134 314T124 382Q124 438 127 483T130 578Q130 632 114 659T50 686H18V708H48Q102
708 129 683T156 582Q156 527 152 476T148 370Q148 350 155 332T180 302T234 290V266Q182 266 165 241T148 184Q148 132 152 81T156 -26Q156 -101 129 -126T48 -152H18Z" />
<glyph unicode="~" glyph-name="asciitilde" horiz-adv-x="472" d="M326 270Q298 270 274 284T229 316T187 348T144 362Q122 362 102 348T64 298L42 310Q62 351 90 370T146 390Q175 390 198 376T243 344T285 312T328 298Q351 298 370 312T408 362L430 348Q411
309 383 290T326 270Z" />
<glyph unicode="&#xa0;" glyph-name="space" horiz-adv-x="200" />
<glyph unicode="&#xa1;" glyph-name="exclamdown" horiz-adv-x="248" d="M108 -192V-130L112 306H136L140 -130V-192H108ZM124 412Q111 412 100 422T88 452Q88 470 99 480T124 490Q138 490 149 480T160 452Q160 433 149 423T124 412Z" />
<glyph unicode="&#xa2;" glyph-name="cent" horiz-adv-x="472" d="M252 -26V85Q170 93 116 151T62 312Q62 381 88 429T157 506T252 539V652H280V540Q328 539 360 521T416 480L398 460Q374 483 345 497T280 512V112Q319 113 352 129T410 168L428 148Q398 121 361
103T280 84V-26H252ZM94 312Q94 229 137 175T252 113V510Q207 505 172 479T115 410T94 312Z" />
<glyph unicode="&#xa3;" glyph-name="sterling" horiz-adv-x="472" d="M58 0V18Q115 51 139 105T164 218Q164 238 162 257T154 296H54V322L120 324H146Q135 365 124 404T112 486Q112 563 156 607T276 652Q327 652 361 631T416 582L394 562Q373 588 345 606T274
624Q210 624 177 584T144 488Q144 445 156 406T179 324H346V296H185Q194 260 194 218Q194 152 174 110T118 32V28H418V0H58Z" />
<glyph unicode="&#xa4;" glyph-name="currency" horiz-adv-x="472" d="M52 118L32 140L98 208Q80 232 70 262T60 328Q60 365 70 396T98 451L32 520L52 542L118 473Q167 520 236 520Q304 520 354 473L420 542L440 520L373 451Q391 427 401 396T412 328Q412 293
402 263T374 208L440 140L420 118L354 186Q331 163 300 151T236 138Q167 138 117 186L52 118ZM236 166Q275 166 308 186T360 243T380 328Q380 376 361 413T308 471T236 492Q197 492 165 471T112 413T92 328Q92 280 112 244T164 187T236 166Z" />
<glyph unicode="&#xa5;" glyph-name="yen" horiz-adv-x="472" d="M220 0V168H52V196H220V270H52V298H208L32 640H66L166 438Q183 405 199 372T234 300H238Q258 338 274 371T308 438L408 640H440L262 298H420V270H250V196H420V168H250V0H220Z" />
<glyph unicode="&#xa6;" glyph-name="brokenbar" horiz-adv-x="220" d="M96 274V750H124V274H96ZM96 -250V222H124V-250H96Z" />
<glyph unicode="&#xa7;" glyph-name="section" horiz-adv-x="472" d="M232 -48Q181 -48 143 -31T76 12L98 34Q124 10 154 -5T232 -20Q280 -20 309 7T338 70Q338 106 318 129T265 168T195 199T126 233T73 281T52 356Q52 406 78 436T142 487Q126 502 117 522T108
568Q108 594 122 620T164 663T238 680Q277 680 311 666T372 628L354 606Q330 626 304 639T238 652Q184 652 161 626T138 570Q138 535 158 513T211 476T279 445T347 410T399 361T420 284Q420 233 396 205T333 157Q349 141 358 121T368 72Q368 37 349 10T298 -32T232
-48ZM82 358Q82 316 105 290T164 247T238 214T308 176Q347 194 368 216T390 282Q390 325 367 352T309 397T235 431T165 468Q128 448 105 424T82 358Z" />
<glyph unicode="&#xa8;" glyph-name="dieresis" horiz-adv-x="532" d="M180 602Q167 602 158 611T148 634Q148 648 157 657T180 666Q194 666 203 657T212 634Q212 621 203 612T180 602ZM352 602Q339 602 330 611T320 634Q320 648 329 657T352 666Q366 666 375
657T384 634Q384 621 375 612T352 602Z" />
<glyph unicode="&#xa9;" glyph-name="copyright" horiz-adv-x="740" d="M370 -12Q306 -12 249 11T147 79T77 184T52 322Q52 397 77 458T146 562T248 628T370 652Q435 652 492 629T593 562T663 458T688 322Q688 246 663 185T594 79T492 12T370 -12ZM370 14Q428
14 480 36T572 99T635 196T658 322Q658 390 635 446T572 542T480 604T370 626Q312 626 260 605T168 543T105 446T82 322Q82 253 105 197T168 99T260 36T370 14ZM374 124Q328 124 289 147T226 214T202 322Q202 380 227 421T292 485T380 508Q419 508 446 493T498
454L480 432Q456 455 433 466T378 478Q317 478 277 436T236 322Q236 244 274 199T376 154Q414 154 443 169T496 206L512 184Q485 159 455 142T374 124Z" />
<glyph unicode="&#xaa;" glyph-name="ordfeminine" horiz-adv-x="334" d="M140 402Q98 402 71 425T44 492Q44 545 94 572T252 610Q252 651 238 679T180 708Q149 708 118 695T70 670L58 692Q76 704 109 719T182 734Q239 734 259 700T280 612V410H258L252 450H248Q227
432 200 417T140 402ZM146 428Q170 428 197 440T252 480V588Q153 578 114 554T74 494Q74 460 93 444T146 428Z" />
<glyph unicode="&#xab;" glyph-name="guillemotleft" horiz-adv-x="388" d="M180 74L42 238V266L180 430L200 412L76 252L200 90L180 74ZM314 74L176 238V266L314 430L334 412L210 252L334 90L314 74Z" />
<glyph unicode="&#xac;" glyph-name="logicalnot" horiz-adv-x="472" d="M406 112V316H34V344H438V112H406Z" />
<glyph unicode="&#xad;" glyph-name="hyphen" horiz-adv-x="294" d="M40 234V264H256V234H40Z" />
<glyph unicode="&#xae;" glyph-name="registered" horiz-adv-x="392" d="M196 326Q147 326 106 350T41 417T16 518Q16 576 40 619T106 687T196 712Q245 712 286 688T351 620T376 518Q376 460 352 417T286 350T196 326ZM196 352Q238 352 272 373T327 432T348 518Q348
566 328 604T273 664T196 686Q154 686 120 664T65 604T44 518Q44 470 64 433T119 374T196 352ZM130 418V626H196Q225 626 248 613T272 562Q272 543 261 527T232 506L282 418H248L208 496H158V418H130ZM158 522H188Q212 522 227 530T242 560Q242 578 232 589T192
600H158V522Z" />
<glyph unicode="&#xaf;" glyph-name="overscore" horiz-adv-x="532" d="M146 608V636H386V608H146Z" />
<glyph unicode="&#xb0;" glyph-name="degree" horiz-adv-x="304" d="M152 454Q110 454 76 484T42 568Q42 624 76 654T152 684Q194 684 228 654T262 568Q262 514 228 484T152 454ZM152 480Q188 480 211 505T234 568Q234 607 211 632T152 658Q116 658 93 633T70
568Q70 531 93 506T152 480Z" />
<glyph unicode="&#xb1;" glyph-name="plusminus" horiz-adv-x="472" d="M220 102V312H34V340H220V548H252V340H438V312H252V102H220ZM34 0V28H438V0H34Z" />
<glyph unicode="&#xb2;" glyph-name="two.sups" horiz-adv-x="360" d="M58 410V430Q127 495 170 540T234 619T254 688Q254 733 230 759T164 786Q136 786 112 767T70 722L50 740Q67 769 98 790T166 812Q219 812 251 782T284 690Q284 648 262 610T199 530T106 436H308V410H58Z"
/>
<glyph unicode="&#xb3;" glyph-name="three.sups" horiz-adv-x="360" d="M176 398Q131 398 97 421T42 472L66 490Q84 462 114 443T178 424Q217 424 245 447T274 512Q274 553 235 574T130 596V620Q192 620 225 647T258 708Q258 743 235 764T170 786Q146 786 122
771T78 732L58 750Q78 776 107 794T172 812Q220 812 254 785T288 710Q288 673 266 648T210 610Q246 604 275 579T304 512Q304 458 267 428T176 398Z" />
<glyph unicode="&#xb4;" glyph-name="acute" horiz-adv-x="532" d="M232 574L214 590L346 744L370 724L232 574Z" />
<glyph unicode="&#xb5;" glyph-name="mu" horiz-adv-x="536" d="M96 -180V478H126V174Q126 101 152 59T238 16Q264 16 290 23T344 56T402 134V478H432Q431 370 431 265T430 52Q430 34 438 25T458 16Q465 16 471 17T486 22L492 -4Q485 -7 476 -9T456 -12Q423 -12
412 12T402 92H400Q367 38 327 13T242 -12Q203 -12 173 1T122 54Q122 -3 122 -39T123 -107T126 -180H96Z" />
<glyph unicode="&#xb6;" glyph-name="paragraph" horiz-adv-x="498" d="M370 -80V660H402V-80H370ZM290 250Q216 250 160 270T73 335T42 454Q42 528 71 573T152 639T272 660H316V250H290Z" />
<glyph unicode="&#xb7;" glyph-name="middot" horiz-adv-x="208" d="M104 284Q91 284 80 294T68 322Q68 342 79 352T104 362Q118 362 129 352T140 322Q140 304 129 294T104 284Z" />
<glyph unicode="&#xb8;" glyph-name="cedilla" horiz-adv-x="532" d="M202 -216L196 -190Q262 -185 286 -172T310 -136Q310 -113 292 -102T232 -84L272 2H300L270 -66Q302 -73 321 -88T340 -134Q340 -207 202 -216Z" />
<glyph unicode="&#xb9;" glyph-name="one.sups" horiz-adv-x="360" d="M178 410V740H96V762Q148 773 180 800H206V410H178Z" />
<glyph unicode="&#xba;" glyph-name="ordmasculine" horiz-adv-x="358" d="M178 402Q118 402 76 446T34 568Q34 648 76 691T178 734Q238 734 280 691T322 568Q322 490 280 446T178 402ZM178 428Q229 428 260 467T292 568Q292 631 261 669T178 708Q127 708 96 670T64
568Q64 507 95 468T178 428Z" />
<glyph unicode="&#xbb;" glyph-name="guillemotright" horiz-adv-x="388" d="M74 74L54 90L178 252L54 412L74 430L212 266V238L74 74ZM208 74L188 90L312 252L188 412L208 430L346 266V238L208 74Z" />
<glyph unicode="&#xbc;" glyph-name="onequarter" horiz-adv-x="758" d="M158 270V600H76V622Q128 633 160 660H186V270H158ZM176 -12L546 672H578L208 -12H176ZM486 144H622V238L626 340H622L564 256L486 144ZM622 0V118H446V134L628 390H650V144H708V118H650V0H622Z" />
<glyph unicode="&#xbd;" glyph-name="onehalf" horiz-adv-x="778" d="M158 270V600H76V622Q128 633 160 660H186V270H158ZM152 -12L522 672H554L184 -12H152ZM476 0V20Q545 85 588 130T652 209T672 278Q672 323 648 349T582 376Q554 376 530 357T488 312L468 330Q485
359 516 380T584 402Q637 402 669 372T702 280Q702 238 680 200T617 120T524 26H726V0H476Z" />
<glyph unicode="&#xbe;" glyph-name="threequarters" horiz-adv-x="778" d="M176 258Q131 258 97 281T42 332L66 350Q84 322 114 303T178 284Q217 284 245 307T274 372Q274 413 235 434T130 456V480Q192 480 225 507T258 568Q258 603 235 624T170 646Q146 646
122 631T78 592L58 610Q78 636 107 654T172 672Q220 672 254 645T288 570Q288 533 266 508T210 470Q246 464 275 439T304 372Q304 318 267 288T176 258ZM226 -12L596 672H628L258 -12H226ZM506 144H642V238L646 340H642L584 256L506 144ZM642 0V118H466V134L648
390H670V144H728V118H670V0H642Z" />
<glyph unicode="&#xbf;" glyph-name="questiondown" horiz-adv-x="394" d="M202 -204Q154 -204 121 -184T70 -129T52 -54Q52 -13 69 21T110 87T158 151T194 221T202 306H230Q237 255 224 216T189 144T142 81T101 19T84 -52Q84 -84 96 -112T135 -158T204 -176Q242
-176 277 -159T338 -110L358 -128Q330 -159 292 -181T202 -204ZM212 412Q199 412 188 422T176 452Q176 470 187 480T212 490Q226 490 237 480T248 452Q248 433 237 423T212 412Z" />
<glyph unicode="&#xc0;" glyph-name="Agrave" horiz-adv-x="520" d="M182 396L135 264H384L338 396Q317 456 299 510T262 626H258Q240 565 222 511T182 396ZM10 0L246 660H274L510 0H476L394 236H125L42 0H10ZM282 710L156 822L178 846L296 726L282 710Z" />
<glyph unicode="&#xc1;" glyph-name="Aacute" horiz-adv-x="520" d="M182 396L135 264H384L338 396Q317 456 299 510T262 626H258Q240 565 222 511T182 396ZM10 0L246 660H274L510 0H476L394 236H125L42 0H10ZM238 710L224 726L342 846L364 822L238 710Z" />
<glyph unicode="&#xc2;" glyph-name="Acircumflex" horiz-adv-x="520" d="M182 396L135 264H384L338 396Q317 456 299 510T262 626H258Q240 565 222 511T182 396ZM10 0L246 660H274L510 0H476L394 236H125L42 0H10ZM144 710L130 726L246 840H274L390 726L376 710L262
810H258L144 710Z" />
<glyph unicode="&#xc3;" glyph-name="Atilde" horiz-adv-x="520" d="M182 396L135 264H384L338 396Q317 456 299 510T262 626H258Q240 565 222 511T182 396ZM10 0L246 660H274L510 0H476L394 236H125L42 0H10ZM338 722Q309 722 289 734T253 763T221 791T182 804Q159
804 143 782T124 724L100 726Q102 769 122 800T182 832Q211 832 231 820T268 791T300 763T338 750Q361 750 376 772T396 830L420 828Q419 785 398 754T338 722Z" />
<glyph unicode="&#xc4;" glyph-name="Adieresis" horiz-adv-x="520" d="M182 396L135 264H384L338 396Q317 456 299 510T262 626H258Q240 565 222 511T182 396ZM10 0L246 660H274L510 0H476L394 236H125L42 0H10ZM164 728Q151 728 142 736T132 760Q132 775 141
783T164 792Q178 792 187 784T196 760Q196 745 187 737T164 728ZM356 728Q343 728 334 736T324 760Q324 775 333 783T356 792Q370 792 379 784T388 760Q388 745 379 737T356 728Z" />
<glyph unicode="&#xc5;" glyph-name="Aring" horiz-adv-x="520" d="M182 396L135 264H384L338 396Q317 456 299 510T262 626H258Q240 565 222 511T182 396ZM10 0L246 660H274L510 0H476L394 236H125L42 0H10ZM260 700Q225 700 201 723T176 784Q176 822 200 845T260
868Q294 868 319 845T344 784Q344 747 319 724T260 700ZM260 722Q283 722 300 737T318 784Q318 813 301 829T260 846Q235 846 218 830T200 784Q200 753 217 738T260 722Z" />
<glyph unicode="&#xc6;" glyph-name="AE" horiz-adv-x="804" d="M280 392L203 254H414V630H410Q379 573 346 514T280 392ZM26 0L398 660H748V632H446V366H696V338H446V28H758V0H414V226H187L60 0H26Z" />
<glyph unicode="&#xc7;" glyph-name="Ccedilla" horiz-adv-x="562" d="M328 -12Q247 -12 186 30T90 150T56 332Q56 436 90 512T187 630T334 672Q391 672 434 648T502 594L482 572Q455 604 418 623T334 642Q258 642 204 604T120 497T90 332Q90 237 119 167T202
57T330 18Q383 18 424 39T502 102L522 82Q485 39 439 14T328 -12ZM264 -216L258 -190Q324 -185 348 -172T372 -136Q372 -113 354 -102T294 -84L334 2H362L332 -66Q364 -73 383 -88T402 -134Q402 -207 264 -216Z" />
<glyph unicode="&#xc8;" glyph-name="Egrave" horiz-adv-x="510" d="M100 0V660H454V632H132V366H402V338H132V28H464V0H100ZM312 710L186 822L208 846L326 726L312 710Z" />
<glyph unicode="&#xc9;" glyph-name="Eacute" horiz-adv-x="510" d="M100 0V660H454V632H132V366H402V338H132V28H464V0H100ZM268 710L254 726L372 846L394 822L268 710Z" />
<glyph unicode="&#xca;" glyph-name="Ecircumflex" horiz-adv-x="510" d="M100 0V660H454V632H132V366H402V338H132V28H464V0H100ZM174 710L160 726L276 840H304L420 726L406 710L292 810H288L174 710Z" />
<glyph unicode="&#xcb;" glyph-name="Edieresis" horiz-adv-x="510" d="M100 0V660H454V632H132V366H402V338H132V28H464V0H100ZM194 728Q181 728 172 736T162 760Q162 775 171 783T194 792Q208 792 217 784T226 760Q226 745 217 737T194 728ZM386 728Q373 728
364 736T354 760Q354 775 363 783T386 792Q400 792 409 784T418 760Q418 745 409 737T386 728Z" />
<glyph unicode="&#xcc;" glyph-name="Igrave" horiz-adv-x="232" d="M100 0V660H132V0H100ZM138 710L12 822L34 846L152 726L138 710Z" />
<glyph unicode="&#xcd;" glyph-name="Iacute" horiz-adv-x="232" d="M100 0V660H132V0H100ZM94 710L80 726L198 846L220 822L94 710Z" />
<glyph unicode="&#xce;" glyph-name="Icircumflex" horiz-adv-x="232" d="M100 0V660H132V0H100ZM0 710L-14 726L102 840H130L246 726L232 710L118 810H114L0 710Z" />
<glyph unicode="&#xcf;" glyph-name="Idieresis" horiz-adv-x="232" d="M100 0V660H132V0H100ZM20 728Q7 728 -2 736T-12 760Q-12 775 -3 783T20 792Q34 792 43 784T52 760Q52 745 43 737T20 728ZM212 728Q199 728 190 736T180 760Q180 775 189 783T212 792Q226
792 235 784T244 760Q244 745 235 737T212 728Z" />
<glyph unicode="&#xd0;" glyph-name="Eth" horiz-adv-x="620" d="M120 0V336H38V362L120 364V660H268Q370 660 435 619T532 504T564 332Q564 234 533 159T436 42T268 0H120ZM152 28H264Q358 28 416 68T502 176T530 332Q530 419 503 487T417 593T264 632H152V364H320V336H152V28Z"
/>
<glyph unicode="&#xd1;" glyph-name="Ntilde" horiz-adv-x="632" d="M100 0V660H134L426 176L502 46H506Q505 94 504 140T502 232V660H532V0H498L206 484L130 614H126Q128 568 129 525T130 434V0H100ZM408 722Q379 722 359 734T323 763T291 791T252 804Q229 804
213 782T194 724L170 726Q172 769 192 800T252 832Q281 832 301 820T338 791T370 763T408 750Q431 750 446 772T466 830L490 828Q489 785 468 754T408 722Z" />
<glyph unicode="&#xd2;" glyph-name="Ograve" horiz-adv-x="648" d="M324 -12Q246 -12 186 30T91 150T56 332Q56 436 90 512T185 630T324 672Q402 672 462 631T557 513T592 332Q592 228 558 151T463 31T324 -12ZM324 18Q394 18 446 57T528 166T558 332Q558 427
529 496T447 604T324 642Q254 642 202 604T120 497T90 332Q90 237 119 167T201 57T324 18ZM346 710L220 822L242 846L360 726L346 710Z" />
<glyph unicode="&#xd3;" glyph-name="Oacute" horiz-adv-x="648" d="M324 -12Q246 -12 186 30T91 150T56 332Q56 436 90 512T185 630T324 672Q402 672 462 631T557 513T592 332Q592 228 558 151T463 31T324 -12ZM324 18Q394 18 446 57T528 166T558 332Q558 427
529 496T447 604T324 642Q254 642 202 604T120 497T90 332Q90 237 119 167T201 57T324 18ZM302 710L288 726L406 846L428 822L302 710Z" />
<glyph unicode="&#xd4;" glyph-name="Ocircumflex" horiz-adv-x="648" d="M324 -12Q246 -12 186 30T91 150T56 332Q56 436 90 512T185 630T324 672Q402 672 462 631T557 513T592 332Q592 228 558 151T463 31T324 -12ZM324 18Q394 18 446 57T528 166T558 332Q558
427 529 496T447 604T324 642Q254 642 202 604T120 497T90 332Q90 237 119 167T201 57T324 18ZM208 710L194 726L310 840H338L454 726L440 710L326 810H322L208 710Z" />
<glyph unicode="&#xd5;" glyph-name="Otilde" horiz-adv-x="648" d="M324 -12Q246 -12 186 30T91 150T56 332Q56 436 90 512T185 630T324 672Q402 672 462 631T557 513T592 332Q592 228 558 151T463 31T324 -12ZM324 18Q394 18 446 57T528 166T558 332Q558 427
529 496T447 604T324 642Q254 642 202 604T120 497T90 332Q90 237 119 167T201 57T324 18ZM402 722Q373 722 353 734T317 763T285 791T246 804Q223 804 207 782T188 724L164 726Q166 769 186 800T246 832Q275 832 295 820T332 791T364 763T402 750Q425 750 440
772T460 830L484 828Q483 785 462 754T402 722Z" />
<glyph unicode="&#xd6;" glyph-name="Odieresis" horiz-adv-x="648" d="M324 -12Q246 -12 186 30T91 150T56 332Q56 436 90 512T185 630T324 672Q402 672 462 631T557 513T592 332Q592 228 558 151T463 31T324 -12ZM324 18Q394 18 446 57T528 166T558 332Q558
427 529 496T447 604T324 642Q254 642 202 604T120 497T90 332Q90 237 119 167T201 57T324 18ZM228 728Q215 728 206 736T196 760Q196 775 205 783T228 792Q242 792 251 784T260 760Q260 745 251 737T228 728ZM420 728Q407 728 398 736T388 760Q388 775 397 783T420
792Q434 792 443 784T452 760Q452 745 443 737T420 728Z" />
<glyph unicode="&#xd7;" glyph-name="multiply" horiz-adv-x="472" d="M72 138L52 160L216 330L52 500L72 522L236 350L400 522L420 500L256 330L420 160L400 138L236 310L72 138Z" />
<glyph unicode="&#xd8;" glyph-name="Oslash" horiz-adv-x="648" d="M80 -20L58 -4L128 91Q96 136 78 197T60 332Q60 436 94 512T189 630T328 672Q433 672 504 599L564 680L586 664L522 578Q557 534 576 472T596 332Q596 228 562 151T467 31T328 -12Q274 -12 228
9T146 69L80 -20ZM94 332Q94 267 108 213T148 118L485 573Q424 642 328 642Q258 642 206 604T124 497T94 332ZM328 18Q398 18 450 57T532 166T562 332Q562 400 547 455T503 551L165 95Q196 58 237 38T328 18Z" />
<glyph unicode="&#xd9;" glyph-name="Ugrave" horiz-adv-x="630" d="M314 -12Q274 -12 236 0T166 40T117 119T98 246V660H130V254Q130 163 156 112T224 39T314 18Q363 18 406 39T475 111T502 254V660H532V246Q532 170 513 120T463 41T393 0T314 -12ZM336 710L210
822L232 846L350 726L336 710Z" />
<glyph unicode="&#xda;" glyph-name="Uacute" horiz-adv-x="630" d="M314 -12Q274 -12 236 0T166 40T117 119T98 246V660H130V254Q130 163 156 112T224 39T314 18Q363 18 406 39T475 111T502 254V660H532V246Q532 170 513 120T463 41T393 0T314 -12ZM292 710L278
726L396 846L418 822L292 710Z" />
<glyph unicode="&#xdb;" glyph-name="Ucircumflex" horiz-adv-x="630" d="M314 -12Q274 -12 236 0T166 40T117 119T98 246V660H130V254Q130 163 156 112T224 39T314 18Q363 18 406 39T475 111T502 254V660H532V246Q532 170 513 120T463 41T393 0T314 -12ZM198
710L184 726L300 840H328L444 726L430 710L316 810H312L198 710Z" />
<glyph unicode="&#xdc;" glyph-name="Udieresis" horiz-adv-x="630" d="M314 -12Q274 -12 236 0T166 40T117 119T98 246V660H130V254Q130 163 156 112T224 39T314 18Q363 18 406 39T475 111T502 254V660H532V246Q532 170 513 120T463 41T393 0T314 -12ZM218 728Q205
728 196 736T186 760Q186 775 195 783T218 792Q232 792 241 784T250 760Q250 745 241 737T218 728ZM410 728Q397 728 388 736T378 760Q378 775 387 783T410 792Q424 792 433 784T442 760Q442 745 433 737T410 728Z" />
<glyph unicode="&#xdd;" glyph-name="Yacute" horiz-adv-x="436" d="M202 0V272L4 660H38L144 446Q162 410 179 375T216 304H220Q240 340 259 375T294 446L400 660H432L234 272V0H202ZM196 710L182 726L300 846L322 822L196 710Z" />
<glyph unicode="&#xde;" glyph-name="Thorn" horiz-adv-x="556" d="M100 0V660H132V540H272Q383 540 443 500T504 360Q504 266 444 219T272 172H132V0H100ZM132 200H260Q367 200 418 237T470 360Q470 447 419 479T260 512H132V200Z" />
<glyph unicode="&#xdf;" glyph-name="germandbls" horiz-adv-x="530" d="M360 -12Q321 -12 287 2T226 40L244 64Q273 40 300 28T360 16Q414 16 441 49T468 122Q468 159 453 182T413 221T361 250T310 278T270 316T254 376Q254 414 269 441T305 491T340 540T356
600Q356 645 331 674T256 704Q198 704 162 661T126 524V0H96V538Q96 630 141 681T258 732Q318 732 353 695T388 602Q388 563 373 535T337 483T302 435T286 378Q286 348 301 329T341 296T393 269T444 239T484 194T500 124Q500 85 482 55T432 6T360 -12Z" />
<glyph unicode="&#xe0;" glyph-name="agrave" horiz-adv-x="486" d="M198 -12Q161 -12 130 1T79 43T60 117Q60 197 136 238T374 298Q375 337 367 375T332 437T256 462Q205 462 164 442T100 404L84 428Q99 439 125 453T185 479T258 490Q314 490 346 465T391 399T404
310V0H378L374 64H372Q335 34 291 11T198 -12ZM200 16Q244 16 285 37T374 98V272Q269 260 208 240T119 189T92 118Q92 63 124 40T200 16ZM294 574L156 724L180 744L312 590L294 574Z" />
<glyph unicode="&#xe1;" glyph-name="aacute" horiz-adv-x="486" d="M198 -12Q161 -12 130 1T79 43T60 117Q60 197 136 238T374 298Q375 337 367 375T332 437T256 462Q205 462 164 442T100 404L84 428Q99 439 125 453T185 479T258 490Q314 490 346 465T391 399T404
310V0H378L374 64H372Q335 34 291 11T198 -12ZM200 16Q244 16 285 37T374 98V272Q269 260 208 240T119 189T92 118Q92 63 124 40T200 16ZM226 574L208 590L340 744L364 724L226 574Z" />
<glyph unicode="&#xe2;" glyph-name="acircumflex" horiz-adv-x="486" d="M198 -12Q161 -12 130 1T79 43T60 117Q60 197 136 238T374 298Q375 337 367 375T332 437T256 462Q205 462 164 442T100 404L84 428Q99 439 125 453T185 479T258 490Q314 490 346 465T391
399T404 310V0H378L374 64H372Q335 34 291 11T198 -12ZM200 16Q244 16 285 37T374 98V272Q269 260 208 240T119 189T92 118Q92 63 124 40T200 16ZM128 590L246 736H274L392 590L374 574L262 704H258L146 574L128 590Z" />
<glyph unicode="&#xe3;" glyph-name="atilde" horiz-adv-x="486" d="M198 -12Q161 -12 130 1T79 43T60 117Q60 197 136 238T374 298Q375 337 367 375T332 437T256 462Q205 462 164 442T100 404L84 428Q99 439 125 453T185 479T258 490Q314 490 346 465T391 399T404
310V0H378L374 64H372Q335 34 291 11T198 -12ZM200 16Q244 16 285 37T374 98V272Q269 260 208 240T119 189T92 118Q92 63 124 40T200 16ZM337 580Q308 580 288 595T252 630T220 665T182 680Q154 680 141 652T126 582L100 584Q102 613 109 641T134 687T184 706Q213
706 232 691T268 656T300 621T339 606Q367 606 380 635T394 704L420 702Q418 674 411 646T386 599T337 580Z" />
<glyph unicode="&#xe4;" glyph-name="adieresis" horiz-adv-x="486" d="M198 -12Q161 -12 130 1T79 43T60 117Q60 197 136 238T374 298Q375 337 367 375T332 437T256 462Q205 462 164 442T100 404L84 428Q99 439 125 453T185 479T258 490Q314 490 346 465T391
399T404 310V0H378L374 64H372Q335 34 291 11T198 -12ZM200 16Q244 16 285 37T374 98V272Q269 260 208 240T119 189T92 118Q92 63 124 40T200 16ZM174 602Q161 602 152 611T142 634Q142 648 151 657T174 666Q188 666 197 657T206 634Q206 621 197 612T174 602ZM346
602Q333 602 324 611T314 634Q314 648 323 657T346 666Q360 666 369 657T378 634Q378 621 369 612T346 602Z" />
<glyph unicode="&#xe5;" glyph-name="aring" horiz-adv-x="486" d="M198 -12Q161 -12 130 1T79 43T60 117Q60 197 136 238T374 298Q375 337 367 375T332 437T256 462Q205 462 164 442T100 404L84 428Q99 439 125 453T185 479T258 490Q314 490 346 465T391 399T404
310V0H378L374 64H372Q335 34 291 11T198 -12ZM200 16Q244 16 285 37T374 98V272Q269 260 208 240T119 189T92 118Q92 63 124 40T200 16ZM260 546Q221 546 195 572T168 640Q168 682 194 708T260 734Q299 734 325 708T352 640Q352 598 326 572T260 546ZM260 568Q289
568 308 587T328 640Q328 673 309 692T260 712Q232 712 212 693T192 640Q192 607 212 588T260 568Z" />
<glyph unicode="&#xe6;" glyph-name="ae" horiz-adv-x="784" d="M206 -12Q169 -12 138 1T87 42T68 116Q68 197 144 238T376 298Q377 337 369 375T334 437T258 462Q212 462 172 442T108 404L92 428Q107 439 133 453T191 479T260 490Q320 490 355 456T400 364Q426
421 471 455T570 490Q653 490 699 434T746 270Q746 263 746 255T744 238H406Q405 174 428 124T492 45T584 16Q625 16 655 28T712 60L726 34Q699 18 668 3T582 -12Q538 -12 506 3T451 41T410 90Q364 44 308 16T206 -12ZM208 16Q249 16 302 42T398 116Q388 139 382
173T376 244V272Q226 254 163 217T100 118Q100 63 132 40T208 16ZM406 264H716Q716 363 677 412T570 462Q528 462 493 437T434 367T406 264Z" />
<glyph unicode="&#xe7;" glyph-name="ccedilla" horiz-adv-x="446" d="M268 -12Q207 -12 159 17T82 103T54 238Q54 318 84 374T162 460T268 490Q318 490 351 472T408 430L388 408Q364 431 335 446T268 462Q217 462 176 434T111 355T86 238Q86 172 108 122T172
44T268 16Q309 16 343 33T402 74L420 52Q390 25 353 7T268 -12ZM196 -216L190 -190Q256 -185 280 -172T304 -136Q304 -113 286 -102T226 -84L266 2H294L264 -66Q296 -73 315 -88T334 -134Q334 -207 196 -216Z" />
<glyph unicode="&#xe8;" glyph-name="egrave" horiz-adv-x="478" d="M272 -12Q212 -12 163 18T84 104T54 238Q54 316 83 372T160 459T260 490Q343 490 391 434T440 270Q440 263 440 255T438 238H86Q86 174 109 124T175 45T274 16Q315 16 347 28T406 60L420 34Q393
18 360 3T272 -12ZM86 266H410Q410 365 369 413T260 462Q217 462 179 439T116 371T86 266ZM294 574L156 724L180 744L312 590L294 574Z" />
<glyph unicode="&#xe9;" glyph-name="eacute" horiz-adv-x="478" d="M272 -12Q212 -12 163 18T84 104T54 238Q54 316 83 372T160 459T260 490Q343 490 391 434T440 270Q440 263 440 255T438 238H86Q86 174 109 124T175 45T274 16Q315 16 347 28T406 60L420 34Q393
18 360 3T272 -12ZM86 266H410Q410 365 369 413T260 462Q217 462 179 439T116 371T86 266ZM226 574L208 590L340 744L364 724L226 574Z" />
<glyph unicode="&#xea;" glyph-name="ecircumflex" horiz-adv-x="478" d="M272 -12Q212 -12 163 18T84 104T54 238Q54 316 83 372T160 459T260 490Q343 490 391 434T440 270Q440 263 440 255T438 238H86Q86 174 109 124T175 45T274 16Q315 16 347 28T406 60L420
34Q393 18 360 3T272 -12ZM86 266H410Q410 365 369 413T260 462Q217 462 179 439T116 371T86 266ZM128 590L246 736H274L392 590L374 574L262 704H258L146 574L128 590Z" />
<glyph unicode="&#xeb;" glyph-name="edieresis" horiz-adv-x="478" d="M272 -12Q212 -12 163 18T84 104T54 238Q54 316 83 372T160 459T260 490Q343 490 391 434T440 270Q440 263 440 255T438 238H86Q86 174 109 124T175 45T274 16Q315 16 347 28T406 60L420
34Q393 18 360 3T272 -12ZM86 266H410Q410 365 369 413T260 462Q217 462 179 439T116 371T86 266ZM174 602Q161 602 152 611T142 634Q142 648 151 657T174 666Q188 666 197 657T206 634Q206 621 197 612T174 602ZM346 602Q333 602 324 611T314 634Q314 648 323
657T346 666Q360 666 369 657T378 634Q378 621 369 612T346 602Z" />
<glyph unicode="&#xec;" glyph-name="igrave" horiz-adv-x="222" d="M96 0V478H126V0H96ZM146 574L8 724L32 744L164 590L146 574Z" />
<glyph unicode="&#xed;" glyph-name="iacute" horiz-adv-x="222" d="M96 0V478H126V0H96ZM78 574L60 590L192 744L216 724L78 574Z" />
<glyph unicode="&#xee;" glyph-name="icircumflex" horiz-adv-x="222" d="M96 0V478H126V0H96ZM-20 590L98 736H126L244 590L226 574L114 704H110L-2 574L-20 590Z" />
<glyph unicode="&#xef;" glyph-name="idieresis" horiz-adv-x="222" d="M96 0V478H126V0H96ZM26 602Q13 602 4 611T-6 634Q-6 648 3 657T26 666Q40 666 49 657T58 634Q58 621 49 612T26 602ZM198 602Q185 602 176 611T166 634Q166 648 175 657T198 666Q212 666
221 657T230 634Q230 621 221 612T198 602Z" />
<glyph unicode="&#xf0;" glyph-name="eth" horiz-adv-x="532" d="M94 218Q94 159 117 114T180 42T266 16Q324 16 360 48T414 133T432 250Q432 285 429 315Q389 375 348 393T268 412Q211 412 172 385T114 314T94 218ZM266 -12Q214 -12 168 15T92 94T62 218Q62 283
88 333T160 411T270 440Q361 440 423 361Q410 439 379 495T303 594L162 520L150 542L283 612Q255 638 223 659T156 700L172 722Q209 702 244 679T310 626L452 700L464 678L329 607Q389 546 426 460T464 250Q464 170 439 111T369 20T266 -12Z" />
<glyph unicode="&#xf1;" glyph-name="ntilde" horiz-adv-x="526" d="M96 0V478H122L126 402H128Q166 440 205 465T294 490Q368 490 403 446T438 308V0H408V304Q408 384 381 423T292 462Q247 462 210 438T126 366V0H96ZM357 580Q328 580 308 595T272 630T240 665T202
680Q174 680 161 652T146 582L120 584Q122 613 129 641T154 687T204 706Q233 706 252 691T288 656T320 621T359 606Q387 606 400 635T414 704L440 702Q438 674 431 646T406 599T357 580Z" />
<glyph unicode="&#xf2;" glyph-name="ograve" horiz-adv-x="532" d="M266 -12Q209 -12 161 17T83 103T54 238Q54 318 83 374T160 460T266 490Q323 490 371 461T448 375T478 238Q478 159 449 103T371 18T266 -12ZM266 16Q317 16 358 44T422 122T446 238Q446 304
423 354T358 433T266 462Q215 462 175 434T110 355T86 238Q86 172 110 122T174 44T266 16ZM300 574L162 724L186 744L318 590L300 574Z" />
<glyph unicode="&#xf3;" glyph-name="oacute" horiz-adv-x="532" d="M266 -12Q209 -12 161 17T83 103T54 238Q54 318 83 374T160 460T266 490Q323 490 371 461T448 375T478 238Q478 159 449 103T371 18T266 -12ZM266 16Q317 16 358 44T422 122T446 238Q446 304
423 354T358 433T266 462Q215 462 175 434T110 355T86 238Q86 172 110 122T174 44T266 16ZM232 574L214 590L346 744L370 724L232 574Z" />
<glyph unicode="&#xf4;" glyph-name="ocircumflex" horiz-adv-x="532" d="M266 -12Q209 -12 161 17T83 103T54 238Q54 318 83 374T160 460T266 490Q323 490 371 461T448 375T478 238Q478 159 449 103T371 18T266 -12ZM266 16Q317 16 358 44T422 122T446 238Q446
304 423 354T358 433T266 462Q215 462 175 434T110 355T86 238Q86 172 110 122T174 44T266 16ZM134 590L252 736H280L398 590L380 574L268 704H264L152 574L134 590Z" />
<glyph unicode="&#xf5;" glyph-name="otilde" horiz-adv-x="532" d="M266 -12Q209 -12 161 17T83 103T54 238Q54 318 83 374T160 460T266 490Q323 490 371 461T448 375T478 238Q478 159 449 103T371 18T266 -12ZM266 16Q317 16 358 44T422 122T446 238Q446 304
423 354T358 433T266 462Q215 462 175 434T110 355T86 238Q86 172 110 122T174 44T266 16ZM343 580Q314 580 294 595T258 630T226 665T188 680Q160 680 147 652T132 582L106 584Q108 613 115 641T140 687T190 706Q219 706 238 691T274 656T306 621T345 606Q373
606 386 635T400 704L426 702Q424 674 417 646T392 599T343 580Z" />
<glyph unicode="&#xf6;" glyph-name="odieresis" horiz-adv-x="532" d="M266 -12Q209 -12 161 17T83 103T54 238Q54 318 83 374T160 460T266 490Q323 490 371 461T448 375T478 238Q478 159 449 103T371 18T266 -12ZM266 16Q317 16 358 44T422 122T446 238Q446
304 423 354T358 433T266 462Q215 462 175 434T110 355T86 238Q86 172 110 122T174 44T266 16ZM180 602Q167 602 158 611T148 634Q148 648 157 657T180 666Q194 666 203 657T212 634Q212 621 203 612T180 602ZM352 602Q339 602 330 611T320 634Q320 648 329 657T352
666Q366 666 375 657T384 634Q384 621 375 612T352 602Z" />
<glyph unicode="&#xf7;" glyph-name="divide" horiz-adv-x="472" d="M34 316V344H438V316H34ZM236 114Q223 114 214 124T204 150Q204 165 213 174T236 184Q250 184 259 175T268 150Q268 134 259 124T236 114ZM236 474Q223 474 214 484T204 510Q204 525 213 534T236
544Q250 544 259 535T268 510Q268 494 259 484T236 474Z" />
<glyph unicode="&#xf8;" glyph-name="oslash" horiz-adv-x="532" d="M86 238Q86 195 96 158T126 93L388 407Q364 433 333 447T266 462Q215 462 175 434T110 355T86 238ZM68 -22L46 -4L106 68Q82 100 68 142T54 238Q54 318 83 374T160 460T266 490Q349 490 408
431L464 498L486 480L427 409Q451 378 464 335T478 238Q478 159 449 103T371 18T266 -12Q183 -12 125 46L68 -22ZM266 16Q317 16 358 44T422 122T446 238Q446 282 436 319T406 384L144 70Q168 45 199 31T266 16Z" />
<glyph unicode="&#xf9;" glyph-name="ugrave" horiz-adv-x="524" d="M232 -12Q159 -12 124 32T88 170V478H118V174Q118 95 145 56T234 16Q279 16 316 41T398 120V478H428V0H402L398 82H396Q360 40 321 14T232 -12ZM294 574L156 724L180 744L312 590L294 574Z" />
<glyph unicode="&#xfa;" glyph-name="uacute" horiz-adv-x="524" d="M232 -12Q159 -12 124 32T88 170V478H118V174Q118 95 145 56T234 16Q279 16 316 41T398 120V478H428V0H402L398 82H396Q360 40 321 14T232 -12ZM226 574L208 590L340 744L364 724L226 574Z" />
<glyph unicode="&#xfb;" glyph-name="ucircumflex" horiz-adv-x="524" d="M232 -12Q159 -12 124 32T88 170V478H118V174Q118 95 145 56T234 16Q279 16 316 41T398 120V478H428V0H402L398 82H396Q360 40 321 14T232 -12ZM128 590L246 736H274L392 590L374 574L262
704H258L146 574L128 590Z" />
<glyph unicode="&#xfc;" glyph-name="udieresis" horiz-adv-x="524" d="M232 -12Q159 -12 124 32T88 170V478H118V174Q118 95 145 56T234 16Q279 16 316 41T398 120V478H428V0H402L398 82H396Q360 40 321 14T232 -12ZM174 602Q161 602 152 611T142 634Q142 648
151 657T174 666Q188 666 197 657T206 634Q206 621 197 612T174 602ZM346 602Q333 602 324 611T314 634Q314 648 323 657T346 666Q360 666 369 657T378 634Q378 621 369 612T346 602Z" />
<glyph unicode="&#xfd;" glyph-name="yacute" horiz-adv-x="424" d="M66 -222Q40 -222 20 -212L28 -184Q36 -187 47 -189T68 -192Q113 -192 145 -153T196 -56L210 -12L12 478H46L168 164Q180 134 194 98T222 30H226Q238 62 250 98T272 164L380 478H412L220 -68Q208
-105 188 -140T137 -199T66 -222ZM190 574L172 590L304 744L328 724L190 574Z" />
<glyph unicode="&#xfe;" glyph-name="thorn" horiz-adv-x="540" d="M96 -222V722H126V416Q164 445 206 467T294 490Q392 490 439 424T486 246Q486 165 457 108T379 19T274 -12Q240 -12 203 4T126 48V-222H96ZM276 16Q328 16 368 45T431 127T454 246Q454 307 438
356T387 433T292 462Q255 462 214 441T126 378V82Q170 46 209 31T276 16Z" />
<glyph unicode="&#xff;" glyph-name="ydieresis" horiz-adv-x="424" d="M66 -222Q40 -222 20 -212L28 -184Q36 -187 47 -189T68 -192Q113 -192 145 -153T196 -56L210 -12L12 478H46L168 164Q180 134 194 98T222 30H226Q238 62 250 98T272 164L380 478H412L220
-68Q208 -105 188 -140T137 -199T66 -222ZM138 602Q125 602 116 611T106 634Q106 648 115 657T138 666Q152 666 161 657T170 634Q170 621 161 612T138 602ZM310 602Q297 602 288 611T278 634Q278 648 287 657T310 666Q324 666 333 657T342 634Q342 621 333 612T310
602Z" />
<glyph unicode="&#x2013;" glyph-name="endash" horiz-adv-x="480" d="M40 236V264H440V236H40Z" />
<glyph unicode="&#x2014;" glyph-name="emdash" horiz-adv-x="800" d="M40 236V264H760V236H40Z" />
<glyph unicode="&#x2018;" glyph-name="quoteleft" horiz-adv-x="208" d="M96 500Q80 500 69 515T58 558Q58 609 79 645T136 706L152 688Q121 661 105 634T88 565Q90 566 96 566Q108 566 119 559T130 534Q130 518 121 509T96 500Z" />
<glyph unicode="&#x2019;" glyph-name="quoteright" horiz-adv-x="208" d="M72 494L56 512Q88 539 104 566T120 635Q118 634 112 634Q100 634 89 642T78 666Q78 683 87 691T112 700Q129 700 139 686T150 642Q150 591 129 556T72 494Z" />
<glyph unicode="&#x201a;" glyph-name="quotesinglbase" horiz-adv-x="208" d="M72 -126L56 -108Q88 -81 104 -54T120 15Q118 14 112 14Q100 14 89 22T78 46Q78 63 87 71T112 80Q129 80 139 66T150 22Q150 -29 129 -64T72 -126Z" />
<glyph unicode="&#x201c;" glyph-name="quotedblleft" horiz-adv-x="336" d="M96 500Q80 500 69 515T58 558Q58 609 79 645T136 706L152 688Q121 661 105 634T88 565Q90 566 96 566Q108 566 119 559T130 534Q130 518 121 509T96 500ZM224 500Q208 500 197 515T186
558Q186 609 207 645T264 706L280 688Q249 661 233 634T216 565Q218 566 224 566Q236 566 247 559T258 534Q258 518 249 509T224 500Z" />
<glyph unicode="&#x201d;" glyph-name="quotedblright" horiz-adv-x="336" d="M72 494L56 512Q88 539 104 566T120 635Q118 634 112 634Q100 634 89 642T78 666Q78 683 87 691T112 700Q129 700 139 686T150 642Q150 591 129 556T72 494ZM200 494L184 512Q216 539
232 566T248 635Q246 634 240 634Q228 634 217 642T206 666Q206 683 215 691T240 700Q257 700 267 686T278 642Q278 591 257 556T200 494Z" />
<glyph unicode="&#x201e;" glyph-name="quotedblbase" horiz-adv-x="336" d="M72 -126L56 -108Q88 -81 104 -54T120 15Q118 14 112 14Q100 14 89 22T78 46Q78 63 87 71T112 80Q129 80 139 66T150 22Q150 -29 129 -64T72 -126ZM200 -126L184 -108Q216 -81 232 -54T248
15Q246 14 240 14Q228 14 217 22T206 46Q206 63 215 71T240 80Q257 80 267 66T278 22Q278 -29 257 -64T200 -126Z" />
<glyph unicode="&#x2022;" glyph-name="bullet" horiz-adv-x="272" d="M136 158Q100 158 70 186T40 264Q40 314 70 342T136 370Q172 370 202 342T232 264Q232 215 202 187T136 158Z" />
<glyph unicode="&#x2039;" glyph-name="guilsinglleft" horiz-adv-x="254" d="M180 74L42 238V266L180 430L200 412L76 252L200 90L180 74Z" />
<glyph unicode="&#x203a;" glyph-name="guilsinglright" horiz-adv-x="254" d="M74 74L54 90L178 252L54 412L74 430L212 266V238L74 74Z" />
</font>
</defs>
</svg>
