<?xml version="1.0" standalone="no"?>
<!DOCTYPE svg PUBLIC "-//W3C//DTD SVG 1.1//EN" "http://www.w3.org/Graphics/SVG/1.1/DTD/svg11.dtd">
<svg xmlns="http://www.w3.org/2000/svg">
<defs >
<font id="SourceSansPro" horiz-adv-x="481" ><font-face
    font-family="Source Sans Pro"
    units-per-em="1000"
    panose-1="2 11 5 3 3 4 3 9 2 4"
    ascent="984"
    descent="-273"
    alphabetic="0" />
<glyph unicode=" " glyph-name="space" horiz-adv-x="200" />
<glyph unicode="!" glyph-name="exclam" horiz-adv-x="282" d="M102 196L184 671H261L242 579L156 196H102ZM91 -12Q69 -12 56 2T43 38Q43 64 62 86T110 108Q133 108 144 94T156 57Q156 32 138 10T91 -12Z" />
<glyph unicode="&quot;" glyph-name="quotedbl" horiz-adv-x="407" d="M128 426L151 579L166 671H241L222 579L180 426H128ZM293 426L316 579L331 671H406L387 579L345 426H293Z" />
<glyph unicode="#" glyph-name="numbersign" horiz-adv-x="479" d="M38 0L103 205H24L37 260H119L165 410H85L99 465H183L242 650H293L235 465H360L419 650H470L412 465H491L477 410H395L349 260H430L416 205H331L267 0H215L280 205H154L90 0H38ZM171 260H298L344
410H217L171 260Z" />
<glyph unicode="$" glyph-name="dollar" horiz-adv-x="480" d="M142 -110L162 -8Q118 1 81 26T17 82L66 130Q89 100 124 76T204 52Q259 52 294 84T329 168Q329 204 314 230T274 278T222 319T171 361T131 412T115 478Q115 527 137 565T200 627T291 653L311 751H367L346
648Q381 639 411 617T464 566L414 521Q394 550 365 570T301 590Q253 590 222 562T191 488Q191 451 212 425T266 377T329 328T382 267T404 180Q404 128 381 86T317 18T218 -12L198 -110H142Z" />
<glyph unicode="%" glyph-name="percent" horiz-adv-x="791" d="M184 258Q126 258 94 301T61 410Q61 457 73 503T108 587T166 649T243 672Q301 672 333 629T366 520Q366 474 354 428T319 343T262 281T184 258ZM189 308Q217 308 239 326T276 376T299 443T307 516Q307
562 291 592T238 622Q210 622 188 604T151 554T128 487T120 414Q120 368 136 338T189 308ZM135 -12L619 672H671L187 -12H135ZM570 -12Q512 -12 480 31T447 140Q447 187 459 233T494 317T552 379T629 402Q687 402 719 359T752 250Q752 204 740 158T705 73T648 11T570
-12ZM575 38Q603 38 625 56T662 106T685 173T693 246Q693 292 677 322T624 352Q596 352 574 334T537 284T514 217T506 144Q506 98 522 68T575 38Z" />
<glyph unicode="&amp;" glyph-name="ampersand" horiz-adv-x="582" d="M229 480Q229 442 240 398Q278 421 309 444T360 495T380 558Q380 581 368 597T330 614Q287 614 258 577T229 480ZM180 -12Q106 -12 61 29T15 141Q15 195 38 235T100 306T181 363Q163 422 163
476Q163 532 187 575T250 643T335 668Q389 668 416 638T443 561Q443 510 416 472T347 402T259 342Q280 290 312 241T382 151Q423 194 453 244T510 352H580Q549 286 511 225T425 111Q480 67 527 50L495 -12Q434 8 372 61Q330 27 282 8T180 -12ZM91 151Q91 105 119
77T194 49Q229 49 263 63T330 102Q291 145 258 197T202 304Q156 273 124 237T91 151Z" />
<glyph unicode="&apos;" glyph-name="quotesingle" horiz-adv-x="242" d="M128 426L151 579L166 671H241L222 579L180 426H128Z" />
<glyph unicode="(" glyph-name="parenleft" horiz-adv-x="291" d="M122 -176Q98 -112 82 -31T65 133Q65 250 92 350T172 544T298 731L343 706Q237 572 183 428T129 125Q129 79 133 28T148 -71T172 -157L122 -176Z" />
<glyph unicode=")" glyph-name="parenright" horiz-adv-x="293" d="M1 -176L-44 -150Q62 -16 115 128T169 430Q169 477 165 528T151 626T127 712L177 731Q201 667 217 586T234 423Q234 306 207 205T127 11T1 -176Z" />
<glyph unicode="*" glyph-name="asterisk" horiz-adv-x="403" d="M176 434L144 463L213 551L125 600L143 640L242 607L267 713L311 709L303 602L406 616L413 573L310 542L348 445L308 422L256 510L176 434Z" />
<glyph unicode="+" glyph-name="plus" horiz-adv-x="480" d="M222 103V302H48V359H223V554H283V359H458V302H282V103H222Z" />
<glyph unicode="," glyph-name="comma" horiz-adv-x="242" d="M-20 -164L-31 -118Q16 -100 44 -70T80 -4H78Q56 -4 41 9T26 44Q26 69 43 88T90 108Q116 108 130 90T144 42Q144 -31 99 -87T-20 -164Z" />
<glyph unicode="-" glyph-name="hyphen" horiz-adv-x="299" d="M35 222L47 281H266L253 222H35Z" />
<glyph unicode="." glyph-name="period" horiz-adv-x="242" d="M70 -12Q48 -12 36 2T23 38Q23 64 42 86T90 108Q112 108 124 94T136 57Q136 32 118 10T70 -12Z" />
<glyph unicode="/" glyph-name="slash" horiz-adv-x="340" d="M-72 -160L362 710H418L-17 -160H-72Z" />
<glyph unicode="0" glyph-name="zero" horiz-adv-x="480" d="M200 -12Q150 -12 115 16T61 93T42 205Q42 294 63 374T120 517T205 614T306 650Q356 650 391 621T444 543T462 431Q462 341 442 261T385 120T301 23T200 -12ZM204 49Q243 49 276 83T336 173T376 298T391
434Q391 501 369 544T301 588Q262 588 229 554T169 463T129 338T114 202Q114 136 136 93T204 49Z" />
<glyph unicode="1" glyph-name="one" horiz-adv-x="480" d="M26 0L39 64H178L274 542H161L171 592Q256 604 311 638H370L254 64H384L372 0H26Z" />
<glyph unicode="2" glyph-name="two" horiz-adv-x="480" d="M-10 0L-2 46Q94 127 165 188T283 299T353 392T377 483Q377 527 352 557T273 587Q241 587 209 571T142 523L103 571Q147 609 190 629T282 650Q364 650 408 606T452 493Q452 440 431 393T369 298T266
194T121 66H397L385 0H-10Z" />
<glyph unicode="3" glyph-name="three" horiz-adv-x="480" d="M187 -12Q122 -12 72 20T-9 98L42 138Q65 104 102 78T188 52Q256 52 299 89T343 184Q343 235 301 268T158 301L170 359Q249 359 294 379T359 430T379 491Q379 533 354 560T278 587Q249 587 216 573T153
536L114 587Q197 650 290 650Q370 650 413 610T457 504Q457 443 420 397T308 330V326Q361 309 390 273T420 187Q420 126 390 82T307 13T187 -12Z" />
<glyph unicode="4" glyph-name="four" horiz-adv-x="480" d="M331 0H259L294 176H15L24 228L374 638H458L378 238H461L449 176H366L331 0ZM109 238H306L344 427Q350 456 359 488T375 554H371Q351 526 331 500T291 450L109 238Z" />
<glyph unicode="5" glyph-name="five" horiz-adv-x="480" d="M188 -12Q123 -12 76 19T0 96L50 137Q72 104 104 78T193 52Q235 52 271 73T329 132T351 222Q351 284 320 314T236 344Q205 344 183 336T129 311L96 337L176 638H475L462 572H229L177 384Q194 392 215
398T261 404Q333 404 380 362T428 236Q428 160 395 105T306 19T188 -12Z" />
<glyph unicode="6" glyph-name="six" horiz-adv-x="480" d="M123 202Q123 133 152 91T232 48Q270 48 300 71T347 132T365 209Q365 264 340 296T264 329Q239 329 200 312T124 248Q123 237 123 226T123 202ZM228 -12Q174 -12 134 16T73 92T51 204Q51 302 73 383T136
524T230 617T349 650Q402 650 436 626T491 569L439 528Q405 586 345 586Q295 586 252 553T177 458T131 312Q164 350 206 368T281 386Q352 386 394 342T437 220Q437 158 410 105T335 20T228 -12Z" />
<glyph unicode="7" glyph-name="seven" horiz-adv-x="480" d="M120 0Q149 120 186 219T278 405T415 572H105L119 638H517L507 588Q408 495 349 401T257 208T200 0H120Z" />
<glyph unicode="8" glyph-name="eight" horiz-adv-x="480" d="M222 -12Q176 -12 133 6T61 60T33 153Q33 202 54 239T110 302T183 346V350Q155 378 140 407T125 476Q125 531 151 569T220 629T314 650Q355 650 391 634T451 586T474 503Q474 439 439 396T349 322V318Q369
305 389 285T423 236T437 174Q437 116 407 75T329 11T222 -12ZM309 345Q346 369 376 406T406 493Q406 540 378 566T308 592Q264 592 229 563T194 480Q194 430 225 401T309 345ZM226 45Q262 45 294 59T346 102T366 170Q366 207 346 232T292 278T219 320Q169 292
136 255T103 161Q103 106 139 76T226 45Z" />
<glyph unicode="9" glyph-name="nine" horiz-adv-x="480" d="M141 429Q141 374 167 342T243 309Q267 309 307 326T382 390Q383 401 383 412T383 436Q383 505 354 547T274 590Q237 590 207 567T159 506T141 429ZM157 -12Q105 -12 71 12T16 69L68 110Q100 52 162
52Q212 52 255 85T329 180T374 324Q341 287 300 270T225 252Q155 252 113 296T70 418Q70 481 97 533T172 618T278 650Q333 650 372 623T433 546T455 434Q455 337 433 255T370 114T276 21T157 -12Z" />
<glyph unicode=":" glyph-name="colon" horiz-adv-x="242" d="M134 357Q112 357 100 371T87 407Q87 433 106 455T154 477Q176 477 188 463T200 426Q200 401 182 379T134 357ZM70 -12Q48 -12 36 2T23 38Q23 64 42 86T90 108Q112 108 124 94T136 57Q136 32 118 10T70 -12Z" />
<glyph unicode=";" glyph-name="semicolon" horiz-adv-x="242" d="M134 357Q112 357 100 371T87 407Q87 433 106 455T154 477Q176 477 188 463T200 426Q200 401 182 379T134 357ZM-20 -164L-31 -118Q16 -100 44 -70T80 -4H78Q56 -4 41 9T26 44Q26 69 43 88T90
108Q116 108 130 90T144 42Q144 -31 99 -87T-20 -164Z" />
<glyph unicode="&lt;" glyph-name="less" horiz-adv-x="480" d="M458 135L46 301V359L458 526V461L255 381L130 333V329L255 280L458 201V135Z" />
<glyph unicode="=" glyph-name="equal" horiz-adv-x="480" d="M48 408V465H458V408H48ZM48 451V508H458V451H48Z" />
<glyph unicode="&gt;" glyph-name="greater" horiz-adv-x="480" d="M48 135V201L252 280L376 329V333L252 381L48 461V526L460 359V301L48 135Z" />
<glyph unicode="?" glyph-name="question" horiz-adv-x="409" d="M145 201Q148 252 169 289T219 355T276 410T324 465T343 531Q343 572 320 595T257 618Q229 618 202 604T152 567L111 613Q140 643 180 662T266 682Q336 682 377 646T418 544Q418 495 399 460T350
395T290 337T237 275T211 195L145 201ZM141 -12Q119 -12 107 2T94 38Q94 64 113 86T161 108Q183 108 195 94T207 57Q207 32 189 10T141 -12Z" />
<glyph unicode="@" glyph-name="at" horiz-adv-x="814" d="M352 -155Q266 -155 197 -118T86 -9T45 163Q45 266 81 353T178 506T318 607T480 644Q575 644 641 606T742 501T777 348Q777 251 747 184T669 82T567 47Q532 47 508 67T477 123H474Q451 95 422 76T359
56Q313 56 279 91T244 191Q244 235 259 277T301 354T364 408T440 429Q487 429 513 378H515L528 421H579L529 204Q519 158 530 129T581 100Q614 100 646 127T700 208T722 338Q722 411 696 468T614 559T473 593Q405 593 339 562T220 473T134 340T102 174Q102 85 137
23T230 -71T358 -103Q433 -103 493 -66L516 -112Q436 -155 352 -155ZM373 109Q418 109 463 170L499 331Q486 357 472 366T440 376Q401 376 371 348T323 279T305 198Q305 153 324 131T373 109Z" />
<glyph unicode="A" glyph-name="A" horiz-adv-x="510" d="M227 377L169 265H364L354 377Q350 429 345 482T336 591H332Q306 534 281 483T227 377ZM-53 0L303 656H393L469 0H388L370 205H138L33 0H-53Z" />
<glyph unicode="B" glyph-name="B" horiz-adv-x="583" d="M35 0L166 656H341Q436 656 490 619T544 511Q544 467 523 433T468 377T398 347L397 343Q448 331 483 299T518 210Q518 137 483 91T385 22T245 0H35ZM187 374H281Q375 374 420 409T465 500Q465 545 431
570T322 595H231L187 374ZM124 61H238Q332 61 387 95T442 206Q442 256 404 286T292 317H176L124 61Z" />
<glyph unicode="C" glyph-name="C" horiz-adv-x="550" d="M290 -12Q215 -12 163 21T84 115T57 253Q57 330 81 404T150 537T257 632T396 668Q452 668 492 641T557 571L503 530Q484 562 457 581T392 601Q334 601 287 571T206 490T155 380T137 260Q137 201 154 155T208
82T304 55Q344 55 377 71T443 114L478 64Q442 33 396 11T290 -12Z" />
<glyph unicode="D" glyph-name="D" horiz-adv-x="592" d="M35 0L166 656H288Q425 656 495 589T566 400Q566 281 524 191T402 51T211 0H35ZM125 64H211Q296 64 358 106T453 223T487 395Q487 488 436 540T285 593H231L125 64Z" />
<glyph unicode="E" glyph-name="E" horiz-adv-x="503" d="M35 0L166 656H528L515 591H230L188 378H429L415 312H176L125 66H419L405 0H35Z" />
<glyph unicode="F" glyph-name="F" horiz-adv-x="473" d="M35 0L166 656H528L515 591H230L185 363H426L413 297H173L113 0H35Z" />
<glyph unicode="G" glyph-name="G" horiz-adv-x="588" d="M300 -12Q182 -12 120 60T57 253Q57 331 81 405T150 538T260 633T406 668Q465 668 505 641T571 571L516 530Q497 562 470 581T402 601Q340 601 291 571T208 490T155 380T137 260Q137 202 154 155T210 81T311
54Q347 54 375 66T423 94L460 275H324L337 339H543L486 55Q450 25 403 7T300 -12Z" />
<glyph unicode="H" glyph-name="H" horiz-adv-x="622" d="M35 0L166 656H244L188 379H484L540 656H617L486 0H408L471 312H175L113 0H35Z" />
<glyph unicode="I" glyph-name="I" horiz-adv-x="252" d="M35 0L166 656H244L113 0H35Z" />
<glyph unicode="J" glyph-name="J" horiz-adv-x="456" d="M159 -12Q101 -12 60 15T-2 89L49 132Q63 96 91 76T161 55Q211 55 242 92T286 195L378 656H456L362 184Q346 99 296 44T159 -12Z" />
<glyph unicode="K" glyph-name="K" horiz-adv-x="559" d="M35 0L166 656H244L179 332H182L511 656H599L353 404L502 0H421L295 354L158 220L113 0H35Z" />
<glyph unicode="L" glyph-name="L" horiz-adv-x="462" d="M35 0L166 656H244L126 66H402L389 0H35Z" />
<glyph unicode="M" glyph-name="M" horiz-adv-x="705" d="M35 0L166 656H259L316 302L338 166H342L412 302L607 656H700L569 0H494L570 370Q579 414 592 467T617 563H613L534 417L341 69H297L236 417L214 563H210Q204 519 197 467T182 370L108 0H35Z" />
<glyph unicode="N" glyph-name="N" horiz-adv-x="619" d="M35 0L166 656H244L394 236L436 99H440Q446 148 453 202T470 308L539 656H614L483 0H406L258 419L215 560H211Q205 509 198 456T180 353L110 0H35Z" />
<glyph unicode="O" glyph-name="O" horiz-adv-x="633" d="M287 -12Q177 -12 119 63T60 263Q60 338 83 410T149 540T250 633T379 668Q453 668 503 634T580 539T606 394Q606 319 583 247T517 116T416 23T287 -12ZM291 55Q344 55 387 85T462 164T510 271T527 387Q527
484 490 542T375 601Q322 601 279 572T204 493T156 386T139 269Q139 173 175 114T291 55Z" />
<glyph unicode="P" glyph-name="P" horiz-adv-x="550" d="M35 0L166 656H351Q443 656 500 619T557 496Q557 416 520 365T419 289T270 264H165L113 0H35ZM178 327H273Q374 327 427 367T480 486Q480 543 442 568T332 594H231L178 327Z" />
<glyph unicode="Q" glyph-name="Q" horiz-adv-x="633" d="M291 53Q344 53 387 82T462 161T510 270T527 387Q527 484 490 542T375 601Q322 601 279 572T204 493T156 386T139 269Q139 171 175 112T291 53ZM459 -162Q376 -162 316 -124T230 -6Q147 13 104 84T60 263Q60
338 83 410T149 540T250 633T379 668Q453 668 503 634T580 539T606 394Q606 322 585 252T524 125T431 32T310 -11Q327 -54 369 -75T464 -97Q479 -97 492 -95T519 -90L524 -151Q491 -162 459 -162Z" />
<glyph unicode="R" glyph-name="R" horiz-adv-x="555" d="M35 0L166 656H346Q438 656 494 621T551 503Q551 412 496 357T358 285L473 0H390L282 278H168L113 0H35ZM181 341H280Q374 341 424 382T474 493Q474 547 437 570T327 594H231L181 341Z" />
<glyph unicode="S" glyph-name="S" horiz-adv-x="506" d="M231 -12Q164 -12 108 17T12 104L69 147Q98 104 140 79T238 54Q298 54 338 88T379 178Q379 214 357 239T297 286L221 332Q179 358 150 394T120 486Q120 536 146 577T219 643T324 668Q383 668 431 642T510
576L459 530Q434 560 399 580T318 601Q281 601 255 586T214 546T199 495Q199 457 223 434T284 388L360 343Q407 315 433 280T459 189Q459 131 430 86T349 14T231 -12Z" />
<glyph unicode="T" glyph-name="T" horiz-adv-x="510" d="M166 0L283 589H93L106 656H565L552 589H361L244 0H166Z" />
<glyph unicode="U" glyph-name="U" horiz-adv-x="616" d="M286 -12Q186 -12 133 40T79 195Q79 216 82 239T89 288L163 656H241L166 281Q157 236 157 202Q157 132 189 94T290 55Q346 55 391 101T457 254L538 656H614L532 251Q504 109 439 49T286 -12Z" />
<glyph unicode="V" glyph-name="V" horiz-adv-x="496" d="M141 0L82 656H161L188 292Q193 239 197 185T204 76H208Q233 129 259 184T312 292L493 656H577L234 0H141Z" />
<glyph unicode="W" glyph-name="W" horiz-adv-x="756" d="M95 0L104 656H184L174 295Q171 243 170 189T164 82H168Q191 135 215 189T261 295L425 656H496L505 295Q506 243 506 190T506 82H510Q530 136 551 189T593 295L735 656H812L542 0H443L436 401Q436 437
437 476T439 555H435Q421 516 405 478T371 401L192 0H95Z" />
<glyph unicode="X" glyph-name="X" horiz-adv-x="494" d="M-36 0L216 340L108 656H192L248 482Q255 460 261 438T275 390H278Q295 414 312 438T344 485L464 656H546L309 334L426 0H342L282 184Q275 209 267 234T251 286H248Q229 260 211 233T175 180L47 0H-36Z" />
<glyph unicode="Y" glyph-name="Y" horiz-adv-x="461" d="M139 0L190 256L83 656H163L208 467Q217 431 224 397T241 324H244Q267 361 289 396T335 468L459 656H542L268 256L216 0H139Z" />
<glyph unicode="Z" glyph-name="Z" horiz-adv-x="512" d="M-1 0L9 47L434 591H134L148 656H541L531 610L109 66H440L425 0H-1Z" />
<glyph unicode="[" glyph-name="bracketleft" horiz-adv-x="292" d="M8 -152L180 708H349L342 663H229L76 -107H188L177 -152H8Z" />
<glyph unicode="\" glyph-name="backslash" horiz-adv-x="340" d="M203 -160L88 710H140L257 -160H203Z" />
<glyph unicode="]" glyph-name="bracketright" horiz-adv-x="292" d="M-49 -152L-39 -107H72L227 663H115L123 708H294L122 -152H-49Z" />
<glyph unicode="^" glyph-name="asciicircum" horiz-adv-x="479" d="M83 283L229 670H291L437 283H373L308 461L263 594H260L213 461L149 283H83Z" />
<glyph unicode="_" glyph-name="underscore" horiz-adv-x="483" d="M-36 -124L-25 -74H432L422 -124H-36Z" />
<glyph unicode="`" glyph-name="grave" horiz-adv-x="517" d="M365 570L233 734L299 783L413 606L365 570Z" />
<glyph unicode="a" glyph-name="a" horiz-adv-x="537" d="M179 -12Q115 -12 77 33T39 164Q39 234 61 294T120 401T204 472T302 498Q341 498 371 478T419 425H423L442 486H504L407 0H344L352 72H348Q313 35 269 12T179 -12ZM207 52Q245 52 284 75T360 145L404 362Q383
400 358 417T305 434Q269 434 236 413T176 356T134 273T118 176Q118 113 142 83T207 52Z" />
<glyph unicode="b" glyph-name="b" horiz-adv-x="536" d="M234 -12Q195 -12 165 8T117 61H114L94 0H31L173 712H250L211 522L189 426H191Q227 455 269 476T356 498Q420 498 458 453T496 322Q496 252 474 192T415 85T331 14T234 -12ZM231 52Q267 52 300 73T360
130T402 213T417 311Q417 373 393 403T328 434Q294 434 254 413T178 355L132 124Q152 86 177 69T231 52Z" />
<glyph unicode="c" glyph-name="c" horiz-adv-x="435" d="M216 -12Q137 -12 87 39T37 183Q37 251 59 308T119 408T206 474T308 498Q352 498 382 481T434 439L389 391Q370 414 351 424T303 435Q255 435 212 401T142 311T115 188Q115 122 143 87T230 52Q262 52 289
65T338 95L372 45Q346 25 308 7T216 -12Z" />
<glyph unicode="d" glyph-name="d" horiz-adv-x="535" d="M179 -12Q115 -12 77 33T39 164Q39 234 61 294T120 401T204 472T302 498Q341 498 370 479T417 427H420L436 522L474 712H551L407 0H344L352 72H348Q313 35 269 12T179 -12ZM207 52Q245 52 284 75T360 145L404
362Q383 400 358 417T305 434Q269 434 236 413T176 356T134 273T118 176Q118 113 142 83T207 52Z" />
<glyph unicode="e" glyph-name="e" d="M228 -12Q142 -12 90 41T37 191Q37 260 59 316T119 413T203 476T297 498Q352 498 384 475T432 412T447 322Q447 294 441 269T430 229H114Q105 166 121 126T170 68T246 49Q275 49 303 61T355 91L385 40Q356 19 316 4T228 -12ZM122
281H377Q379 292 380 304T382 329Q382 357 373 381T344 421T288 437Q235 437 188 395T122 281Z" />
<glyph unicode="f" glyph-name="f" horiz-adv-x="282" d="M43 0L128 424H65L76 481L141 486L157 567Q172 641 211 682T311 724Q337 724 358 718T397 700L370 645Q360 652 347 657T316 662Q283 662 263 637T234 569L217 486H315L303 424H204L119 0H43Z" />
<glyph unicode="g" glyph-name="g" horiz-adv-x="531" d="M171 -220Q122 -220 79 -201T1 -153L37 -100Q65 -123 99 -140T174 -157Q236 -157 273 -119T324 -17L349 87Q311 49 269 27T180 5Q119 5 79 48T39 176Q39 243 60 301T118 403T201 473T296 498Q334 498 365
478T413 425H416L435 486H498L396 -23Q377 -118 320 -169T171 -220ZM205 69Q240 69 280 90T355 154L398 362Q376 400 352 417T299 434Q264 434 232 414T174 358T133 279T118 187Q118 128 141 99T205 69Z" />
<glyph unicode="h" glyph-name="h" horiz-adv-x="523" d="M31 0L173 712H250L202 477L186 416H190Q231 451 272 474T357 498Q419 498 445 466T472 377Q472 346 464 310L402 0H326L386 300Q390 320 392 332T394 357Q394 432 322 432Q294 432 258 411T176 344L107 0H31Z" />
<glyph unicode="i" glyph-name="i" horiz-adv-x="237" d="M31 0L128 486H205L107 0H31ZM192 587Q173 587 158 598T143 632Q143 657 160 673T201 690Q221 690 235 678T250 644Q250 619 233 603T192 587Z" />
<glyph unicode="j" glyph-name="j" horiz-adv-x="238" d="M-49 -217Q-72 -217 -89 -212T-124 -198L-99 -141Q-89 -147 -79 -150T-53 -154Q-25 -154 -9 -130T18 -62L129 486H206L95 -61Q81 -131 48 -174T-49 -217ZM189 587Q170 587 155 598T140 632Q140 657 157
673T198 690Q218 690 232 678T247 644Q247 619 230 603T189 587Z" />
<glyph unicode="k" glyph-name="k" horiz-adv-x="476" d="M31 0L173 712H250L154 229H156L405 486H493L299 283L416 0H338L245 237L133 123L107 0H31Z" />
<glyph unicode="l" glyph-name="l" horiz-adv-x="248" d="M109 -12Q44 -12 44 51Q44 68 50 93L173 712H250L125 89Q124 82 124 78T123 70Q123 52 140 52Q143 52 146 52T156 55L157 -4Q147 -8 136 -10T109 -12Z" />
<glyph unicode="m" glyph-name="m" horiz-adv-x="799" d="M31 0L128 486H191L184 413H188Q226 449 267 473T347 498Q405 498 429 471T459 403Q506 447 550 472T631 498Q692 498 719 466T746 377Q746 360 744 345T738 310L676 0H599L660 300Q664 320 666 332T668
357Q668 432 597 432Q576 432 540 411T460 344L391 0H315L375 300Q379 320 381 332T383 357Q383 432 313 432Q291 432 255 411T176 344L107 0H31Z" />
<glyph unicode="n" glyph-name="n" horiz-adv-x="525" d="M31 0L128 486H191L184 413H188Q229 449 270 473T357 498Q419 498 445 466T472 377Q472 346 464 310L402 0H326L386 300Q390 320 392 332T394 357Q394 432 322 432Q294 432 258 411T176 344L107 0H31Z" />
<glyph unicode="o" glyph-name="o" horiz-adv-x="515" d="M212 -12Q133 -12 86 40T39 183Q39 252 61 309T120 409T204 475T301 498Q380 498 427 446T475 303Q475 234 453 177T394 77T309 11T212 -12ZM220 52Q265 52 305 85T371 174T397 298Q397 364 370 399T293
435Q248 435 208 402T142 312T116 188Q116 122 143 87T220 52Z" />
<glyph unicode="p" glyph-name="p" horiz-adv-x="535" d="M-10 -205L128 486H191L185 422H188Q225 453 267 475T356 498Q420 498 458 453T496 322Q496 252 474 192T415 85T331 14T234 -12Q196 -12 166 7T117 58H115L97 -46L66 -205H-10ZM231 52Q267 52 300 73T360
130T402 213T417 311Q417 373 393 403T328 434Q294 434 254 413T178 354L132 122Q152 85 177 69T231 52Z" />
<glyph unicode="q" glyph-name="q" horiz-adv-x="537" d="M289 -205L322 -46L352 73H350Q313 35 269 12T179 -12Q115 -12 77 33T39 164Q39 234 61 294T120 401T204 472T302 498Q341 498 371 478T419 425H423L442 486H504L366 -205H289ZM207 52Q245 52 284 75T360
145L404 362Q383 400 358 417T305 434Q269 434 236 413T176 356T134 273T118 176Q118 113 142 83T207 52Z" />
<glyph unicode="r" glyph-name="r" horiz-adv-x="342" d="M31 0L128 486H191L180 393H184Q213 437 251 467T334 498Q359 498 380 489L353 421Q337 429 311 429Q275 429 237 398T168 307L107 0H31Z" />
<glyph unicode="s" glyph-name="s" horiz-adv-x="402" d="M163 -12Q114 -12 68 14T-4 80L44 118Q67 87 99 67T169 47Q211 47 241 70T272 128Q272 154 252 173T175 224Q129 250 101 281T72 353Q72 396 94 428T152 479T233 498Q279 498 316 480T381 432L335 392Q316
412 291 425T232 438Q194 438 170 416T145 362Q145 332 172 313T231 276Q293 242 319 212T345 138Q345 93 321 59T256 7T163 -12Z" />
<glyph unicode="t" glyph-name="t" horiz-adv-x="325" d="M185 -12Q121 -12 95 19T69 96Q69 111 71 124T74 150L131 424H60L71 481L147 486L183 620H248L221 486H344L332 424H207L150 146Q147 128 147 110Q147 80 161 65T209 50Q223 50 236 55T260 65L277 10Q261
3 238 -4T185 -12Z" />
<glyph unicode="u" glyph-name="u" horiz-adv-x="528" d="M171 -12Q110 -12 83 21T56 109Q56 126 58 141T64 176L126 486H203L142 186Q138 167 136 155T134 129Q134 54 206 54Q235 54 270 75T350 142L419 486H495L398 0H335L343 74H339Q299 39 257 14T171 -12Z" />
<glyph unicode="v" glyph-name="v" horiz-adv-x="448" d="M130 0L59 486H135L171 205Q175 170 178 133T185 60H189Q206 96 224 132T261 205L404 486H481L222 0H130Z" />
<glyph unicode="w" glyph-name="w" horiz-adv-x="707" d="M105 0L70 486H146L162 200Q163 166 163 132T165 64H169Q184 98 197 132T227 200L355 486H430L447 200Q449 166 450 132T452 64H456Q470 98 483 132T512 200L639 486H711L490 0H395L381 266Q380 301 380
337T378 409H374Q359 373 345 337T315 266L197 0H105Z" />
<glyph unicode="x" glyph-name="x" horiz-adv-x="429" d="M-44 0L174 258L83 486H161L203 378Q211 356 218 337T232 296H236Q251 316 267 336T298 378L383 486H466L266 241L365 0H286L242 114Q234 136 226 159T207 204H203Q187 182 170 160T134 115L40 0H-44Z" />
<glyph unicode="y" glyph-name="y" horiz-adv-x="448" d="M-6 -209Q-16 -209 -32 -206T-62 -195L-37 -138Q-19 -147 -1 -147Q36 -147 68 -117T126 -36L144 -1L61 486H137L175 213Q180 180 184 142T191 68H195Q212 103 230 141T267 213L407 486H483L197 -41Q172
-88 143 -126T77 -187T-6 -209Z" />
<glyph unicode="z" glyph-name="z" horiz-adv-x="410" d="M-10 0L-2 44L321 424H100L113 486H430L422 441L99 62H353L341 0H-10Z" />
<glyph unicode="{" glyph-name="braceleft" horiz-adv-x="290" d="M135 -152Q89 -152 68 -133T47 -72Q47 -44 55 -7T74 68T93 141T102 197Q102 218 89 235T32 253L43 303Q77 303 97 315T127 345T141 382Q150 430 156 476T172 573Q187 651 216 679T306 708H352L342
663H316Q276 663 259 640T232 569Q224 526 218 481T202 389Q192 340 173 313T118 277V273Q142 265 152 250T162 212Q162 186 154 150T136 74T118 1T110 -58Q110 -83 121 -95T165 -107H189L179 -152H135Z" />
<glyph unicode="|" glyph-name="bar" horiz-adv-x="231" d="M95 -250V750H147V-250H95Z" />
<glyph unicode="}" glyph-name="braceright" horiz-adv-x="293" d="M-52 -152L-43 -107H-17Q23 -107 40 -85T67 -14Q75 29 82 74T97 166Q108 216 127 243T181 279V283Q156 291 147 306T137 344Q137 370 145 406T163 481T181 554T189 613Q189 639 178 651T135 663H110L120
708H164Q211 708 232 689T253 628Q253 600 245 563T226 487T207 414T198 357Q198 338 211 321T268 303L257 253Q223 253 203 241T173 211T159 174Q150 126 145 80T128 -19Q112 -96 83 -124T-6 -152H-52Z" />
<glyph unicode="~" glyph-name="asciitilde" horiz-adv-x="480" d="M332 260Q305 260 282 273T240 303T201 333T162 346Q140 346 123 332T88 285L45 313Q70 360 101 381T164 402Q191 402 214 389T256 359T295 329T334 316Q356 316 374 330T408 377L451 349Q426
303 395 282T332 260Z" />
<glyph unicode="&#xa0;" glyph-name="space" horiz-adv-x="200" />
<glyph unicode="&#xa1;" glyph-name="exclamdown" horiz-adv-x="282" d="M21 -185L40 -93L126 290H180L98 -185H21ZM171 378Q149 378 138 392T126 429Q126 455 144 476T191 498Q213 498 225 484T238 448Q238 423 219 401T171 378Z" />
<glyph unicode="&#xa2;" glyph-name="cent" horiz-adv-x="480" d="M203 -14L224 92Q157 102 118 152T78 287Q78 349 99 399T155 485T232 543T319 568L339 670H388L368 567Q405 562 431 543T478 501L431 456Q414 476 397 488T355 504L286 155Q318 157 345 169T395
198L422 146Q391 126 356 110T274 91L253 -14H203ZM154 300Q154 244 175 207T237 158L306 503Q267 496 232 469T176 399T154 300Z" />
<glyph unicode="&#xa3;" glyph-name="sterling" horiz-adv-x="480" d="M4 0L13 46Q84 81 120 140T157 272Q157 275 157 277T157 283H61L72 337L152 342Q150 365 148 387T146 429Q146 497 172 546T245 623T351 650Q401 650 435 625T491 566L438 525Q422 552 400
569T346 586Q291 586 255 544T218 424Q218 405 220 385T224 342H380L368 283H228V282Q228 214 206 164T139 70V66H398L386 0H4Z" />
<glyph unicode="&#xa4;" glyph-name="currency" horiz-adv-x="480" d="M46 115L11 157L82 219Q75 235 71 254T67 295Q67 340 83 380T127 450L80 511L124 548L172 485Q198 503 227 513T287 523Q318 523 343 513T387 486L460 549L495 507L422 444Q438 410 438 368Q438
324 423 285T381 217L434 149L391 113L337 181Q311 162 281 151T218 139Q154 139 118 178L46 115ZM226 197Q261 197 293 218T345 277T366 360Q366 411 344 438T279 466Q245 466 213 445T160 386T139 303Q139 252 161 225T226 197Z" />
<glyph unicode="&#xa5;" glyph-name="yen" horiz-adv-x="480" d="M151 0L184 161H28L37 203H193L205 272H50L59 315H195L104 638H182L223 462Q230 429 237 396T253 326H256Q279 363 299 396T342 462L450 638H527L311 315H447L437 272H282L269 203H425L415 161H259L227
0H151Z" />
<glyph unicode="&#xa6;" glyph-name="brokenbar" horiz-adv-x="231" d="M95 289V750H147V289H95ZM95 -250V213H147V-250H95Z" />
<glyph unicode="&#xa7;" glyph-name="section" horiz-adv-x="477" d="M182 -60Q137 -60 94 -40T15 15L56 65Q82 37 116 19T186 0Q224 0 249 22T275 79Q275 105 259 124T218 158T166 189T113 224T72 270T56 333Q56 387 86 424T164 482Q157 495 153 509T148 540Q148
605 191 644T299 684Q343 684 382 664T450 611L407 566Q386 590 358 607T298 624Q267 624 243 605T219 550Q219 522 241 501T296 461T361 420T416 367T438 292Q438 234 410 201T332 145Q338 133 341 120T345 90Q345 47 324 13T267 -40T182 -60ZM124 344Q124 314
141 293T186 256T244 223T298 186Q333 199 351 220T370 282Q370 311 353 332T310 372T254 407T199 444Q166 430 145 406T124 344Z" />
<glyph unicode="&#xa8;" glyph-name="dieresis" horiz-adv-x="517" d="M243 589Q226 589 215 599T203 629Q203 652 218 668T254 684Q272 684 283 673T295 642Q295 620 280 605T243 589ZM429 589Q412 589 401 599T389 629Q389 652 404 668T440 684Q458 684 469
673T480 642Q480 620 465 605T429 589Z" />
<glyph unicode="&#xa9;" glyph-name="copyright" horiz-adv-x="665" d="M298 -11Q221 -11 162 24T69 122T36 266Q36 340 62 409T136 533T250 620T398 653Q476 653 535 618T627 521T661 377Q661 303 635 234T561 109T446 22T298 -11ZM301 30Q371 30 429 59T529
137T595 248T618 372Q618 443 592 497T515 582T395 613Q325 613 267 584T167 506T102 395T79 271Q79 201 105 147T182 61T301 30ZM326 125Q262 125 221 164T180 276Q180 331 198 374T248 448T315 495T388 512Q423 512 446 497T486 461L449 427Q435 444 420 453T381
462Q349 462 316 439T261 377T239 285Q239 231 265 204T337 176Q365 176 387 187T435 215L460 176Q429 154 398 140T326 125Z" />
<glyph unicode="&#xaa;" glyph-name="ordfeminine" horiz-adv-x="354" d="M179 387Q137 387 111 417T85 505Q85 566 110 615T176 694T262 724Q285 724 304 713T336 677H340L354 716H399L336 395H289L295 442H291Q267 417 239 402T179 387ZM198 435Q222 435 249
451T299 497L325 631Q312 656 297 666T264 676Q234 676 207 653T162 593T144 512Q144 472 159 454T198 435Z" />
<glyph unicode="&#xab;" glyph-name="guillemotleft" horiz-adv-x="412" d="M143 67L40 225L51 287L207 435L235 406L93 250L178 89L143 67ZM303 67L200 225L211 287L367 435L395 406L253 250L338 89L303 67Z" />
<glyph unicode="&#xac;" glyph-name="logicalnot" horiz-adv-x="480" d="M398 103V302H48V359H458V103H398Z" />
<glyph unicode="&#xad;" glyph-name="hyphen" horiz-adv-x="299" d="M35 222L47 281H266L253 222H35Z" />
<glyph unicode="&#xae;" glyph-name="registered" horiz-adv-x="406" d="M235 323Q191 323 154 344T95 404T73 492Q73 548 99 597T170 678T272 710Q316 710 353 689T412 629T435 541Q435 485 409 435T337 354T235 323ZM238 357Q283 357 319 382T376 448T398 537Q398
596 363 635T269 675Q224 675 188 650T131 585T110 496Q110 437 144 397T238 357ZM169 417L210 619H276Q305 619 322 604T339 561Q339 539 326 522T290 496L318 417H278L256 487H222L207 417H169ZM228 517H250Q273 517 286 528T299 557Q299 587 266 587H241L228
517Z" />
<glyph unicode="&#xaf;" glyph-name="overscore" horiz-adv-x="517" d="M207 601L217 655H471L462 601H207Z" />
<glyph unicode="&#xb0;" glyph-name="degree" horiz-adv-x="313" d="M208 432Q162 432 132 463T101 543Q101 582 119 614T166 665T232 685Q278 685 308 655T338 574Q338 536 321 504T274 452T208 432ZM211 476Q247 476 269 505T291 572Q291 601 275 621T228 642Q192
642 170 612T148 545Q148 517 164 497T211 476Z" />
<glyph unicode="&#xb1;" glyph-name="plusminus" horiz-adv-x="480" d="M222 130V315H48V373H223V554H283V373H458V315H282V130H222ZM48 0V58H458V0H48Z" />
<glyph unicode="&#xb2;" glyph-name="two.sups" horiz-adv-x="353" d="M78 395L85 433Q167 491 217 533T292 611T316 683Q316 712 300 728T252 745Q231 745 211 732T171 698L136 734Q164 761 194 779T261 797Q314 797 345 769T377 692Q377 630 328 575T182 446H345L335
395H78Z" />
<glyph unicode="&#xb3;" glyph-name="three.sups" horiz-adv-x="351" d="M211 383Q162 383 128 407T77 463L118 492Q132 466 153 449T208 432Q243 432 268 451T293 504Q293 533 268 554T186 575L195 616Q240 616 266 628T304 658T315 694Q315 719 299 734T254
749Q213 749 171 716L144 757Q200 797 265 797Q314 797 344 772T375 702Q375 665 352 636T284 593Q318 581 335 556T352 505Q352 467 333 440T281 398T211 383Z" />
<glyph unicode="&#xb4;" glyph-name="acute" horiz-adv-x="517" d="M304 579L269 624L437 777L484 717L304 579Z" />
<glyph unicode="&#xb5;" glyph-name="mu" horiz-adv-x="526" d="M-10 -191L125 486H202L141 186Q137 167 135 155T133 129Q133 54 205 54Q234 54 269 75T349 142L418 486H493L397 0H334L342 74H338Q303 39 267 15T193 -9Q165 -9 142 2T108 42L95 -41L66 -191H-10Z" />
<glyph unicode="&#xb6;" glyph-name="paragraph" horiz-adv-x="535" d="M300 -80L446 656H523L376 -80H300ZM293 227Q234 227 184 247T103 306T73 403Q73 489 112 545T214 628T347 656H395L308 227H293Z" />
<glyph unicode="&#xb7;" glyph-name="middot" horiz-adv-x="242" d="M126 268Q104 268 92 282T79 318Q79 344 98 366T146 388Q168 388 180 374T192 337Q192 312 174 290T126 268Z" />
<glyph unicode="&#xb8;" glyph-name="cedilla" horiz-adv-x="517" d="M84 -226L82 -187Q142 -185 170 -171T201 -133Q201 -114 186 -104T132 -90L192 3H246L205 -65Q240 -74 253 -88T264 -128Q260 -175 212 -199T84 -226Z" />
<glyph unicode="&#xb9;" glyph-name="one.sups" horiz-adv-x="356" d="M197 395L259 707H169L177 746Q216 752 239 760T287 785H334L257 395H197Z" />
<glyph unicode="&#xba;" glyph-name="ordmasculine" horiz-adv-x="348" d="M204 387Q151 387 119 421T86 516Q86 579 112 626T179 698T265 724Q318 724 350 691T383 595Q383 532 357 485T290 413T204 387ZM209 434Q241 434 267 455T309 513T325 592Q325 633 309
655T260 677Q229 677 203 656T160 598T144 519Q144 479 160 457T209 434Z" />
<glyph unicode="&#xbb;" glyph-name="guillemotright" horiz-adv-x="412" d="M51 67L23 96L164 252L79 413L115 435L218 277L207 215L51 67ZM211 67L183 96L324 252L239 413L275 435L378 277L367 215L211 67Z" />
<glyph unicode="&#xbc;" glyph-name="onequarter" horiz-adv-x="748" d="M147 270L209 582H119L127 621Q166 627 189 635T237 660H284L207 270H147ZM121 -12L605 672H657L173 -12H121ZM470 149H586L601 225L627 333H623L556 249L470 149ZM556 0L577 106H401L408
139L622 390H687L639 149H696L687 106H631L610 0H556Z" />
<glyph unicode="&#xbd;" glyph-name="onehalf" horiz-adv-x="772" d="M143 270L205 582H115L123 621Q162 627 185 635T233 660H280L203 270H143ZM99 -12L583 672H635L151 -12H99ZM421 0L428 38Q510 96 560 138T635 216T659 288Q659 317 643 333T595 350Q574 350
554 337T514 303L479 339Q507 366 537 384T604 402Q657 402 688 374T720 297Q720 235 671 180T525 51H688L678 0H421Z" />
<glyph unicode="&#xbe;" glyph-name="threequarters" horiz-adv-x="764" d="M180 258Q131 258 97 282T46 338L87 367Q101 341 122 324T177 307Q212 307 237 326T262 379Q262 408 237 429T155 450L164 491Q209 491 235 503T273 533T284 569Q284 594 268 609T223
624Q182 624 140 591L113 632Q169 672 234 672Q283 672 313 647T344 577Q344 540 321 511T253 468Q287 456 304 431T321 380Q321 342 302 315T250 273T180 258ZM155 -12L639 672H691L207 -12H155ZM488 149H604L619 225L645 333H641L574 249L488 149ZM574 0L595
106H419L426 139L640 390H705L657 149H714L705 106H649L628 0H574Z" />
<glyph unicode="&#xbf;" glyph-name="questiondown" horiz-adv-x="409" d="M148 -195Q78 -195 37 -158T-4 -56Q-4 -8 15 27T64 92T124 150T177 213T203 292L269 286Q266 236 245 199T195 133T138 77T90 22T71 -44Q71 -84 93 -107T156 -131Q185 -131 212 -117T262
-79L302 -125Q274 -156 234 -175T148 -195ZM253 379Q231 379 219 393T207 430Q207 456 225 477T272 499Q294 499 307 485T320 449Q320 424 301 402T253 379Z" />
<glyph unicode="&#xc0;" glyph-name="Agrave" horiz-adv-x="510" d="M227 377L169 265H364L354 377Q350 429 345 482T336 591H332Q306 534 281 483T227 377ZM-53 0L303 656H393L469 0H388L370 205H138L33 0H-53ZM377 693L243 820L298 870L420 730L377 693Z" />
<glyph unicode="&#xc1;" glyph-name="Aacute" horiz-adv-x="510" d="M227 377L169 265H364L354 377Q350 429 345 482T336 591H332Q306 534 281 483T227 377ZM-53 0L303 656H393L469 0H388L370 205H138L33 0H-53ZM327 703L297 747L462 863L499 803L327 703Z" />
<glyph unicode="&#xc2;" glyph-name="Acircumflex" horiz-adv-x="510" d="M227 377L169 265H364L354 377Q350 429 345 482T336 591H332Q306 534 281 483T227 377ZM-53 0L303 656H393L469 0H388L370 205H138L33 0H-53ZM244 698L211 726L335 837H422L506 724L467
699L377 792H373L244 698Z" />
<glyph unicode="&#xc3;" glyph-name="Atilde" horiz-adv-x="510" d="M227 377L169 265H364L354 377Q350 429 345 482T336 591H332Q306 534 281 483T227 377ZM-53 0L303 656H393L469 0H388L370 205H138L33 0H-53ZM432 709Q407 709 389 720T358 745T331 770T301
781Q261 781 241 714L187 718Q199 777 232 809T310 841Q336 841 353 830T384 805T411 780T441 769Q481 769 501 836L555 832Q543 773 510 741T432 709Z" />
<glyph unicode="&#xc4;" glyph-name="Adieresis" horiz-adv-x="510" d="M227 377L169 265H364L354 377Q350 429 345 482T336 591H332Q306 534 281 483T227 377ZM-53 0L303 656H393L469 0H388L370 205H138L33 0H-53ZM270 715Q253 715 242 725T230 755Q230 777 245
793T281 810Q298 810 309 800T321 769Q321 748 306 732T270 715ZM456 715Q439 715 428 725T416 755Q416 777 431 793T467 810Q484 810 495 800T506 769Q506 748 492 732T456 715Z" />
<glyph unicode="&#xc5;" glyph-name="Aring" horiz-adv-x="510" d="M227 377L169 265H364L354 377Q350 429 345 482T336 591H332Q306 534 281 483T227 377ZM-53 0L303 656H393L469 0H388L370 205H138L33 0H-53ZM363 700Q329 700 303 719T276 779Q276 820 307 849T382
878Q417 878 443 859T469 799Q469 757 439 729T363 700ZM365 736Q388 736 405 753T423 795Q423 816 412 829T380 842Q357 842 340 825T322 782Q322 761 333 749T365 736Z" />
<glyph unicode="&#xc6;" glyph-name="AE" horiz-adv-x="803" d="M313 380L229 256H397L465 597H462Q425 542 388 489T313 380ZM-33 0L426 656H828L814 591H541L499 378H728L715 312H487L436 66H718L705 0H346L385 194H187L56 0H-33Z" />
<glyph unicode="&#xc7;" glyph-name="Ccedilla" horiz-adv-x="550" d="M290 -12Q215 -12 163 21T84 115T57 253Q57 330 81 404T150 537T257 632T396 668Q452 668 492 641T557 571L503 530Q484 562 457 581T392 601Q334 601 287 571T206 490T155 380T137 260Q137
201 154 155T208 82T304 55Q344 55 377 71T443 114L478 64Q442 33 396 11T290 -12ZM144 -226L142 -187Q202 -185 230 -171T261 -133Q261 -114 246 -104T192 -90L252 3H306L265 -65Q300 -74 313 -88T324 -128Q320 -175 272 -199T144 -226Z" />
<glyph unicode="&#xc8;" glyph-name="Egrave" horiz-adv-x="503" d="M35 0L166 656H528L515 591H230L188 378H429L415 312H176L125 66H419L405 0H35ZM384 693L250 820L305 870L427 730L384 693Z" />
<glyph unicode="&#xc9;" glyph-name="Eacute" horiz-adv-x="503" d="M35 0L166 656H528L515 591H230L188 378H429L415 312H176L125 66H419L405 0H35ZM334 703L304 747L469 863L506 803L334 703Z" />
<glyph unicode="&#xca;" glyph-name="Ecircumflex" horiz-adv-x="503" d="M35 0L166 656H528L515 591H230L188 378H429L415 312H176L125 66H419L405 0H35ZM251 698L218 726L342 837H429L513 724L474 699L384 792H380L251 698Z" />
<glyph unicode="&#xcb;" glyph-name="Edieresis" horiz-adv-x="503" d="M35 0L166 656H528L515 591H230L188 378H429L415 312H176L125 66H419L405 0H35ZM277 715Q260 715 249 725T237 755Q237 777 252 793T288 810Q305 810 316 800T328 769Q328 748 313 732T277
715ZM463 715Q446 715 435 725T423 755Q423 777 438 793T474 810Q491 810 502 800T513 769Q513 748 499 732T463 715Z" />
<glyph unicode="&#xcc;" glyph-name="Igrave" horiz-adv-x="252" d="M35 0L166 656H244L113 0H35ZM239 693L105 820L160 870L282 730L239 693Z" />
<glyph unicode="&#xcd;" glyph-name="Iacute" horiz-adv-x="252" d="M35 0L166 656H244L113 0H35ZM189 703L159 747L324 863L361 803L189 703Z" />
<glyph unicode="&#xce;" glyph-name="Icircumflex" horiz-adv-x="252" d="M35 0L166 656H244L113 0H35ZM106 954L73 982L197 1093H284L368 980L329 955L239 1048H235L106 954Z" />
<glyph unicode="&#xcf;" glyph-name="Idieresis" horiz-adv-x="252" d="M35 0L166 656H244L113 0H35ZM132 715Q115 715 104 725T92 755Q92 777 107 793T143 810Q160 810 171 800T183 769Q183 748 168 732T132 715ZM318 715Q301 715 290 725T278 755Q278 777 293
793T329 810Q346 810 357 800T368 769Q368 748 354 732T318 715Z" />
<glyph unicode="&#xd0;" glyph-name="Eth" horiz-adv-x="610" d="M53 0L118 324H47L56 365L126 368L184 656H306Q443 656 513 589T584 400Q584 281 542 191T420 51T229 0H53ZM143 64H229Q314 64 376 106T471 223T505 395Q505 488 454 540T303 593H249L204 368H354L344
324H195L143 64Z" />
<glyph unicode="&#xd1;" glyph-name="Ntilde" horiz-adv-x="619" d="M35 0L166 656H244L394 236L436 99H440Q446 148 453 202T470 308L539 656H614L483 0H406L258 419L215 560H211Q205 509 198 456T180 353L110 0H35ZM479 709Q454 709 436 720T405 745T378 770T348
781Q308 781 288 714L234 718Q246 777 279 809T357 841Q383 841 400 830T431 805T458 780T488 769Q528 769 548 836L602 832Q590 773 557 741T479 709Z" />
<glyph unicode="&#xd2;" glyph-name="Ograve" horiz-adv-x="633" d="M287 -12Q177 -12 119 63T60 263Q60 338 83 410T149 540T250 633T379 668Q453 668 503 634T580 539T606 394Q606 319 583 247T517 116T416 23T287 -12ZM291 55Q344 55 387 85T462 164T510 271T527
387Q527 484 490 542T375 601Q322 601 279 572T204 493T156 386T139 269Q139 173 175 114T291 55ZM431 693L297 820L352 870L474 730L431 693Z" />
<glyph unicode="&#xd3;" glyph-name="Oacute" horiz-adv-x="633" d="M287 -12Q177 -12 119 63T60 263Q60 338 83 410T149 540T250 633T379 668Q453 668 503 634T580 539T606 394Q606 319 583 247T517 116T416 23T287 -12ZM291 55Q344 55 387 85T462 164T510 271T527
387Q527 484 490 542T375 601Q322 601 279 572T204 493T156 386T139 269Q139 173 175 114T291 55ZM381 703L351 747L516 863L553 803L381 703Z" />
<glyph unicode="&#xd4;" glyph-name="Ocircumflex" horiz-adv-x="633" d="M287 -12Q177 -12 119 63T60 263Q60 338 83 410T149 540T250 633T379 668Q453 668 503 634T580 539T606 394Q606 319 583 247T517 116T416 23T287 -12ZM291 55Q344 55 387 85T462 164T510
271T527 387Q527 484 490 542T375 601Q322 601 279 572T204 493T156 386T139 269Q139 173 175 114T291 55ZM298 698L265 726L389 837H476L560 724L521 699L431 792H427L298 698Z" />
<glyph unicode="&#xd5;" glyph-name="Otilde" horiz-adv-x="633" d="M287 -12Q177 -12 119 63T60 263Q60 338 83 410T149 540T250 633T379 668Q453 668 503 634T580 539T606 394Q606 319 583 247T517 116T416 23T287 -12ZM291 55Q344 55 387 85T462 164T510 271T527
387Q527 484 490 542T375 601Q322 601 279 572T204 493T156 386T139 269Q139 173 175 114T291 55ZM486 709Q461 709 443 720T412 745T385 770T355 781Q315 781 295 714L241 718Q253 777 286 809T364 841Q390 841 407 830T438 805T465 780T495 769Q535 769 555 836L609
832Q597 773 564 741T486 709Z" />
<glyph unicode="&#xd6;" glyph-name="Odieresis" horiz-adv-x="633" d="M287 -12Q177 -12 119 63T60 263Q60 338 83 410T149 540T250 633T379 668Q453 668 503 634T580 539T606 394Q606 319 583 247T517 116T416 23T287 -12ZM291 55Q344 55 387 85T462 164T510
271T527 387Q527 484 490 542T375 601Q322 601 279 572T204 493T156 386T139 269Q139 173 175 114T291 55ZM324 715Q307 715 296 725T284 755Q284 777 299 793T335 810Q352 810 363 800T375 769Q375 748 360 732T324 715ZM510 715Q493 715 482 725T470 755Q470
777 485 793T521 810Q538 810 549 800T560 769Q560 748 546 732T510 715Z" />
<glyph unicode="&#xd7;" glyph-name="multiply" horiz-adv-x="480" d="M105 135L65 176L213 331L65 486L105 526L253 371L401 526L442 486L293 331L442 176L401 135L253 291L105 135Z" />
<glyph unicode="&#xd8;" glyph-name="Oslash" horiz-adv-x="633" d="M37 -30L-3 5L92 106Q60 172 60 263Q60 338 83 410T149 540T250 633T379 668Q435 668 477 649T548 592L637 687L673 652L576 548Q606 484 606 394Q606 319 583 247T517 116T416 23T287 -12Q233
-12 192 7T121 60L37 -30ZM139 269Q139 213 151 169L495 535Q476 567 446 584T375 601Q322 601 279 572T204 493T156 386T139 269ZM291 55Q344 55 387 85T462 164T510 271T527 387Q527 414 524 438T516 483L174 117Q193 88 222 72T291 55Z" />
<glyph unicode="&#xd9;" glyph-name="Ugrave" horiz-adv-x="616" d="M286 -12Q186 -12 133 40T79 195Q79 216 82 239T89 288L163 656H241L166 281Q157 236 157 202Q157 132 189 94T290 55Q346 55 391 101T457 254L538 656H614L532 251Q504 109 439 49T286 -12ZM427
693L293 820L348 870L470 730L427 693Z" />
<glyph unicode="&#xda;" glyph-name="Uacute" horiz-adv-x="616" d="M286 -12Q186 -12 133 40T79 195Q79 216 82 239T89 288L163 656H241L166 281Q157 236 157 202Q157 132 189 94T290 55Q346 55 391 101T457 254L538 656H614L532 251Q504 109 439 49T286 -12ZM377
703L347 747L512 863L549 803L377 703Z" />
<glyph unicode="&#xdb;" glyph-name="Ucircumflex" horiz-adv-x="616" d="M286 -12Q186 -12 133 40T79 195Q79 216 82 239T89 288L163 656H241L166 281Q157 236 157 202Q157 132 189 94T290 55Q346 55 391 101T457 254L538 656H614L532 251Q504 109 439 49T286
-12ZM294 698L261 726L385 837H472L556 724L517 699L427 792H423L294 698Z" />
<glyph unicode="&#xdc;" glyph-name="Udieresis" horiz-adv-x="616" d="M286 -12Q186 -12 133 40T79 195Q79 216 82 239T89 288L163 656H241L166 281Q157 236 157 202Q157 132 189 94T290 55Q346 55 391 101T457 254L538 656H614L532 251Q504 109 439 49T286 -12ZM320
715Q303 715 292 725T280 755Q280 777 295 793T331 810Q348 810 359 800T371 769Q371 748 356 732T320 715ZM506 715Q489 715 478 725T466 755Q466 777 481 793T517 810Q534 810 545 800T556 769Q556 748 542 732T506 715Z" />
<glyph unicode="&#xdd;" glyph-name="Yacute" horiz-adv-x="461" d="M139 0L190 256L83 656H163L208 467Q217 431 224 397T241 324H244Q267 361 289 396T335 468L459 656H542L268 256L216 0H139ZM292 703L262 747L427 863L464 803L292 703Z" />
<glyph unicode="&#xde;" glyph-name="Thorn" horiz-adv-x="562" d="M35 0L166 660H244L221 545H336Q425 545 480 508T535 385Q535 305 498 253T397 177T248 152H142L112 0H35ZM156 215H250Q352 215 405 255T458 374Q458 431 421 456T313 482H208L156 215Z" />
<glyph unicode="&#xdf;" glyph-name="germandbls" horiz-adv-x="555" d="M339 -12Q302 -12 266 0T199 38L234 89Q257 70 282 59T339 48Q378 48 405 72T433 135Q433 164 418 184T381 222T336 257T298 296T283 349Q283 381 296 404T329 446T369 485T402 528T416
584Q416 618 399 640T343 662Q309 662 282 641T237 585T209 507L107 0H31L136 525Q148 580 176 625T247 697T346 724Q406 724 448 692T490 592Q490 554 477 527T444 479T405 440T372 403T358 361Q358 338 373 321T409 287T453 252T490 208T505 145Q505 102 484
66T425 9T339 -12Z" />
<glyph unicode="&#xe0;" glyph-name="agrave" horiz-adv-x="537" d="M179 -12Q115 -12 77 33T39 164Q39 234 61 294T120 401T204 472T302 498Q341 498 371 478T419 425H423L442 486H504L407 0H344L352 72H348Q313 35 269 12T179 -12ZM207 52Q245 52 284 75T360
145L404 362Q383 400 358 417T305 434Q269 434 236 413T176 356T134 273T118 176Q118 113 142 83T207 52ZM363 570L231 734L297 783L411 606L363 570Z" />
<glyph unicode="&#xe1;" glyph-name="aacute" horiz-adv-x="537" d="M179 -12Q115 -12 77 33T39 164Q39 234 61 294T120 401T204 472T302 498Q341 498 371 478T419 425H423L442 486H504L407 0H344L352 72H348Q313 35 269 12T179 -12ZM207 52Q245 52 284 75T360
145L404 362Q383 400 358 417T305 434Q269 434 236 413T176 356T134 273T118 176Q118 113 142 83T207 52ZM302 579L267 624L435 777L482 717L302 579Z" />
<glyph unicode="&#xe2;" glyph-name="acircumflex" horiz-adv-x="537" d="M179 -12Q115 -12 77 33T39 164Q39 234 61 294T120 401T204 472T302 498Q341 498 371 478T419 425H423L442 486H504L407 0H344L352 72H348Q313 35 269 12T179 -12ZM207 52Q245 52 284 75T360
145L404 362Q383 400 358 417T305 434Q269 434 236 413T176 356T134 273T118 176Q118 113 142 83T207 52ZM206 568L175 602L313 740H396L485 599L446 568L352 684H348L206 568Z" />
<glyph unicode="&#xe3;" glyph-name="atilde" horiz-adv-x="537" d="M179 -12Q115 -12 77 33T39 164Q39 234 61 294T120 401T204 472T302 498Q341 498 371 478T419 425H423L442 486H504L407 0H344L352 72H348Q313 35 269 12T179 -12ZM207 52Q245 52 284 75T360
145L404 362Q383 400 358 417T305 434Q269 434 236 413T176 356T134 273T118 176Q118 113 142 83T207 52ZM408 577Q382 577 366 590T337 619T311 649T279 662Q257 662 242 640T219 582L164 585Q176 644 205 682T284 721Q310 721 326 708T355 679T381 649T413 636Q436
636 451 658T473 716L527 712Q516 654 487 616T408 577Z" />
<glyph unicode="&#xe4;" glyph-name="adieresis" horiz-adv-x="537" d="M179 -12Q115 -12 77 33T39 164Q39 234 61 294T120 401T204 472T302 498Q341 498 371 478T419 425H423L442 486H504L407 0H344L352 72H348Q313 35 269 12T179 -12ZM207 52Q245 52 284 75T360
145L404 362Q383 400 358 417T305 434Q269 434 236 413T176 356T134 273T118 176Q118 113 142 83T207 52ZM241 589Q224 589 213 599T201 629Q201 652 216 668T252 684Q270 684 281 673T293 642Q293 620 278 605T241 589ZM427 589Q410 589 399 599T387 629Q387 652
402 668T438 684Q456 684 467 673T478 642Q478 620 463 605T427 589Z" />
<glyph unicode="&#xe5;" glyph-name="aring" horiz-adv-x="537" d="M179 -12Q115 -12 77 33T39 164Q39 234 61 294T120 401T204 472T302 498Q341 498 371 478T419 425H423L442 486H504L407 0H344L352 72H348Q313 35 269 12T179 -12ZM207 52Q245 52 284 75T360
145L404 362Q383 400 358 417T305 434Q269 434 236 413T176 356T134 273T118 176Q118 113 142 83T207 52ZM331 556Q291 556 264 577T236 638Q236 683 269 716T354 749Q395 749 422 728T450 667Q450 622 417 589T331 556ZM336 592Q362 592 380 613T398 664Q398 685
385 699T349 713Q324 713 306 692T288 641Q288 619 300 606T336 592Z" />
<glyph unicode="&#xe6;" glyph-name="ae" horiz-adv-x="761" d="M157 -12Q106 -12 69 18T32 106Q32 175 73 217T185 278T350 301Q353 315 354 325T355 345Q355 389 336 412T271 436Q240 436 205 424T135 392L114 448Q152 469 197 483T287 498Q337 498 369 475T410
403Q444 447 487 472T577 498Q632 498 665 475T713 412T728 322Q728 294 722 269T711 229H407Q394 146 428 98T526 49Q555 49 584 61T635 91L665 40Q637 19 598 4T511 -12Q459 -12 417 16T358 84Q310 39 261 14T157 -12ZM185 49Q216 49 256 70T338 135Q334 167
334 192T340 250Q231 247 169 215T107 122Q107 87 129 68T185 49ZM415 281H657Q659 293 660 304T662 329Q662 357 653 381T624 421T568 437Q538 437 507 418T452 363T415 281Z" />
<glyph unicode="&#xe7;" glyph-name="ccedilla" horiz-adv-x="435" d="M216 -12Q137 -12 87 39T37 183Q37 251 59 308T119 408T206 474T308 498Q352 498 382 481T434 439L389 391Q370 414 351 424T303 435Q255 435 212 401T142 311T115 188Q115 122 143 87T230
52Q262 52 289 65T338 95L372 45Q346 25 308 7T216 -12ZM74 -226L72 -187Q132 -185 160 -171T191 -133Q191 -114 176 -104T122 -90L182 3H236L195 -65Q230 -74 243 -88T254 -128Q250 -175 202 -199T74 -226Z" />
<glyph unicode="&#xe8;" glyph-name="egrave" d="M228 -12Q142 -12 90 41T37 191Q37 260 59 316T119 413T203 476T297 498Q352 498 384 475T432 412T447 322Q447 294 441 269T430 229H114Q105 166 121 126T170 68T246 49Q275 49 303 61T355 91L385 40Q356 19 316
4T228 -12ZM122 281H377Q379 292 380 304T382 329Q382 357 373 381T344 421T288 437Q235 437 188 395T122 281ZM350 570L218 734L284 783L398 606L350 570Z" />
<glyph unicode="&#xe9;" glyph-name="eacute" d="M228 -12Q142 -12 90 41T37 191Q37 260 59 316T119 413T203 476T297 498Q352 498 384 475T432 412T447 322Q447 294 441 269T430 229H114Q105 166 121 126T170 68T246 49Q275 49 303 61T355 91L385 40Q356 19 316
4T228 -12ZM122 281H377Q379 292 380 304T382 329Q382 357 373 381T344 421T288 437Q235 437 188 395T122 281ZM289 579L254 624L422 777L469 717L289 579Z" />
<glyph unicode="&#xea;" glyph-name="ecircumflex" d="M228 -12Q142 -12 90 41T37 191Q37 260 59 316T119 413T203 476T297 498Q352 498 384 475T432 412T447 322Q447 294 441 269T430 229H114Q105 166 121 126T170 68T246 49Q275 49 303 61T355 91L385 40Q356
19 316 4T228 -12ZM122 281H377Q379 292 380 304T382 329Q382 357 373 381T344 421T288 437Q235 437 188 395T122 281ZM193 568L162 602L300 740H383L472 599L433 568L339 684H335L193 568Z" />
<glyph unicode="&#xeb;" glyph-name="edieresis" d="M228 -12Q142 -12 90 41T37 191Q37 260 59 316T119 413T203 476T297 498Q352 498 384 475T432 412T447 322Q447 294 441 269T430 229H114Q105 166 121 126T170 68T246 49Q275 49 303 61T355 91L385 40Q356 19
316 4T228 -12ZM122 281H377Q379 292 380 304T382 329Q382 357 373 381T344 421T288 437Q235 437 188 395T122 281ZM228 589Q211 589 200 599T188 629Q188 652 203 668T239 684Q257 684 268 673T280 642Q280 620 265 605T228 589ZM414 589Q397 589 386 599T374
629Q374 652 389 668T425 684Q443 684 454 673T465 642Q465 620 450 605T414 589Z" />
<glyph unicode="&#xec;" glyph-name="igrave" horiz-adv-x="237" d="M31 0L128 486H205L107 0H31ZM221 570L89 734L155 783L269 606L221 570Z" />
<glyph unicode="&#xed;" glyph-name="iacute" horiz-adv-x="237" d="M31 0L128 486H205L107 0H31ZM160 579L125 624L293 777L340 717L160 579Z" />
<glyph unicode="&#xee;" glyph-name="icircumflex" horiz-adv-x="237" d="M31 0L128 486H205L107 0H31ZM64 568L33 602L171 740H254L343 599L304 568L210 684H206L64 568Z" />
<glyph unicode="&#xef;" glyph-name="idieresis" horiz-adv-x="237" d="M31 0L128 486H205L107 0H31ZM99 589Q82 589 71 599T59 629Q59 652 74 668T110 684Q128 684 139 673T151 642Q151 620 136 605T99 589ZM285 589Q268 589 257 599T245 629Q245 652 260 668T296
684Q314 684 325 673T336 642Q336 620 321 605T285 589Z" />
<glyph unicode="&#xf0;" glyph-name="eth" horiz-adv-x="524" d="M113 179Q113 127 142 90T225 52Q273 52 309 87T368 180T395 309Q376 339 348 362T281 386Q230 386 192 356T134 278T113 179ZM216 -12Q167 -12 128 12T66 77T43 172Q43 224 59 273T105 361T177
424T274 447Q310 447 341 428T395 376Q388 491 334 569L187 508L171 549L306 605Q287 627 263 646T211 684L247 730Q282 710 313 685T369 631L514 691L530 650L397 595Q431 546 450 485T469 347Q469 276 452 212T403 97T323 17T216 -12Z" />
<glyph unicode="&#xf1;" glyph-name="ntilde" horiz-adv-x="525" d="M31 0L128 486H191L184 413H188Q229 449 270 473T357 498Q419 498 445 466T472 377Q472 346 464 310L402 0H326L386 300Q390 320 392 332T394 357Q394 432 322 432Q294 432 258 411T176 344L107
0H31ZM426 577Q400 577 384 590T355 619T329 649T297 662Q275 662 260 640T237 582L182 585Q194 644 223 682T302 721Q328 721 344 708T373 679T399 649T431 636Q454 636 469 658T491 716L545 712Q534 654 505 616T426 577Z" />
<glyph unicode="&#xf2;" glyph-name="ograve" horiz-adv-x="515" d="M212 -12Q133 -12 86 40T39 183Q39 252 61 309T120 409T204 475T301 498Q380 498 427 446T475 303Q475 234 453 177T394 77T309 11T212 -12ZM220 52Q265 52 305 85T371 174T397 298Q397 364
370 399T293 435Q248 435 208 402T142 312T116 188Q116 122 143 87T220 52ZM365 570L233 734L299 783L413 606L365 570Z" />
<glyph unicode="&#xf3;" glyph-name="oacute" horiz-adv-x="515" d="M212 -12Q133 -12 86 40T39 183Q39 252 61 309T120 409T204 475T301 498Q380 498 427 446T475 303Q475 234 453 177T394 77T309 11T212 -12ZM220 52Q265 52 305 85T371 174T397 298Q397 364
370 399T293 435Q248 435 208 402T142 312T116 188Q116 122 143 87T220 52ZM304 579L269 624L437 777L484 717L304 579Z" />
<glyph unicode="&#xf4;" glyph-name="ocircumflex" horiz-adv-x="515" d="M212 -12Q133 -12 86 40T39 183Q39 252 61 309T120 409T204 475T301 498Q380 498 427 446T475 303Q475 234 453 177T394 77T309 11T212 -12ZM220 52Q265 52 305 85T371 174T397 298Q397
364 370 399T293 435Q248 435 208 402T142 312T116 188Q116 122 143 87T220 52ZM208 568L177 602L315 740H398L487 599L448 568L354 684H350L208 568Z" />
<glyph unicode="&#xf5;" glyph-name="otilde" horiz-adv-x="515" d="M212 -12Q133 -12 86 40T39 183Q39 252 61 309T120 409T204 475T301 498Q380 498 427 446T475 303Q475 234 453 177T394 77T309 11T212 -12ZM220 52Q265 52 305 85T371 174T397 298Q397 364
370 399T293 435Q248 435 208 402T142 312T116 188Q116 122 143 87T220 52ZM410 577Q384 577 368 590T339 619T313 649T281 662Q259 662 244 640T221 582L166 585Q178 644 207 682T286 721Q312 721 328 708T357 679T383 649T415 636Q438 636 453 658T475 716L529
712Q518 654 489 616T410 577Z" />
<glyph unicode="&#xf6;" glyph-name="odieresis" horiz-adv-x="515" d="M212 -12Q133 -12 86 40T39 183Q39 252 61 309T120 409T204 475T301 498Q380 498 427 446T475 303Q475 234 453 177T394 77T309 11T212 -12ZM220 52Q265 52 305 85T371 174T397 298Q397 364
370 399T293 435Q248 435 208 402T142 312T116 188Q116 122 143 87T220 52ZM243 589Q226 589 215 599T203 629Q203 652 218 668T254 684Q272 684 283 673T295 642Q295 620 280 605T243 589ZM429 589Q412 589 401 599T389 629Q389 652 404 668T440 684Q458 684 469
673T480 642Q480 620 465 605T429 589Z" />
<glyph unicode="&#xf7;" glyph-name="divide" horiz-adv-x="480" d="M48 302V359H458V302H48ZM253 97Q231 97 217 111T202 148Q202 169 216 183T253 198Q275 198 289 184T304 148Q304 126 290 112T253 97ZM253 460Q231 460 217 475T202 512Q202 533 216 547T253
562Q275 562 289 548T304 512Q304 490 290 475T253 460Z" />
<glyph unicode="&#xf8;" glyph-name="oslash" horiz-adv-x="515" d="M112 188Q112 152 119 128L378 394Q350 436 295 436Q258 436 225 416T167 360T127 280T112 188ZM29 -23L0 5L64 71Q39 118 39 183Q39 252 61 309T120 409T204 475T301 498Q381 498 428 445L489
508L519 480L452 411Q475 365 475 303Q475 234 453 176T394 76T309 11T212 -12Q135 -12 88 38L29 -23ZM218 50Q256 50 289 70T347 126T387 205T402 297Q402 329 396 353L137 88Q164 50 218 50Z" />
<glyph unicode="&#xf9;" glyph-name="ugrave" horiz-adv-x="528" d="M171 -12Q110 -12 83 21T56 109Q56 126 58 141T64 176L126 486H203L142 186Q138 167 136 155T134 129Q134 54 206 54Q235 54 270 75T350 142L419 486H495L398 0H335L343 74H339Q299 39 257 14T171
-12ZM359 570L227 734L293 783L407 606L359 570Z" />
<glyph unicode="&#xfa;" glyph-name="uacute" horiz-adv-x="528" d="M171 -12Q110 -12 83 21T56 109Q56 126 58 141T64 176L126 486H203L142 186Q138 167 136 155T134 129Q134 54 206 54Q235 54 270 75T350 142L419 486H495L398 0H335L343 74H339Q299 39 257 14T171
-12ZM298 579L263 624L431 777L478 717L298 579Z" />
<glyph unicode="&#xfb;" glyph-name="ucircumflex" horiz-adv-x="528" d="M171 -12Q110 -12 83 21T56 109Q56 126 58 141T64 176L126 486H203L142 186Q138 167 136 155T134 129Q134 54 206 54Q235 54 270 75T350 142L419 486H495L398 0H335L343 74H339Q299 39
257 14T171 -12ZM202 568L171 602L309 740H392L481 599L442 568L348 684H344L202 568Z" />
<glyph unicode="&#xfc;" glyph-name="udieresis" horiz-adv-x="528" d="M171 -12Q110 -12 83 21T56 109Q56 126 58 141T64 176L126 486H203L142 186Q138 167 136 155T134 129Q134 54 206 54Q235 54 270 75T350 142L419 486H495L398 0H335L343 74H339Q299 39 257
14T171 -12ZM237 589Q220 589 209 599T197 629Q197 652 212 668T248 684Q266 684 277 673T289 642Q289 620 274 605T237 589ZM423 589Q406 589 395 599T383 629Q383 652 398 668T434 684Q452 684 463 673T474 642Q474 620 459 605T423 589Z" />
<glyph unicode="&#xfd;" glyph-name="yacute" horiz-adv-x="448" d="M-6 -209Q-16 -209 -32 -206T-62 -195L-37 -138Q-19 -147 -1 -147Q36 -147 68 -117T126 -36L144 -1L61 486H137L175 213Q180 180 184 142T191 68H195Q212 103 230 141T267 213L407 486H483L197
-41Q172 -88 143 -126T77 -187T-6 -209ZM256 579L221 624L389 777L436 717L256 579Z" />
<glyph unicode="&#xfe;" glyph-name="thorn" horiz-adv-x="535" d="M-10 -205L173 712H250L211 522L189 426H191Q227 455 269 476T356 498Q420 498 458 453T496 322Q496 252 474 192T415 85T331 14T234 -12Q196 -12 167 7T117 58H115L97 -46L66 -205H-10ZM231
52Q267 52 300 73T360 130T402 213T417 311Q417 373 393 403T328 434Q294 434 254 413T178 355L132 122Q152 85 177 69T231 52Z" />
<glyph unicode="&#xff;" glyph-name="ydieresis" horiz-adv-x="448" d="M-6 -209Q-16 -209 -32 -206T-62 -195L-37 -138Q-19 -147 -1 -147Q36 -147 68 -117T126 -36L144 -1L61 486H137L175 213Q180 180 184 142T191 68H195Q212 103 230 141T267 213L407 486H483L197
-41Q172 -88 143 -126T77 -187T-6 -209ZM195 589Q178 589 167 599T155 629Q155 652 170 668T206 684Q224 684 235 673T247 642Q247 620 232 605T195 589ZM381 589Q364 589 353 599T341 629Q341 652 356 668T392 684Q410 684 421 673T432 642Q432 620 417 605T381
589Z" />
<glyph unicode="&#x2013;" glyph-name="endash" horiz-adv-x="463" d="M35 225L46 279H427L415 225H35Z" />
<glyph unicode="&#x2014;" glyph-name="emdash" horiz-adv-x="769" d="M35 225L46 279H734L723 225H35Z" />
<glyph unicode="&#x2018;" glyph-name="quoteleft" horiz-adv-x="242" d="M163 434Q140 434 125 452T110 502Q110 571 148 619T242 691L258 653Q212 631 188 597T163 535Q165 535 166 535T168 535Q189 535 203 524T217 491Q217 468 202 451T163 434Z" />
<glyph unicode="&#x2019;" glyph-name="quoteright" horiz-adv-x="242" d="M127 443L111 480Q158 503 182 537T207 598Q206 598 205 598T202 598Q180 598 166 609T152 643Q152 666 167 683T207 700Q230 700 245 682T260 632Q260 563 222 515T127 443Z" />
<glyph unicode="&#x201a;" glyph-name="quotesinglbase" horiz-adv-x="242" d="M7 -148L-9 -111Q38 -88 62 -54T87 7Q86 7 85 7T82 7Q60 7 46 18T32 52Q32 75 47 92T87 109Q110 109 125 91T140 41Q140 -28 102 -76T7 -148Z" />
<glyph unicode="&#x201c;" glyph-name="quotedblleft" horiz-adv-x="407" d="M163 434Q140 434 125 452T110 502Q110 571 148 619T242 691L258 653Q212 631 188 597T163 535Q165 535 166 535T168 535Q189 535 203 524T217 491Q217 468 202 451T163 434ZM328 434Q305
434 290 452T275 502Q275 571 313 619T407 691L423 653Q377 631 353 597T328 535Q330 535 331 535T333 535Q354 535 368 524T382 491Q382 468 367 451T328 434Z" />
<glyph unicode="&#x201d;" glyph-name="quotedblright" horiz-adv-x="407" d="M127 443L111 480Q158 503 182 537T207 598Q206 598 205 598T202 598Q180 598 166 609T152 643Q152 666 167 683T207 700Q230 700 245 682T260 632Q260 563 222 515T127 443ZM292 443L276
480Q323 503 347 537T372 598Q371 598 370 598T367 598Q345 598 331 609T317 643Q317 666 332 683T372 700Q395 700 410 682T425 632Q425 563 387 515T292 443Z" />
<glyph unicode="&#x201e;" glyph-name="quotedblbase" horiz-adv-x="407" d="M7 -148L-9 -111Q38 -88 62 -54T87 7Q86 7 85 7T82 7Q60 7 46 18T32 52Q32 75 47 92T87 109Q110 109 125 91T140 41Q140 -28 102 -76T7 -148ZM172 -148L156 -111Q203 -88 227 -54T252
7Q251 7 250 7T247 7Q225 7 211 18T197 52Q197 75 212 92T252 109Q275 109 290 91T305 41Q305 -28 267 -76T172 -148Z" />
<glyph unicode="&#x2022;" glyph-name="bullet" horiz-adv-x="295" d="M139 145Q96 145 69 174T41 250Q41 282 55 312T97 363T161 383Q202 383 230 354T258 278Q258 245 244 215T202 165T139 145Z" />
<glyph unicode="&#x2039;" glyph-name="guilsinglleft" horiz-adv-x="252" d="M143 67L40 225L51 287L207 435L235 406L93 250L178 89L143 67Z" />
<glyph unicode="&#x203a;" glyph-name="guilsinglright" horiz-adv-x="252" d="M51 67L23 96L164 252L79 413L115 435L218 277L207 215L51 67Z" />
</font>
</defs>
</svg>
