<?xml version="1.0" standalone="no"?>
<!DOCTYPE svg PUBLIC "-//W3C//DTD SVG 1.1//EN" "http://www.w3.org/Graphics/SVG/1.1/DTD/svg11.dtd">
<svg xmlns="http://www.w3.org/2000/svg">
<defs >
<font id="SourceSansPro" horiz-adv-x="567" ><font-face
    font-family="Source Sans Pro Black"
    units-per-em="1000"
    panose-1="2 11 8 3 3 4 3 2 2 4"
    ascent="984"
    descent="-273"
    alphabetic="0" />
<glyph unicode=" " glyph-name="space" horiz-adv-x="200" />
<glyph unicode="!" glyph-name="exclam" horiz-adv-x="360" d="M124 244L100 522L94 670H266L260 522L236 244H124ZM180 -12Q137 -12 109 18T80 92Q80 136 108 166T180 196Q224 196 252 166T280 92Q280 49 252 19T180 -12Z" />
<glyph unicode="&quot;" glyph-name="quotedbl" horiz-adv-x="580" d="M114 324L80 536L74 684H246L240 536L206 324H114ZM374 324L340 536L334 684H506L500 536L466 324H374Z" />
<glyph unicode="#" glyph-name="numbersign" horiz-adv-x="540" d="M84 0L106 180H34V288H118L130 384H54V492H144L164 650H260L242 492H334L354 650H450L432 492H510V384H418L406 288H490V180H394L372 0H274L296 180H204L182 0H84ZM216 288H308L320 384H228L216 288Z" />
<glyph unicode="$" glyph-name="dollar" horiz-adv-x="540" d="M212 -110V-10Q169 -5 121 13T34 66L108 182Q149 152 182 139T246 126Q284 126 300 139T316 182Q316 202 298 217T250 247T187 279T125 318T77 372T58 448Q58 524 98 574T212 640V744H324V642Q371
635 408 613T475 558L390 460Q363 484 339 496T286 508Q254 508 238 497T222 456Q222 437 240 423T288 395T351 365T413 326T461 272T480 194Q480 121 442 68T324 -4V-110H212Z" />
<glyph unicode="%" glyph-name="percent" horiz-adv-x="870" d="M190 248Q142 248 104 273T44 344T22 456Q22 554 70 608T190 662Q262 662 310 608T358 456Q358 391 336 345T276 273T190 248ZM190 342Q210 342 225 366T240 456Q240 522 225 545T190 568Q171 568
156 545T140 456Q140 390 155 366T190 342ZM214 -12L562 662H658L310 -12H214ZM680 -12Q632 -12 594 13T534 84T512 196Q512 294 560 348T680 402Q752 402 800 348T848 196Q848 131 826 85T766 13T680 -12ZM680 82Q700 82 715 106T730 196Q730 262 715 285T680
308Q661 308 646 285T630 196Q630 130 645 106T680 82Z" />
<glyph unicode="&amp;" glyph-name="ampersand" horiz-adv-x="690" d="M239 486Q239 456 257 421Q288 439 308 459T328 508Q328 550 290 550Q270 550 255 534T239 486ZM246 -12Q171 -12 121 14T47 84T22 176Q22 244 56 286T137 357Q98 427 98 486Q98 533 121 573T186
637T286 662Q364 662 411 621T458 508Q458 466 439 433T391 375T328 327Q353 301 382 277T442 230Q465 260 483 296T512 374H668Q651 317 625 264T562 161Q621 132 670 126L630 -12Q587 -4 544 12T456 51Q413 22 361 5T246 -12ZM184 186Q184 156 206 137T268 118Q284
118 300 122T332 134Q264 188 214 247Q201 233 193 218T184 186Z" />
<glyph unicode="&apos;" glyph-name="quotesingle" horiz-adv-x="320" d="M114 324L80 536L74 684H246L240 536L206 324H114Z" />
<glyph unicode="(" glyph-name="parenleft" horiz-adv-x="360" d="M200 -180Q137 -76 103 35T68 278Q68 410 102 521T200 736L308 692Q254 595 230 489T206 278Q206 175 230 69T308 -136L200 -180Z" />
<glyph unicode=")" glyph-name="parenright" horiz-adv-x="360" d="M160 -180L52 -136Q106 -38 130 68T154 278Q154 382 130 488T52 692L160 736Q223 633 257 522T292 278Q292 146 258 35T160 -180Z" />
<glyph unicode="*" glyph-name="asterisk" horiz-adv-x="472" d="M152 321L82 372L142 479L30 531L57 614L178 590L192 712H280L294 589L415 614L442 531L329 479L390 372L320 321L236 412L152 321Z" />
<glyph unicode="+" glyph-name="plus" horiz-adv-x="540" d="M208 90V270H34V390H208V570H332V390H506V270H332V90H208Z" />
<glyph unicode="," glyph-name="comma" horiz-adv-x="320" d="M80 -204L46 -114Q107 -94 137 -61T167 8Q166 8 164 8T160 8Q121 8 91 32T60 102Q60 144 90 170T164 196Q220 196 249 155T278 40Q278 -48 228 -112T80 -204Z" />
<glyph unicode="-" glyph-name="hyphen" horiz-adv-x="340" d="M44 194V314H296V194H44Z" />
<glyph unicode="." glyph-name="period" horiz-adv-x="320" d="M160 -12Q117 -12 89 18T60 92Q60 136 88 166T160 196Q204 196 232 166T260 92Q260 49 232 19T160 -12Z" />
<glyph unicode="/" glyph-name="slash" horiz-adv-x="334" d="M14 -160L190 710H300L124 -160H14Z" />
<glyph unicode="0" glyph-name="zero" horiz-adv-x="540" d="M270 -12Q165 -12 100 72T34 320Q34 483 99 564T270 646Q375 646 440 564T506 320Q506 157 441 73T270 -12ZM270 120Q290 120 307 135T334 193T344 320Q344 404 334 445T307 500T270 514Q250 514 233
501T206 446T196 320Q196 236 206 193T233 135T270 120Z" />
<glyph unicode="1" glyph-name="one" horiz-adv-x="540" d="M66 0V138H202V466H82V572Q136 583 174 597T248 634H374V138H488V0H66Z" />
<glyph unicode="2" glyph-name="two" horiz-adv-x="540" d="M36 0V98Q111 167 171 226T267 335T302 428Q302 471 281 491T224 512Q193 512 168 494T120 452L28 544Q78 597 128 621T248 646Q312 646 361 621T438 548T466 438Q466 387 439 334T369 231T284 136Q308
139 338 141T390 144H496V0H36Z" />
<glyph unicode="3" glyph-name="three" horiz-adv-x="540" d="M246 -12Q169 -12 113 12T20 78L98 186Q127 159 160 143T228 126Q270 126 295 141T320 186Q320 210 308 227T263 253T162 262V382Q242 382 271 401T300 454Q300 512 234 512Q203 512 178 499T122 460L36
564Q83 603 133 624T242 646Q347 646 409 600T472 467Q472 375 370 330V326Q424 310 458 272T492 174Q492 114 458 73T368 10T246 -12Z" />
<glyph unicode="4" glyph-name="four" horiz-adv-x="540" d="M182 272H290V344Q290 376 292 419T296 494H292Q280 466 267 438T240 380L182 272ZM290 0V142H20V262L236 634H450V272H518V142H450V0H290Z" />
<glyph unicode="5" glyph-name="five" horiz-adv-x="540" d="M252 -12Q174 -12 118 13T22 78L98 186Q127 161 159 144T226 126Q271 126 295 146T320 208Q320 249 296 269T234 290Q209 290 192 284T146 260L72 308L88 634H464V490H236L228 398Q245 404 258 406T288
408Q343 408 389 387T464 323T492 212Q492 141 459 91T372 15T252 -12Z" />
<glyph unicode="6" glyph-name="six" horiz-adv-x="540" d="M280 280Q258 280 236 268T199 226Q206 182 219 158T250 125T282 116Q309 116 329 135T350 204Q350 250 329 265T280 280ZM286 -12Q240 -12 196 5T117 61T60 159T38 306Q38 421 75 496T172 609T300 646Q368
646 417 622T498 566L408 464Q393 481 366 494T312 508Q266 508 233 471T195 337Q218 368 253 384T314 400Q368 400 411 380T480 316T506 204Q506 136 476 88T396 14T286 -12Z" />
<glyph unicode="7" glyph-name="seven" horiz-adv-x="540" d="M152 0Q158 100 174 180T223 334T316 490H44V634H498V528Q443 464 411 408T361 293T337 164T324 0H152Z" />
<glyph unicode="8" glyph-name="eight" horiz-adv-x="540" d="M268 -12Q204 -12 153 10T72 71T42 162Q42 218 71 253T146 312V316Q109 345 86 381T62 466Q62 522 89 562T164 624T274 646Q363 646 417 599T472 470Q472 427 449 393T391 337V333Q438 308 469 269T500
166Q500 115 471 75T390 12T268 -12ZM306 378Q320 398 327 417T334 458Q334 491 317 509T270 528Q247 528 230 514T212 466Q212 435 236 416T306 378ZM272 106Q301 106 321 121T341 172Q341 207 310 225T222 268Q208 252 199 229T189 182Q189 145 214 126T272 106Z"
/>
<glyph unicode="9" glyph-name="nine" horiz-adv-x="540" d="M188 430Q188 384 209 369T258 354Q281 354 302 367T339 408Q332 453 319 476T289 509T256 518Q229 518 209 499T188 430ZM238 -12Q171 -12 122 12T40 68L130 170Q145 154 172 140T226 126Q273 126
306 163T343 297Q320 266 285 250T224 234Q170 234 127 254T58 318T32 430Q32 498 62 546T142 620T252 646Q298 646 342 629T421 573T478 475T500 328Q500 213 463 138T366 25T238 -12Z" />
<glyph unicode=":" glyph-name="colon" horiz-adv-x="320" d="M160 298Q117 298 89 328T60 402Q60 446 88 476T160 506Q204 506 232 476T260 402Q260 359 232 329T160 298ZM160 -12Q117 -12 89 18T60 92Q60 136 88 166T160 196Q204 196 232 166T260 92Q260 49
232 19T160 -12Z" />
<glyph unicode=";" glyph-name="semicolon" horiz-adv-x="320" d="M160 298Q117 298 89 328T60 402Q60 446 88 476T160 506Q204 506 232 476T260 402Q260 359 232 329T160 298ZM80 -204L46 -114Q107 -94 137 -61T167 8Q166 8 164 8T160 8Q121 8 91 32T60 102Q60
144 90 170T164 196Q220 196 249 155T278 40Q278 -48 228 -112T80 -204Z" />
<glyph unicode="&lt;" glyph-name="less" horiz-adv-x="540" d="M506 94L34 274V390L506 570V430L344 380L208 334V330L344 284L506 234V94Z" />
<glyph unicode="=" glyph-name="equal" horiz-adv-x="540" d="M34 390V510H506V390H34ZM34 406V526H506V406H34Z" />
<glyph unicode="&gt;" glyph-name="greater" horiz-adv-x="540" d="M34 94V234L196 284L332 330V334L196 380L34 430V570L506 390V274L34 94Z" />
<glyph unicode="?" glyph-name="question" horiz-adv-x="478" d="M152 244Q146 283 156 314T186 370T225 416T260 456T274 494Q274 521 258 532T218 544Q193 544 175 532T136 502L42 588Q79 630 129 656T240 682Q295 682 340 665T411 608T438 506Q438 470 424
443T388 394T346 349T312 302T302 244H152ZM226 -12Q183 -12 155 18T126 92Q126 136 154 166T226 196Q270 196 298 166T326 92Q326 49 298 19T226 -12Z" />
<glyph unicode="@" glyph-name="at" horiz-adv-x="924" d="M438 -178Q362 -178 292 -155T167 -85T80 34T48 206Q48 313 84 399T185 548T333 644T512 678Q623 678 705 631T831 502T876 312Q876 242 855 190T798 104T721 52T638 34Q594 34 561 54T518 110H516Q497
80 462 62T396 44Q335 44 298 86T260 198Q260 246 276 291T320 371T386 427T466 448Q490 448 509 437T540 398H542L558 440H662L614 212Q596 138 656 138Q686 138 712 159T754 218T770 308Q770 359 756 407T710 493T626 553T498 576Q435 576 375 550T267 476T191
361T162 210Q162 136 186 82T251 -7T344 -59T452 -76Q488 -76 529 -66T600 -40L636 -132Q590 -156 541 -167T438 -178ZM434 150Q448 150 461 159T490 190L512 316Q500 340 472 340Q446 340 427 319T398 266T388 208Q388 150 434 150Z" />
<glyph unicode="A" glyph-name="A" horiz-adv-x="584" d="M240 316L229 271H349L338 316Q326 363 314 418T290 522H286Q276 473 264 418T240 316ZM-10 0L188 650H396L594 0H412L380 138H198L166 0H-10Z" />
<glyph unicode="B" glyph-name="B" horiz-adv-x="612" d="M72 0V650H306Q374 650 430 636T519 587T552 488Q552 446 530 405T470 348V344Q517 331 549 294T582 192Q582 125 547 83T454 20T326 0H72ZM244 396H302Q344 396 364 414T384 462Q384 492 364 505T302
518H244V396ZM244 132H314Q414 132 414 204Q414 240 390 255T314 270H244V132Z" />
<glyph unicode="C" glyph-name="C" horiz-adv-x="586" d="M354 -12Q271 -12 201 24T87 135T44 320Q44 402 69 465T139 573T240 639T358 662Q423 662 474 637T560 576L470 466Q446 487 421 500T362 514Q324 514 292 492T240 427T220 326Q220 235 258 186T360 136Q398
136 427 153T478 192L568 84Q527 36 472 12T354 -12Z" />
<glyph unicode="D" glyph-name="D" horiz-adv-x="642" d="M72 0V650H264Q363 650 438 618T556 514T598 328Q598 213 556 141T441 34T274 0H72ZM244 138H254Q301 138 339 154T399 211T422 328Q422 404 400 443T339 497T254 512H244V138Z" />
<glyph unicode="E" glyph-name="E" horiz-adv-x="556" d="M72 0V650H492V506H244V404H456V260H244V144H502V0H72Z" />
<glyph unicode="F" glyph-name="F" horiz-adv-x="536" d="M72 0V650H496V506H244V382H460V238H244V0H72Z" />
<glyph unicode="G" glyph-name="G" horiz-adv-x="646" d="M372 -12Q281 -12 207 24T88 135T44 320Q44 402 70 465T141 573T244 639T368 662Q440 662 493 637T580 576L490 466Q466 487 440 500T374 514Q308 514 264 465T220 326Q220 235 261 186T390 136Q404 136
417 139T440 148V238H344V378H592V68Q558 35 500 12T372 -12Z" />
<glyph unicode="H" glyph-name="H" horiz-adv-x="682" d="M72 0V650H244V408H438V650H610V0H438V258H244V0H72Z" />
<glyph unicode="I" glyph-name="I" horiz-adv-x="316" d="M72 0V650H244V0H72Z" />
<glyph unicode="J" glyph-name="J" horiz-adv-x="520" d="M232 -12Q153 -12 100 18T10 111L126 198Q143 167 165 152T208 136Q243 136 261 157T280 240V650H452V226Q452 161 429 107T356 21T232 -12Z" />
<glyph unicode="K" glyph-name="K" horiz-adv-x="628" d="M72 0V650H244V408H248L412 650H600L406 386L638 0H450L306 250L244 162V0H72Z" />
<glyph unicode="L" glyph-name="L" horiz-adv-x="530" d="M72 0V650H244V144H490V0H72Z" />
<glyph unicode="M" glyph-name="M" horiz-adv-x="776" d="M72 0V650H256L354 384Q363 357 371 328T388 270H392Q401 299 409 328T426 384L520 650H704V0H548V192Q548 225 552 266T561 350T570 424H566L512 268L432 53H340L260 268L208 424H204Q208 392 213 350T222
267T226 192V0H72Z" />
<glyph unicode="N" glyph-name="N" horiz-adv-x="672" d="M72 0V650H248L392 360L454 214H458Q452 267 444 334T436 462V650H600V0H424L280 291L218 436H214Q220 381 228 315T236 188V0H72Z" />
<glyph unicode="O" glyph-name="O" horiz-adv-x="692" d="M346 -12Q256 -12 188 28T82 145T44 328Q44 435 82 509T188 623T346 662Q436 662 504 623T610 510T648 328Q648 221 610 145T504 29T346 -12ZM346 136Q405 136 438 188T472 328Q472 417 439 465T346 514Q288
514 254 466T220 328Q220 240 254 188T346 136Z" />
<glyph unicode="P" glyph-name="P" horiz-adv-x="608" d="M72 0V650H310Q381 650 441 630T537 563T574 434Q574 355 538 305T442 230T314 206H244V0H72ZM244 342H306Q357 342 381 366T406 434Q406 478 379 496T302 514H244V342Z" />
<glyph unicode="Q" glyph-name="Q" horiz-adv-x="692" d="M346 128Q405 128 438 180T472 328Q472 417 439 465T346 514Q288 514 254 466T220 328Q220 232 254 180T346 128ZM566 -188Q457 -188 382 -136T268 -3Q166 20 105 106T44 328Q44 435 82 509T188 623T346
662Q436 662 504 623T610 510T648 328Q648 201 595 118T449 4Q472 -27 510 -39T586 -52Q607 -52 626 -49T660 -40L690 -164Q671 -174 639 -181T566 -188Z" />
<glyph unicode="R" glyph-name="R" horiz-adv-x="630" d="M72 0V650H318Q388 650 447 632T542 567T578 440Q578 370 549 324T473 252L614 0H422L310 218H244V0H72ZM244 354H306Q410 354 410 440Q410 482 384 498T306 514H244V354Z" />
<glyph unicode="S" glyph-name="S" horiz-adv-x="564" d="M278 -12Q217 -12 151 11T32 81L130 199Q165 171 205 154T282 136Q321 136 338 148T356 182Q356 205 333 217T268 245L187 279Q135 300 96 345T56 460Q56 516 87 561T172 634T298 662Q354 662 411 641T514
575L428 467Q395 490 365 502T298 514Q267 514 249 503T230 470Q230 447 256 435T326 405L405 374Q466 350 499 307T532 196Q532 141 503 94T416 17T278 -12Z" />
<glyph unicode="T" glyph-name="T" horiz-adv-x="564" d="M196 0V506H24V650H540V506H368V0H196Z" />
<glyph unicode="U" glyph-name="U" horiz-adv-x="672" d="M338 -12Q202 -12 135 68T68 314V650H240V294Q240 207 263 172T338 136Q389 136 413 171T438 294V650H604V314Q604 148 540 68T338 -12Z" />
<glyph unicode="V" glyph-name="V" horiz-adv-x="572" d="M182 0L-10 650H172L240 366Q254 314 264 264T288 160H292Q306 213 316 263T340 366L406 650H582L390 0H182Z" />
<glyph unicode="W" glyph-name="W" horiz-adv-x="824" d="M124 0L10 650H186L222 366Q227 315 233 264T244 162H248Q257 213 266 264T284 366L346 650H490L552 366Q561 317 570 266T588 162H592Q597 214 603 265T614 366L650 650H814L706 0H488L438 258Q431 296
425 335T414 410H410Q405 374 400 335T386 258L338 0H124Z" />
<glyph unicode="X" glyph-name="X" horiz-adv-x="588" d="M10 0L186 334L20 650H212L256 544Q267 522 278 495T302 436H306Q317 468 327 495T346 544L384 650H568L402 326L578 0H386L334 116Q322 142 311 168T288 224H284Q274 194 264 168T242 116L194 0H10Z" />
<glyph unicode="Y" glyph-name="Y" horiz-adv-x="544" d="M186 0V224L-10 650H174L222 514Q234 477 246 442T271 369H275Q288 407 300 442T326 514L374 650H554L358 224V0H186Z" />
<glyph unicode="Z" glyph-name="Z" horiz-adv-x="542" d="M32 0V104L298 506H58V650H510V546L244 144H512V0H32Z" />
<glyph unicode="[" glyph-name="bracketleft" horiz-adv-x="360" d="M84 -152V708H308V618H212V-62H308V-152H84Z" />
<glyph unicode="\" glyph-name="backslash" horiz-adv-x="334" d="M210 -160L34 710H144L320 -160H210Z" />
<glyph unicode="]" glyph-name="bracketright" horiz-adv-x="360" d="M52 -152V-62H148V618H52V708H276V-152H52Z" />
<glyph unicode="^" glyph-name="asciicircum" horiz-adv-x="540" d="M46 270L202 670H338L494 270H354L316 380L272 516H268L224 380L186 270H46Z" />
<glyph unicode="_" glyph-name="underscore" horiz-adv-x="500" d="M12 -146V-52H488V-146H12Z" />
<glyph unicode="`" glyph-name="grave" horiz-adv-x="560" d="M260 572L70 730L186 844L344 656L260 572Z" />
<glyph unicode="a" glyph-name="a" horiz-adv-x="536" d="M188 -12Q141 -12 108 9T56 66T38 142Q38 220 102 264T310 324Q304 376 240 376Q213 376 183 366T114 334L54 446Q107 478 161 495T274 512Q372 512 427 457T482 278V0H342L330 48H326Q296 21 263 5T188
-12ZM248 120Q269 120 283 129T310 154V222Q249 213 226 195T202 156Q202 120 248 120Z" />
<glyph unicode="b" glyph-name="b" horiz-adv-x="580" d="M336 -12Q267 -12 210 54H206L192 0H58V696H230V534L226 462Q281 512 349 512Q408 512 452 481T520 393T544 259Q544 173 514 112T437 20T336 -12ZM294 128Q324 128 346 156T368 256Q368 318 351 345T298
372Q279 372 263 364T230 336V152Q245 139 261 134T294 128Z" />
<glyph unicode="c" glyph-name="c" horiz-adv-x="472" d="M284 -12Q213 -12 156 19T66 108T32 250Q32 333 69 391T168 481T300 512Q345 512 381 498T446 460L366 350Q350 364 337 369T310 374Q262 374 235 341T208 250Q208 193 236 160T304 126Q325 126 345 135T384
158L450 46Q413 13 368 1T284 -12Z" />
<glyph unicode="d" glyph-name="d" horiz-adv-x="580" d="M240 -12Q147 -12 92 58T36 250Q36 332 65 390T142 480T240 512Q281 512 307 499T356 462L350 534V696H522V0H382L370 46H366Q341 21 307 5T240 -12ZM286 128Q306 128 321 135T350 164V348Q335 362 317
367T282 372Q255 372 234 345T212 252Q212 185 232 157T286 128Z" />
<glyph unicode="e" glyph-name="e" horiz-adv-x="526" d="M290 -12Q217 -12 159 19T66 108T32 250Q32 331 66 389T156 480T272 512Q346 512 394 480T466 392T490 270Q490 248 488 228T483 198H198Q210 153 241 136T314 118Q362 118 416 148L472 46Q432 18 382
3T290 -12ZM196 310H344Q344 339 330 360T276 382Q248 382 226 365T196 310Z" />
<glyph unicode="f" glyph-name="f" horiz-adv-x="360" d="M88 0V366H22V494L88 499V506Q88 560 106 606T168 680T286 708Q321 708 348 702T392 690L362 564Q335 574 312 574Q288 574 274 561T260 512V500H344V366H260V0H88Z" />
<glyph unicode="g" glyph-name="g" horiz-adv-x="546" d="M240 -206Q183 -206 135 -194T59 -154T30 -82Q30 -23 100 14V18Q81 32 68 52T54 104Q54 130 69 155T110 198V202Q83 220 63 253T42 330Q42 392 72 432T152 492T256 512Q300 512 336 500H522V376H450Q453
367 455 353T458 324Q458 265 431 229T358 175T256 158Q231 158 200 165Q188 154 188 136Q188 120 204 113T258 106H333Q427 106 478 76T530 -24Q530 -78 495 -119T394 -183T240 -206ZM256 260Q280 260 295 277T310 330Q310 365 295 381T256 398Q232 398 217 382T202
330Q202 294 217 277T256 260ZM268 -100Q310 -100 338 -88T366 -54Q366 -34 349 -29T299 -24H260Q230 -24 215 -23T188 -18Q170 -36 170 -54Q170 -78 197 -89T268 -100Z" />
<glyph unicode="h" glyph-name="h" horiz-adv-x="582" d="M58 0V696H230V534L222 448Q248 471 284 491T372 512Q455 512 491 457T528 308V0H356V286Q356 334 344 350T306 366Q282 366 266 356T230 328V0H58Z" />
<glyph unicode="i" glyph-name="i" horiz-adv-x="288" d="M58 0V500H230V0H58ZM144 562Q102 562 76 585T50 648Q50 687 76 710T144 734Q186 734 212 711T238 648Q238 609 212 586T144 562Z" />
<glyph unicode="j" glyph-name="j" horiz-adv-x="290" d="M38 -188Q4 -188 -17 -184T-56 -174L-26 -48Q-5 -54 10 -54Q37 -54 48 -37T60 20V500H232V26Q232 -30 215 -79T156 -158T38 -188ZM146 562Q104 562 78 585T52 648Q52 687 78 710T146 734Q188 734 214 711T240
648Q240 609 214 586T146 562Z" />
<glyph unicode="k" glyph-name="k" horiz-adv-x="568" d="M58 0V696H226V326H230L368 500H554L376 292L564 0H378L278 178L226 120V0H58Z" />
<glyph unicode="l" glyph-name="l" horiz-adv-x="298" d="M212 -12Q154 -12 121 11T73 77T58 176V696H230V170Q230 145 239 136T258 126Q263 126 266 126T276 128L296 2Q283 -4 262 -8T212 -12Z" />
<glyph unicode="m" glyph-name="m" horiz-adv-x="868" d="M58 0V500H198L210 439H214Q244 468 278 490T364 512Q415 512 448 492T502 432Q533 464 569 488T656 512Q739 512 776 457T814 308V0H642V286Q642 334 630 350T592 366Q560 366 522 328V0H350V286Q350
334 338 350T300 366Q268 366 230 328V0H58Z" />
<glyph unicode="n" glyph-name="n" horiz-adv-x="582" d="M58 0V500H198L210 440H214Q244 469 282 490T372 512Q455 512 491 457T528 308V0H356V286Q356 334 344 350T306 366Q282 366 266 356T230 328V0H58Z" />
<glyph unicode="o" glyph-name="o" horiz-adv-x="560" d="M280 -12Q216 -12 160 19T68 108T32 250Q32 333 67 391T159 481T280 512Q344 512 400 481T492 392T528 250Q528 167 493 109T401 19T280 -12ZM280 126Q319 126 335 159T352 250Q352 307 336 340T280 374Q241
374 225 341T208 250Q208 193 224 160T280 126Z" />
<glyph unicode="p" glyph-name="p" horiz-adv-x="580" d="M58 -176V500H198L210 454H214Q242 480 277 496T350 512Q409 512 452 481T520 392T544 258Q544 172 514 112T437 20T336 -12Q274 -12 224 38L230 -38V-176H58ZM294 128Q324 128 346 156T368 256Q368 318
351 345T298 372Q279 372 263 364T230 336V152Q245 139 261 134T294 128Z" />
<glyph unicode="q" glyph-name="q" horiz-adv-x="580" d="M350 -176V-33L356 38Q334 16 302 2T240 -12Q147 -12 92 58T36 250Q36 332 65 390T142 480T240 512Q280 512 311 498T370 450H374L388 500H522V-176H350ZM286 128Q306 128 321 135T350 164V348Q335 362
317 367T282 372Q255 372 234 345T212 252Q212 185 232 157T286 128Z" />
<glyph unicode="r" glyph-name="r" horiz-adv-x="418" d="M58 0V500H198L210 414H214Q242 465 280 488T356 512Q379 512 393 510T418 502L390 354Q377 357 364 359T334 362Q307 362 278 344T230 278V0H58Z" />
<glyph unicode="s" glyph-name="s" horiz-adv-x="452" d="M212 -12Q164 -12 111 7T18 58L94 164Q162 114 216 114Q243 114 254 121T266 144Q266 164 237 175T170 202Q141 214 113 232T65 280T46 350Q46 424 101 468T244 512Q306 512 350 492T428 446L352 344Q325
364 299 375T250 386Q206 386 206 358Q206 339 233 329T298 304Q328 293 357 275T406 228T426 154Q426 84 372 36T212 -12Z" />
<glyph unicode="t" glyph-name="t" horiz-adv-x="400" d="M264 -12Q167 -12 124 44T80 192V366H14V494L90 500L110 630H252V500H366V366H252V195Q252 154 270 138T312 122Q324 122 335 124T356 130L382 6Q363 0 334 -6T264 -12Z" />
<glyph unicode="u" glyph-name="u" horiz-adv-x="578" d="M210 -12Q128 -12 91 43T54 192V500H226V214Q226 166 238 150T276 134Q300 134 316 144T348 178V500H520V0H380L368 66H364Q334 30 298 9T210 -12Z" />
<glyph unicode="v" glyph-name="v" horiz-adv-x="544" d="M176 0L12 500H184L238 282Q256 207 274 126H278Q296 207 314 282L368 500H532L374 0H176Z" />
<glyph unicode="w" glyph-name="w" horiz-adv-x="798" d="M144 0L24 500H194L232 290Q238 253 242 215T252 138H256Q262 177 268 215T284 290L330 500H476L524 290Q533 253 540 215T554 138H558Q564 177 568 215T578 290L616 500H774L660 0H460L424 174Q418 209
412 244T400 321H396Q390 280 385 245T374 174L340 0H144Z" />
<glyph unicode="x" glyph-name="x" horiz-adv-x="540" d="M14 0L164 260L22 500H206L242 430Q252 409 262 387T282 344H286Q293 365 301 387T316 430L340 500H518L376 240L526 0H342L302 70Q291 91 280 113T258 156H254Q246 135 237 114T220 70L192 0H14Z" />
<glyph unicode="y" glyph-name="y" horiz-adv-x="542" d="M132 -188Q107 -188 90 -185T56 -178L86 -48Q93 -49 102 -51T118 -54Q153 -54 171 -40T196 -4L202 18L12 500H184L244 308Q255 274 263 239T280 166H284Q292 202 299 237T316 308L366 500H530L362 8Q336
-59 307 -102T236 -167T132 -188Z" />
<glyph unicode="z" glyph-name="z" horiz-adv-x="474" d="M40 0V92L230 366H62V500H444V408L254 134H450V0H40Z" />
<glyph unicode="{" glyph-name="braceleft" horiz-adv-x="360" d="M238 -152Q169 -152 138 -120T106 -6Q106 29 108 53T113 101T116 156Q116 182 97 204T30 228V328Q78 330 97 352T116 400Q116 431 114 454T109 502T106 562Q106 645 137 676T238 708H308V618H292Q264
618 254 607T244 556Q244 518 246 481T248 400Q248 340 228 315T168 280V276Q208 267 228 242T248 156Q248 113 246 76T244 0Q244 -39 254 -50T292 -62H308V-152H238Z" />
<glyph unicode="|" glyph-name="bar" horiz-adv-x="278" d="M84 -250V750H194V-250H84Z" />
<glyph unicode="}" glyph-name="braceright" horiz-adv-x="360" d="M52 -152V-62H68Q96 -62 106 -51T116 0Q116 38 114 75T112 156Q112 216 132 241T192 276V280Q152 289 132 314T112 400Q112 444 114 481T116 556Q116 595 106 606T68 618H52V708H122Q191 708
222 677T254 562Q254 527 252 503T247 455T244 400Q244 375 263 353T330 328V228Q282 227 263 205T244 156Q244 125 246 102T251 54T254 -6Q254 -88 223 -120T122 -152H52Z" />
<glyph unicode="~" glyph-name="asciitilde" horiz-adv-x="540" d="M354 234Q323 234 300 245T258 270T222 295T184 306Q165 306 147 291T114 250L26 318Q67 378 107 402T186 426Q218 426 241 415T282 390T318 365T356 354Q376 354 393 369T426 410L514 342Q474
282 434 258T354 234Z" />
<glyph unicode="&#xa0;" glyph-name="space" horiz-adv-x="200" />
<glyph unicode="&#xa1;" glyph-name="exclamdown" horiz-adv-x="360" d="M94 -170L100 -22L124 256H236L260 -22L266 -170H94ZM180 304Q137 304 109 334T80 408Q80 452 108 482T180 512Q224 512 252 482T280 408Q280 365 252 335T180 304Z" />
<glyph unicode="&#xa2;" glyph-name="cent" horiz-adv-x="540" d="M280 -44V47Q180 61 120 128T60 306Q60 377 88 430T166 517T280 562V656H372V567Q410 563 441 549T494 512L416 406Q393 424 372 429V184Q389 188 404 196T432 214L500 106Q472 81 438 67T372
47V-44H280ZM226 306Q226 230 280 199V413Q252 398 239 371T226 306Z" />
<glyph unicode="&#xa3;" glyph-name="sterling" horiz-adv-x="540" d="M46 0V106Q88 124 120 161T152 250Q152 254 152 258T151 266H52V364L120 370H122Q117 387 114 402T110 432Q110 498 139 546T219 620T334 646Q391 646 434 625T514 562L422 470Q390 508 352
508Q318 508 296 489T274 422Q274 409 276 397T280 370H424V266H301Q302 262 302 258T302 248Q302 219 294 197T264 148V144H514V0H46Z" />
<glyph unicode="&#xa4;" glyph-name="currency" horiz-adv-x="540" d="M102 76L17 161L77 221Q61 244 53 271T44 330Q44 362 52 388T76 437L17 497L102 582L172 512Q220 532 270 532Q320 532 368 512L438 582L523 497L463 437Q479 415 487 389T496 330Q496 298
487 271T462 221L523 161L438 76L367 147Q344 137 319 133T270 128Q218 128 173 147L102 76ZM270 246Q302 246 323 268T344 330Q344 369 323 391T270 414Q239 414 218 392T196 330Q196 291 217 269T270 246Z" />
<glyph unicode="&#xa5;" glyph-name="yen" horiz-adv-x="540" d="M184 0V142H34V222H184V272H34V352H148L8 634H184L224 516Q235 483 246 451T270 386H274Q285 418 297 451T320 516L360 634H532L392 352H506V272H356V222H506V142H356V0H184Z" />
<glyph unicode="&#xa6;" glyph-name="brokenbar" horiz-adv-x="278" d="M84 320V750H194V320H84ZM84 -250V200H194V-250H84Z" />
<glyph unicode="&#xa7;" glyph-name="section" horiz-adv-x="540" d="M242 -92Q187 -92 131 -70T40 -2L138 84Q162 59 189 47T242 34Q269 34 280 42T292 66Q292 82 274 94T226 118T163 145T101 183T53 239T34 320Q34 355 54 389T111 447Q98 464 91 484T84 530Q84
604 134 648T272 692Q334 692 382 671T462 624L384 518Q361 538 333 552T282 566Q238 566 238 536Q238 522 257 510T307 486T372 457T436 417T486 362T506 284Q506 201 425 149Q435 134 440 116T446 74Q446 4 396 -44T242 -92ZM178 332Q178 306 202 288T263 255T337
221Q362 239 362 270Q362 297 338 315T278 347T203 380Q178 361 178 332Z" />
<glyph unicode="&#xa8;" glyph-name="dieresis" horiz-adv-x="560" d="M166 562Q131 562 109 585T86 642Q86 676 108 699T166 722Q201 722 223 699T246 642Q246 608 224 585T166 562ZM394 562Q359 562 337 585T314 642Q314 676 336 699T394 722Q429 722 451 699T474
642Q474 608 452 585T394 562Z" />
<glyph unicode="&#xa9;" glyph-name="copyright" horiz-adv-x="752" d="M376 -8Q309 -8 249 15T143 81T71 186T44 326Q44 404 70 465T143 569T249 634T376 656Q443 656 503 634T609 569T681 465T708 326Q708 248 682 186T609 81T503 15T376 -8ZM376 60Q449 60
507 93T598 186T632 326Q632 406 599 465T507 556T376 588Q303 588 245 556T154 465T120 326Q120 246 153 186T245 93T376 60ZM390 128Q332 128 288 152T218 220T192 324Q192 383 220 426T292 494T388 518Q436 518 468 500T524 458L461 388Q447 403 433 411T400
420Q356 420 335 392T313 324Q313 279 335 253T394 226Q417 226 432 234T466 256L520 178Q492 156 460 142T390 128Z" />
<glyph unicode="&#xaa;" glyph-name="ordfeminine" horiz-adv-x="364" d="M128 360Q80 360 53 391T26 462Q26 515 69 544T208 582Q204 614 164 614Q146 614 125 607T78 586L36 664Q72 685 109 696T186 708Q251 708 289 671T328 554V368H232L222 400H218Q200 382
178 371T128 360ZM169 450Q182 450 190 455T208 470V514Q169 510 155 498T140 472Q140 450 169 450Z" />
<glyph unicode="&#xab;" glyph-name="guillemotleft" horiz-adv-x="500" d="M184 52L50 192V312L184 452L246 402L138 252L246 102L184 52ZM384 52L250 192V312L384 452L446 402L338 252L446 102L384 52Z" />
<glyph unicode="&#xac;" glyph-name="logicalnot" horiz-adv-x="540" d="M382 90V270H34V390H506V90H382Z" />
<glyph unicode="&#xad;" glyph-name="hyphen" horiz-adv-x="340" d="M44 194V314H296V194H44Z" />
<glyph unicode="&#xae;" glyph-name="registered" horiz-adv-x="477" d="M238 308Q182 308 136 334T63 407T36 512Q36 571 63 617T136 689T238 716Q294 716 340 690T413 617T440 512Q440 453 413 407T340 335T238 308ZM238 362Q301 362 340 402T380 512Q380 581
341 621T238 662Q175 662 136 622T96 512Q96 443 135 403T238 362ZM154 416V610H248Q284 610 307 594T330 544Q330 528 322 514T296 490L336 416H270L242 472H218V416H154ZM218 515H236Q250 515 256 523T262 540Q262 550 255 556T236 563H218V515Z" />
<glyph unicode="&#xaf;" glyph-name="overscore" horiz-adv-x="560" d="M126 588V696H434V588H126Z" />
<glyph unicode="&#xb0;" glyph-name="degree" horiz-adv-x="378" d="M190 386Q147 386 113 405T58 459T38 536Q38 579 58 613T112 666T190 686Q233 686 267 667T322 613T342 536Q342 493 322 459T268 406T190 386ZM190 466Q219 466 236 485T254 536Q254 568 237
587T190 606Q162 606 144 587T126 536Q126 505 144 486T190 466Z" />
<glyph unicode="&#xb1;" glyph-name="plusminus" horiz-adv-x="540" d="M208 170V290H34V410H208V570H332V410H506V290H332V170H208ZM34 0V120H506V0H34Z" />
<glyph unicode="&#xb2;" glyph-name="two.sups" horiz-adv-x="380" d="M42 368V434Q88 470 125 503T185 564T208 614Q208 668 158 668Q140 668 125 657T92 624L22 688Q86 770 178 770Q246 770 287 735T328 636Q328 592 301 552T240 472H340V368H42Z" />
<glyph unicode="&#xb3;" glyph-name="three.sups" horiz-adv-x="380" d="M188 356Q136 356 94 376T24 436L98 494Q116 470 134 460T174 450Q194 450 208 460T222 488Q222 511 203 521T140 532V602Q171 602 189 611T208 642Q208 659 197 667T168 676Q150 676 136
666T110 640L40 702Q75 738 108 754T190 770Q227 770 259 757T310 719T330 660Q330 630 317 610T278 572Q307 559 325 535T344 478Q344 442 322 415T265 372T188 356Z" />
<glyph unicode="&#xb4;" glyph-name="acute" horiz-adv-x="560" d="M300 572L216 656L374 844L490 730L300 572Z" />
<glyph unicode="&#xb5;" glyph-name="mu" horiz-adv-x="606" d="M58 -176V500H230V214Q230 166 242 150T280 134Q303 134 319 147T348 188V500H522Q520 445 517 382T512 262T510 170Q510 145 523 136T558 126Q564 126 573 127T590 132L610 6Q592 -1 570 -6T512
-12Q399 -12 368 66H364Q333 -6 270 -6Q257 -6 244 -4T220 8Q222 -41 224 -83T232 -176H58Z" />
<glyph unicode="&#xb6;" glyph-name="paragraph" horiz-adv-x="666" d="M398 -80V650H570V-80H398ZM298 186Q228 186 169 213T74 293T38 424Q38 510 74 559T169 629T298 650H342V186H298Z" />
<glyph unicode="&#xb7;" glyph-name="middot" horiz-adv-x="320" d="M160 216Q117 216 89 246T60 320Q60 364 88 394T160 424Q204 424 232 394T260 320Q260 277 232 247T160 216Z" />
<glyph unicode="&#xb8;" glyph-name="cedilla" horiz-adv-x="560" d="M172 -244L160 -178Q217 -175 238 -166T260 -136Q260 -122 246 -112T184 -96L234 4H332L304 -60Q343 -69 362 -86T382 -136Q382 -190 327 -215T172 -244Z" />
<glyph unicode="&#xb9;" glyph-name="one.sups" horiz-adv-x="380" d="M162 368V638H72V714Q116 720 139 730T190 758H288V368H162Z" />
<glyph unicode="&#xba;" glyph-name="ordmasculine" horiz-adv-x="376" d="M188 360Q145 360 107 380T46 440T22 533Q22 588 45 627T107 687T188 708Q231 708 269 687T330 627T354 533Q354 479 331 440T269 381T188 360ZM188 454Q213 454 222 475T232 533Q232
570 223 592T188 614Q163 614 154 592T144 533Q144 497 153 476T188 454Z" />
<glyph unicode="&#xbb;" glyph-name="guillemotright" horiz-adv-x="500" d="M116 52L54 102L162 252L54 402L116 452L250 312V192L116 52ZM316 52L254 102L362 252L254 402L316 452L450 312V192L316 52Z" />
<glyph unicode="&#xbc;" glyph-name="onequarter" horiz-adv-x="820" d="M130 260V530H40V606Q84 612 107 622T158 650H256V260H130ZM188 -12L536 662H632L284 -12H188ZM584 160H652V190L658 310H654L618 234L584 160ZM652 0V80H472V142L604 390H762V160H820V80H762V0H652Z"
/>
<glyph unicode="&#xbd;" glyph-name="onehalf" horiz-adv-x="860" d="M130 260V530H40V606Q84 612 107 622T158 650H256V260H130ZM174 -12L522 662H618L270 -12H174ZM522 0V66Q568 102 605 135T665 196T688 246Q688 300 638 300Q620 300 605 289T572 256L502 320Q566
402 658 402Q726 402 767 367T808 268Q808 224 781 184T720 104H820V0H522Z" />
<glyph unicode="&#xbe;" glyph-name="threequarters" horiz-adv-x="826" d="M184 248Q132 248 90 268T20 328L94 386Q112 362 130 352T170 342Q190 342 204 352T218 380Q218 403 199 413T136 424V494Q167 494 185 503T204 534Q204 551 193 559T164 568Q146 568
132 558T106 532L36 594Q71 630 104 646T186 662Q223 662 255 649T306 611T326 552Q326 522 313 502T274 464Q303 451 321 427T340 370Q340 334 318 307T261 264T184 248ZM204 -12L552 662H648L300 -12H204ZM590 160H658V190L664 310H660L624 234L590 160ZM658
0V80H478V142L610 390H768V160H826V80H768V0H658Z" />
<glyph unicode="&#xbf;" glyph-name="questiondown" horiz-adv-x="478" d="M238 -182Q183 -182 138 -164T67 -108T40 -6Q40 30 54 57T90 106T132 151T166 198T176 256H326Q332 217 322 186T292 130T253 84T218 44T204 6Q204 -21 221 -32T260 -44Q286 -44 304 -32T342
-2L436 -88Q399 -130 349 -156T238 -182ZM252 304Q209 304 181 334T152 408Q152 452 180 482T252 512Q296 512 324 482T352 408Q352 365 324 335T252 304Z" />
<glyph unicode="&#xc0;" glyph-name="Agrave" horiz-adv-x="584" d="M240 316L229 271H349L338 316Q326 363 314 418T290 522H286Q276 473 264 418T240 316ZM-10 0L188 650H396L594 0H412L380 138H198L166 0H-10ZM298 674L102 794L192 904L374 760L298 674Z" />
<glyph unicode="&#xc1;" glyph-name="Aacute" horiz-adv-x="584" d="M240 316L229 271H349L338 316Q326 363 314 418T290 522H286Q276 473 264 418T240 316ZM-10 0L188 650H396L594 0H412L380 138H198L166 0H-10ZM282 674L206 760L388 904L478 794L282 674Z" />
<glyph unicode="&#xc2;" glyph-name="Acircumflex" horiz-adv-x="584" d="M240 316L229 271H349L338 316Q326 363 314 418T290 522H286Q276 473 264 418T240 316ZM-10 0L188 650H396L594 0H412L380 138H198L166 0H-10ZM186 680L112 724L196 834H384L468 724L394
680L292 760H288L186 680Z" />
<glyph unicode="&#xc3;" glyph-name="Atilde" horiz-adv-x="584" d="M240 316L229 271H349L338 316Q326 363 314 418T290 522H286Q276 473 264 418T240 316ZM-10 0L188 650H396L594 0H412L380 138H198L166 0H-10ZM360 686Q325 686 301 699T258 725T226 738Q214
738 206 730T194 696L84 704Q89 787 127 821T220 856Q255 856 280 843T322 817T354 804Q366 804 374 812T386 846L496 838Q492 756 454 721T360 686Z" />
<glyph unicode="&#xc4;" glyph-name="Adieresis" horiz-adv-x="584" d="M240 316L229 271H349L338 316Q326 363 314 418T290 522H286Q276 473 264 418T240 316ZM-10 0L188 650H396L594 0H412L380 138H198L166 0H-10ZM176 694Q142 694 120 716T98 772Q98 805 120
827T176 850Q211 850 232 828T254 772Q254 739 233 717T176 694ZM404 694Q370 694 348 716T326 772Q326 805 348 827T404 850Q439 850 460 828T482 772Q482 739 461 717T404 694Z" />
<glyph unicode="&#xc5;" glyph-name="Aring" horiz-adv-x="584" d="M240 316L229 271H349L338 316Q326 363 314 418T290 522H286Q276 473 264 418T240 316ZM-10 0L188 650H396L594 0H412L380 138H198L166 0H-10ZM290 696Q236 696 203 724T170 798Q170 845 203
872T290 900Q344 900 377 873T410 798Q410 752 377 724T290 696ZM290 758Q306 758 317 769T328 798Q328 816 317 827T290 838Q274 838 263 827T252 798Q252 780 263 769T290 758Z" />
<glyph unicode="&#xc6;" glyph-name="AE" horiz-adv-x="854" d="M308 348L272 265H380V522H376Q358 476 342 432T308 348ZM-22 0L274 650H790V506H552V404H754V260H552V144H800V0H380V132H215L158 0H-22Z" />
<glyph unicode="&#xc7;" glyph-name="Ccedilla" horiz-adv-x="586" d="M354 -12Q271 -12 201 24T87 135T44 320Q44 402 69 465T139 573T240 639T358 662Q423 662 474 637T560 576L470 466Q446 487 421 500T362 514Q324 514 292 492T240 427T220 326Q220 235 258
186T360 136Q398 136 427 153T478 192L568 84Q527 36 472 12T354 -12ZM244 -244L232 -178Q289 -175 310 -166T332 -136Q332 -122 318 -112T256 -96L306 4H404L376 -60Q415 -69 434 -86T454 -136Q454 -190 399 -215T244 -244Z" />
<glyph unicode="&#xc8;" glyph-name="Egrave" horiz-adv-x="556" d="M72 0V650H492V506H244V404H456V260H244V144H502V0H72ZM298 674L102 794L192 904L374 760L298 674Z" />
<glyph unicode="&#xc9;" glyph-name="Eacute" horiz-adv-x="556" d="M72 0V650H492V506H244V404H456V260H244V144H502V0H72ZM282 674L206 760L388 904L478 794L282 674Z" />
<glyph unicode="&#xca;" glyph-name="Ecircumflex" horiz-adv-x="556" d="M72 0V650H492V506H244V404H456V260H244V144H502V0H72ZM186 680L112 724L196 834H384L468 724L394 680L292 760H288L186 680Z" />
<glyph unicode="&#xcb;" glyph-name="Edieresis" horiz-adv-x="556" d="M72 0V650H492V506H244V404H456V260H244V144H502V0H72ZM176 694Q142 694 120 716T98 772Q98 805 120 827T176 850Q211 850 232 828T254 772Q254 739 233 717T176 694ZM404 694Q370 694 348
716T326 772Q326 805 348 827T404 850Q439 850 460 828T482 772Q482 739 461 717T404 694Z" />
<glyph unicode="&#xcc;" glyph-name="Igrave" horiz-adv-x="316" d="M72 0V650H244V0H72ZM168 674L-28 794L62 904L244 760L168 674Z" />
<glyph unicode="&#xcd;" glyph-name="Iacute" horiz-adv-x="316" d="M72 0V650H244V0H72ZM152 674L76 760L258 904L348 794L152 674Z" />
<glyph unicode="&#xce;" glyph-name="Icircumflex" horiz-adv-x="316" d="M72 0V650H244V0H72ZM56 680L-18 724L66 834H254L338 724L264 680L162 760H158L56 680Z" />
<glyph unicode="&#xcf;" glyph-name="Idieresis" horiz-adv-x="316" d="M72 0V650H244V0H72ZM46 694Q12 694 -10 716T-32 772Q-32 805 -10 827T46 850Q81 850 102 828T124 772Q124 739 103 717T46 694ZM274 694Q240 694 218 716T196 772Q196 805 218 827T274 850Q309
850 330 828T352 772Q352 739 331 717T274 694Z" />
<glyph unicode="&#xd0;" glyph-name="Eth" horiz-adv-x="668" d="M98 0V294H24V368L98 374V650H290Q389 650 464 618T582 514T624 328Q624 213 582 141T467 34T300 0H98ZM270 138H280Q327 138 365 154T425 211T448 328Q448 404 426 443T365 497T280 512H270V374H386V294H270V138Z"
/>
<glyph unicode="&#xd1;" glyph-name="Ntilde" horiz-adv-x="672" d="M72 0V650H248L392 360L454 214H458Q452 267 444 334T436 462V650H600V0H424L280 291L218 436H214Q220 381 228 315T236 188V0H72ZM410 686Q375 686 351 699T308 725T276 738Q264 738 256 730T244
696L134 704Q139 787 177 821T270 856Q305 856 330 843T372 817T404 804Q416 804 424 812T436 846L546 838Q542 756 504 721T410 686Z" />
<glyph unicode="&#xd2;" glyph-name="Ograve" horiz-adv-x="692" d="M346 -12Q256 -12 188 28T82 145T44 328Q44 435 82 509T188 623T346 662Q436 662 504 623T610 510T648 328Q648 221 610 145T504 29T346 -12ZM346 136Q405 136 438 188T472 328Q472 417 439
465T346 514Q288 514 254 466T220 328Q220 240 254 188T346 136ZM354 674L158 794L248 904L430 760L354 674Z" />
<glyph unicode="&#xd3;" glyph-name="Oacute" horiz-adv-x="692" d="M346 -12Q256 -12 188 28T82 145T44 328Q44 435 82 509T188 623T346 662Q436 662 504 623T610 510T648 328Q648 221 610 145T504 29T346 -12ZM346 136Q405 136 438 188T472 328Q472 417 439
465T346 514Q288 514 254 466T220 328Q220 240 254 188T346 136ZM338 674L262 760L444 904L534 794L338 674Z" />
<glyph unicode="&#xd4;" glyph-name="Ocircumflex" horiz-adv-x="692" d="M346 -12Q256 -12 188 28T82 145T44 328Q44 435 82 509T188 623T346 662Q436 662 504 623T610 510T648 328Q648 221 610 145T504 29T346 -12ZM346 136Q405 136 438 188T472 328Q472 417
439 465T346 514Q288 514 254 466T220 328Q220 240 254 188T346 136ZM242 680L168 724L252 834H440L524 724L450 680L348 760H344L242 680Z" />
<glyph unicode="&#xd5;" glyph-name="Otilde" horiz-adv-x="692" d="M346 -12Q256 -12 188 28T82 145T44 328Q44 435 82 509T188 623T346 662Q436 662 504 623T610 510T648 328Q648 221 610 145T504 29T346 -12ZM346 136Q405 136 438 188T472 328Q472 417 439
465T346 514Q288 514 254 466T220 328Q220 240 254 188T346 136ZM416 686Q381 686 357 699T314 725T282 738Q270 738 262 730T250 696L140 704Q145 787 183 821T276 856Q311 856 336 843T378 817T410 804Q422 804 430 812T442 846L552 838Q548 756 510 721T416
686Z" />
<glyph unicode="&#xd6;" glyph-name="Odieresis" horiz-adv-x="692" d="M346 -12Q256 -12 188 28T82 145T44 328Q44 435 82 509T188 623T346 662Q436 662 504 623T610 510T648 328Q648 221 610 145T504 29T346 -12ZM346 136Q405 136 438 188T472 328Q472 417 439
465T346 514Q288 514 254 466T220 328Q220 240 254 188T346 136ZM232 694Q198 694 176 716T154 772Q154 805 176 827T232 850Q267 850 288 828T310 772Q310 739 289 717T232 694ZM460 694Q426 694 404 716T382 772Q382 805 404 827T460 850Q495 850 516 828T538
772Q538 739 517 717T460 694Z" />
<glyph unicode="&#xd7;" glyph-name="multiply" horiz-adv-x="540" d="M132 106L47 191L185 329L47 467L132 552L270 414L408 552L493 467L355 329L493 191L408 106L270 244L132 106Z" />
<glyph unicode="&#xd8;" glyph-name="Oslash" horiz-adv-x="692" d="M124 -46L36 22L105 106Q76 148 60 204T44 328Q44 435 82 509T188 623T346 662Q447 662 520 613L588 696L676 628L597 532Q648 450 648 328Q648 221 610 145T504 29T346 -12Q254 -12 186 30L124
-46ZM220 328Q220 286 227 255L418 488Q387 514 346 514Q288 514 254 466T220 328ZM346 136Q405 136 438 188T472 328Q472 354 469 375L287 153Q313 136 346 136Z" />
<glyph unicode="&#xd9;" glyph-name="Ugrave" horiz-adv-x="672" d="M338 -12Q202 -12 135 68T68 314V650H240V294Q240 207 263 172T338 136Q389 136 413 171T438 294V650H604V314Q604 148 540 68T338 -12ZM344 674L148 794L238 904L420 760L344 674Z" />
<glyph unicode="&#xda;" glyph-name="Uacute" horiz-adv-x="672" d="M338 -12Q202 -12 135 68T68 314V650H240V294Q240 207 263 172T338 136Q389 136 413 171T438 294V650H604V314Q604 148 540 68T338 -12ZM328 674L252 760L434 904L524 794L328 674Z" />
<glyph unicode="&#xdb;" glyph-name="Ucircumflex" horiz-adv-x="672" d="M338 -12Q202 -12 135 68T68 314V650H240V294Q240 207 263 172T338 136Q389 136 413 171T438 294V650H604V314Q604 148 540 68T338 -12ZM232 680L158 724L242 834H430L514 724L440 680L338
760H334L232 680Z" />
<glyph unicode="&#xdc;" glyph-name="Udieresis" horiz-adv-x="672" d="M338 -12Q202 -12 135 68T68 314V650H240V294Q240 207 263 172T338 136Q389 136 413 171T438 294V650H604V314Q604 148 540 68T338 -12ZM222 694Q188 694 166 716T144 772Q144 805 166 827T222
850Q257 850 278 828T300 772Q300 739 279 717T222 694ZM450 694Q416 694 394 716T372 772Q372 805 394 827T450 850Q485 850 506 828T528 772Q528 739 507 717T450 694Z" />
<glyph unicode="&#xdd;" glyph-name="Yacute" horiz-adv-x="544" d="M186 0V224L-10 650H174L222 514Q234 477 246 442T271 369H275Q288 407 300 442T326 514L374 650H554L358 224V0H186ZM264 674L188 760L370 904L460 794L264 674Z" />
<glyph unicode="&#xde;" glyph-name="Thorn" horiz-adv-x="630" d="M72 0V650H244V556H324Q394 556 453 536T548 469T584 340Q584 261 548 211T452 136T324 112H244V0H72ZM244 248H316Q367 248 391 272T416 340Q416 384 390 402T316 420H244V248Z" />
<glyph unicode="&#xdf;" glyph-name="germandbls" horiz-adv-x="654" d="M434 -12Q389 -12 354 -1T280 32L338 148Q362 130 384 122T428 114Q448 114 460 124T472 150Q472 168 455 181T413 207T363 237T321 280T304 344Q304 371 313 391T336 428T358 466T368 512Q368
538 354 555T312 572Q269 572 249 541T228 458V0H58V476Q58 541 85 593T168 675T312 706Q386 706 435 681T508 616T532 532Q532 497 521 473T496 430T471 398T460 366Q460 350 477 338T519 313T569 281T611 233T628 158Q628 111 607 73T542 11T434 -12Z" />
<glyph unicode="&#xe0;" glyph-name="agrave" horiz-adv-x="536" d="M188 -12Q141 -12 108 9T56 66T38 142Q38 220 102 264T310 324Q304 376 240 376Q213 376 183 366T114 334L54 446Q107 478 161 495T274 512Q372 512 427 457T482 278V0H342L330 48H326Q296 21
263 5T188 -12ZM248 120Q269 120 283 129T310 154V222Q249 213 226 195T202 156Q202 120 248 120ZM260 572L70 730L186 844L344 656L260 572Z" />
<glyph unicode="&#xe1;" glyph-name="aacute" horiz-adv-x="536" d="M188 -12Q141 -12 108 9T56 66T38 142Q38 220 102 264T310 324Q304 376 240 376Q213 376 183 366T114 334L54 446Q107 478 161 495T274 512Q372 512 427 457T482 278V0H342L330 48H326Q296 21
263 5T188 -12ZM248 120Q269 120 283 129T310 154V222Q249 213 226 195T202 156Q202 120 248 120ZM300 572L216 656L374 844L490 730L300 572Z" />
<glyph unicode="&#xe2;" glyph-name="acircumflex" horiz-adv-x="536" d="M188 -12Q141 -12 108 9T56 66T38 142Q38 220 102 264T310 324Q304 376 240 376Q213 376 183 366T114 334L54 446Q107 478 161 495T274 512Q372 512 427 457T482 278V0H342L330 48H326Q296
21 263 5T188 -12ZM248 120Q269 120 283 129T310 154V222Q249 213 226 195T202 156Q202 120 248 120ZM86 618L192 746H368L474 618L410 558L282 642H278L150 558L86 618Z" />
<glyph unicode="&#xe3;" glyph-name="atilde" horiz-adv-x="536" d="M188 -12Q141 -12 108 9T56 66T38 142Q38 220 102 264T310 324Q304 376 240 376Q213 376 183 366T114 334L54 446Q107 478 161 495T274 512Q372 512 427 457T482 278V0H342L330 48H326Q296 21
263 5T188 -12ZM248 120Q269 120 283 129T310 154V222Q249 213 226 195T202 156Q202 120 248 120ZM344 572Q314 572 291 586T251 614T220 628Q208 628 201 619T190 582L84 588Q86 673 121 709T216 746Q246 746 269 732T309 704T340 690Q352 690 359 699T370 736L476
730Q475 645 440 609T344 572Z" />
<glyph unicode="&#xe4;" glyph-name="adieresis" horiz-adv-x="536" d="M188 -12Q141 -12 108 9T56 66T38 142Q38 220 102 264T310 324Q304 376 240 376Q213 376 183 366T114 334L54 446Q107 478 161 495T274 512Q372 512 427 457T482 278V0H342L330 48H326Q296
21 263 5T188 -12ZM248 120Q269 120 283 129T310 154V222Q249 213 226 195T202 156Q202 120 248 120ZM166 562Q131 562 109 585T86 642Q86 676 108 699T166 722Q201 722 223 699T246 642Q246 608 224 585T166 562ZM394 562Q359 562 337 585T314 642Q314 676 336
699T394 722Q429 722 451 699T474 642Q474 608 452 585T394 562Z" />
<glyph unicode="&#xe5;" glyph-name="aring" horiz-adv-x="536" d="M188 -12Q141 -12 108 9T56 66T38 142Q38 220 102 264T310 324Q304 376 240 376Q213 376 183 366T114 334L54 446Q107 478 161 495T274 512Q372 512 427 457T482 278V0H342L330 48H326Q296 21
263 5T188 -12ZM248 120Q269 120 283 129T310 154V222Q249 213 226 195T202 156Q202 120 248 120ZM280 568Q210 568 175 599T140 674Q140 718 175 749T280 780Q351 780 385 749T420 674Q420 631 386 600T280 568ZM280 630Q296 630 307 642T318 674Q318 694 307
706T280 718Q264 718 253 706T242 674Q242 655 253 643T280 630Z" />
<glyph unicode="&#xe6;" glyph-name="ae" horiz-adv-x="786" d="M192 -12Q145 -12 112 9T60 66T42 142Q42 220 105 265T312 325Q309 351 294 363T244 376Q217 376 187 366T118 334L58 446Q111 478 162 495T268 512Q312 512 347 495T406 448Q439 480 472 496T548
512Q616 512 661 479T728 389T750 266Q750 244 748 226T743 198H468Q479 156 507 139T574 122Q600 122 623 131T674 156L732 46Q692 18 642 3T550 -12Q498 -12 455 7T380 60Q326 19 284 4T192 -12ZM252 120Q274 120 291 128T324 150Q315 177 312 203L310 222Q254
213 230 196T206 156Q206 120 252 120ZM468 302H604Q604 335 591 358T542 382Q514 382 494 364T468 302Z" />
<glyph unicode="&#xe7;" glyph-name="ccedilla" horiz-adv-x="472" d="M284 -12Q213 -12 156 19T66 108T32 250Q32 333 69 391T168 481T300 512Q345 512 381 498T446 460L366 350Q350 364 337 369T310 374Q262 374 235 341T208 250Q208 193 236 160T304 126Q325
126 345 135T384 158L450 46Q413 13 368 1T284 -12ZM152 -244L140 -178Q197 -175 218 -166T240 -136Q240 -122 226 -112T164 -96L214 4H312L284 -60Q323 -69 342 -86T362 -136Q362 -190 307 -215T152 -244Z" />
<glyph unicode="&#xe8;" glyph-name="egrave" horiz-adv-x="526" d="M290 -12Q217 -12 159 19T66 108T32 250Q32 331 66 389T156 480T272 512Q346 512 394 480T466 392T490 270Q490 248 488 228T483 198H198Q210 153 241 136T314 118Q362 118 416 148L472 46Q432
18 382 3T290 -12ZM196 310H344Q344 339 330 360T276 382Q248 382 226 365T196 310ZM250 572L60 730L176 844L334 656L250 572Z" />
<glyph unicode="&#xe9;" glyph-name="eacute" horiz-adv-x="526" d="M290 -12Q217 -12 159 19T66 108T32 250Q32 331 66 389T156 480T272 512Q346 512 394 480T466 392T490 270Q490 248 488 228T483 198H198Q210 153 241 136T314 118Q362 118 416 148L472 46Q432
18 382 3T290 -12ZM196 310H344Q344 339 330 360T276 382Q248 382 226 365T196 310ZM290 572L206 656L364 844L480 730L290 572Z" />
<glyph unicode="&#xea;" glyph-name="ecircumflex" horiz-adv-x="526" d="M290 -12Q217 -12 159 19T66 108T32 250Q32 331 66 389T156 480T272 512Q346 512 394 480T466 392T490 270Q490 248 488 228T483 198H198Q210 153 241 136T314 118Q362 118 416 148L472
46Q432 18 382 3T290 -12ZM196 310H344Q344 339 330 360T276 382Q248 382 226 365T196 310ZM76 618L182 746H358L464 618L400 558L272 642H268L140 558L76 618Z" />
<glyph unicode="&#xeb;" glyph-name="edieresis" horiz-adv-x="526" d="M290 -12Q217 -12 159 19T66 108T32 250Q32 331 66 389T156 480T272 512Q346 512 394 480T466 392T490 270Q490 248 488 228T483 198H198Q210 153 241 136T314 118Q362 118 416 148L472 46Q432
18 382 3T290 -12ZM196 310H344Q344 339 330 360T276 382Q248 382 226 365T196 310ZM156 562Q121 562 99 585T76 642Q76 676 98 699T156 722Q191 722 213 699T236 642Q236 608 214 585T156 562ZM384 562Q349 562 327 585T304 642Q304 676 326 699T384 722Q419 722
441 699T464 642Q464 608 442 585T384 562Z" />
<glyph unicode="&#xec;" glyph-name="igrave" horiz-adv-x="288" d="M58 0V500H230V0H58ZM124 572L-66 730L50 844L208 656L124 572Z" />
<glyph unicode="&#xed;" glyph-name="iacute" horiz-adv-x="288" d="M58 0V500H230V0H58ZM164 572L80 656L238 844L354 730L164 572Z" />
<glyph unicode="&#xee;" glyph-name="icircumflex" horiz-adv-x="288" d="M58 0V500H230V0H58ZM-50 618L56 746H232L338 618L274 558L146 642H142L14 558L-50 618Z" />
<glyph unicode="&#xef;" glyph-name="idieresis" horiz-adv-x="288" d="M58 0V500H230V0H58ZM30 562Q-5 562 -27 585T-50 642Q-50 676 -28 699T30 722Q65 722 87 699T110 642Q110 608 88 585T30 562ZM258 562Q223 562 201 585T178 642Q178 676 200 699T258 722Q293
722 315 699T338 642Q338 608 316 585T258 562Z" />
<glyph unicode="&#xf0;" glyph-name="eth" horiz-adv-x="566" d="M194 230Q194 178 220 152T280 126Q313 126 336 156T360 260Q360 271 360 280T359 299Q341 317 321 324T277 332Q243 332 219 309T194 230ZM274 -12Q210 -12 157 17T71 101T38 230Q38 303 67 354T143
431T240 458Q264 458 288 451T332 427Q307 488 258 536L116 465L72 539L183 595Q165 606 145 617T103 640L177 744Q212 726 247 706T315 661L458 733L502 658L386 600Q445 540 482 460T520 270Q520 189 491 126T406 25T274 -12Z" />
<glyph unicode="&#xf1;" glyph-name="ntilde" horiz-adv-x="582" d="M58 0V500H198L210 440H214Q244 469 282 490T372 512Q455 512 491 457T528 308V0H356V286Q356 334 344 350T306 366Q282 366 266 356T230 328V0H58ZM384 572Q354 572 331 586T291 614T260 628Q248
628 241 619T230 582L124 588Q126 673 161 709T256 746Q286 746 309 732T349 704T380 690Q392 690 399 699T410 736L516 730Q515 645 480 609T384 572Z" />
<glyph unicode="&#xf2;" glyph-name="ograve" horiz-adv-x="560" d="M280 -12Q216 -12 160 19T68 108T32 250Q32 333 67 391T159 481T280 512Q344 512 400 481T492 392T528 250Q528 167 493 109T401 19T280 -12ZM280 126Q319 126 335 159T352 250Q352 307 336
340T280 374Q241 374 225 341T208 250Q208 193 224 160T280 126ZM260 572L70 730L186 844L344 656L260 572Z" />
<glyph unicode="&#xf3;" glyph-name="oacute" horiz-adv-x="560" d="M280 -12Q216 -12 160 19T68 108T32 250Q32 333 67 391T159 481T280 512Q344 512 400 481T492 392T528 250Q528 167 493 109T401 19T280 -12ZM280 126Q319 126 335 159T352 250Q352 307 336
340T280 374Q241 374 225 341T208 250Q208 193 224 160T280 126ZM300 572L216 656L374 844L490 730L300 572Z" />
<glyph unicode="&#xf4;" glyph-name="ocircumflex" horiz-adv-x="560" d="M280 -12Q216 -12 160 19T68 108T32 250Q32 333 67 391T159 481T280 512Q344 512 400 481T492 392T528 250Q528 167 493 109T401 19T280 -12ZM280 126Q319 126 335 159T352 250Q352 307
336 340T280 374Q241 374 225 341T208 250Q208 193 224 160T280 126ZM86 618L192 746H368L474 618L410 558L282 642H278L150 558L86 618Z" />
<glyph unicode="&#xf5;" glyph-name="otilde" horiz-adv-x="560" d="M280 -12Q216 -12 160 19T68 108T32 250Q32 333 67 391T159 481T280 512Q344 512 400 481T492 392T528 250Q528 167 493 109T401 19T280 -12ZM280 126Q319 126 335 159T352 250Q352 307 336
340T280 374Q241 374 225 341T208 250Q208 193 224 160T280 126ZM344 572Q314 572 291 586T251 614T220 628Q208 628 201 619T190 582L84 588Q86 673 121 709T216 746Q246 746 269 732T309 704T340 690Q352 690 359 699T370 736L476 730Q475 645 440 609T344 572Z"
/>
<glyph unicode="&#xf6;" glyph-name="odieresis" horiz-adv-x="560" d="M280 -12Q216 -12 160 19T68 108T32 250Q32 333 67 391T159 481T280 512Q344 512 400 481T492 392T528 250Q528 167 493 109T401 19T280 -12ZM280 126Q319 126 335 159T352 250Q352 307 336
340T280 374Q241 374 225 341T208 250Q208 193 224 160T280 126ZM166 562Q131 562 109 585T86 642Q86 676 108 699T166 722Q201 722 223 699T246 642Q246 608 224 585T166 562ZM394 562Q359 562 337 585T314 642Q314 676 336 699T394 722Q429 722 451 699T474 642Q474
608 452 585T394 562Z" />
<glyph unicode="&#xf7;" glyph-name="divide" horiz-adv-x="540" d="M34 270V390H506V270H34ZM270 64Q231 64 205 88T178 150Q178 188 204 212T270 236Q309 236 335 212T362 150Q362 113 336 89T270 64ZM270 424Q231 424 205 448T178 510Q178 548 204 572T270
596Q309 596 335 572T362 510Q362 473 336 449T270 424Z" />
<glyph unicode="&#xf8;" glyph-name="oslash" horiz-adv-x="560" d="M198 260Q198 247 198 236T200 215L323 367Q306 380 280 380Q241 380 220 347T198 260ZM108 -26L46 22L90 77Q63 109 48 153T32 250Q32 333 67 391T159 481T280 512Q352 512 410 476L452 528L514
480L469 424Q496 392 512 348T528 250Q528 167 493 109T401 19T280 -12Q209 -12 149 25L108 -26ZM280 120Q319 120 340 153T362 240Q362 266 359 287L236 134Q253 120 280 120Z" />
<glyph unicode="&#xf9;" glyph-name="ugrave" horiz-adv-x="578" d="M210 -12Q128 -12 91 43T54 192V500H226V214Q226 166 238 150T276 134Q300 134 316 144T348 178V500H520V0H380L368 66H364Q334 30 298 9T210 -12ZM270 572L80 730L196 844L354 656L270 572Z" />
<glyph unicode="&#xfa;" glyph-name="uacute" horiz-adv-x="578" d="M210 -12Q128 -12 91 43T54 192V500H226V214Q226 166 238 150T276 134Q300 134 316 144T348 178V500H520V0H380L368 66H364Q334 30 298 9T210 -12ZM310 572L226 656L384 844L500 730L310 572Z" />
<glyph unicode="&#xfb;" glyph-name="ucircumflex" horiz-adv-x="578" d="M210 -12Q128 -12 91 43T54 192V500H226V214Q226 166 238 150T276 134Q300 134 316 144T348 178V500H520V0H380L368 66H364Q334 30 298 9T210 -12ZM96 618L202 746H378L484 618L420 558L292
642H288L160 558L96 618Z" />
<glyph unicode="&#xfc;" glyph-name="udieresis" horiz-adv-x="578" d="M210 -12Q128 -12 91 43T54 192V500H226V214Q226 166 238 150T276 134Q300 134 316 144T348 178V500H520V0H380L368 66H364Q334 30 298 9T210 -12ZM176 562Q141 562 119 585T96 642Q96 676
118 699T176 722Q211 722 233 699T256 642Q256 608 234 585T176 562ZM404 562Q369 562 347 585T324 642Q324 676 346 699T404 722Q439 722 461 699T484 642Q484 608 462 585T404 562Z" />
<glyph unicode="&#xfd;" glyph-name="yacute" horiz-adv-x="542" d="M132 -188Q107 -188 90 -185T56 -178L86 -48Q93 -49 102 -51T118 -54Q153 -54 171 -40T196 -4L202 18L12 500H184L244 308Q255 274 263 239T280 166H284Q292 202 299 237T316 308L366 500H530L362
8Q336 -59 307 -102T236 -167T132 -188ZM296 572L212 656L370 844L486 730L296 572Z" />
<glyph unicode="&#xfe;" glyph-name="thorn" horiz-adv-x="580" d="M58 -176V696H230V534L226 468Q275 512 340 512Q402 512 448 481T519 392T544 258Q544 172 514 112T437 20T336 -12Q300 -12 275 -1T226 32L230 -38V-176H58ZM294 128Q324 128 346 156T368 256Q368
318 351 345T298 372Q279 372 263 364T230 336V152Q245 139 261 134T294 128Z" />
<glyph unicode="&#xff;" glyph-name="ydieresis" horiz-adv-x="542" d="M132 -188Q107 -188 90 -185T56 -178L86 -48Q93 -49 102 -51T118 -54Q153 -54 171 -40T196 -4L202 18L12 500H184L244 308Q255 274 263 239T280 166H284Q292 202 299 237T316 308L366 500H530L362
8Q336 -59 307 -102T236 -167T132 -188ZM162 562Q127 562 105 585T82 642Q82 676 104 699T162 722Q197 722 219 699T242 642Q242 608 220 585T162 562ZM390 562Q355 562 333 585T310 642Q310 676 332 699T390 722Q425 722 447 699T470 642Q470 608 448 585T390
562Z" />
<glyph unicode="&#x2013;" glyph-name="endash" horiz-adv-x="480" d="M44 200V308H436V200H44Z" />
<glyph unicode="&#x2014;" glyph-name="emdash" horiz-adv-x="800" d="M44 200V308H756V200H44Z" />
<glyph unicode="&#x2018;" glyph-name="quoteleft" horiz-adv-x="320" d="M160 304Q108 304 81 342T54 450Q54 525 92 583T210 678L246 604Q198 583 174 552T150 477Q152 478 155 478T160 478Q196 478 221 456T246 396Q246 354 222 329T160 304Z" />
<glyph unicode="&#x2019;" glyph-name="quoteright" horiz-adv-x="320" d="M110 322L74 396Q122 417 146 448T170 523Q168 522 165 522T160 522Q124 522 99 544T74 604Q74 646 98 671T160 696Q213 696 239 658T266 550Q266 475 228 418T110 322Z" />
<glyph unicode="&#x201a;" glyph-name="quotesinglbase" horiz-adv-x="320" d="M110 -178L74 -104Q122 -83 146 -52T170 23Q168 22 165 22T160 22Q124 22 99 44T74 104Q74 146 98 171T160 196Q213 196 239 158T266 50Q266 -25 228 -82T110 -178Z" />
<glyph unicode="&#x201c;" glyph-name="quotedblleft" horiz-adv-x="580" d="M160 304Q108 304 81 342T54 450Q54 525 92 583T210 678L246 604Q198 583 174 552T150 477Q152 478 155 478T160 478Q196 478 221 456T246 396Q246 354 222 329T160 304ZM420 304Q368
304 341 342T314 450Q314 525 352 583T470 678L506 604Q458 583 434 552T410 477Q412 478 415 478T420 478Q456 478 481 456T506 396Q506 354 482 329T420 304Z" />
<glyph unicode="&#x201d;" glyph-name="quotedblright" horiz-adv-x="580" d="M110 322L74 396Q122 417 146 448T170 523Q168 522 165 522T160 522Q124 522 99 544T74 604Q74 646 98 671T160 696Q213 696 239 658T266 550Q266 475 228 418T110 322ZM370 322L334
396Q382 417 406 448T430 523Q428 522 425 522T420 522Q384 522 359 544T334 604Q334 646 358 671T420 696Q473 696 499 658T526 550Q526 475 488 418T370 322Z" />
<glyph unicode="&#x201e;" glyph-name="quotedblbase" horiz-adv-x="580" d="M110 -178L74 -104Q122 -83 146 -52T170 23Q168 22 165 22T160 22Q124 22 99 44T74 104Q74 146 98 171T160 196Q213 196 239 158T266 50Q266 -25 228 -82T110 -178ZM370 -178L334 -104Q382
-83 406 -52T430 23Q428 22 425 22T420 22Q384 22 359 44T334 104Q334 146 358 171T420 196Q473 196 499 158T526 50Q526 -25 488 -82T370 -178Z" />
<glyph unicode="&#x2022;" glyph-name="bullet" horiz-adv-x="360" d="M180 116Q140 116 109 135T59 188T40 262Q40 303 58 336T108 388T180 408Q220 408 251 389T301 336T320 262Q320 221 302 188T252 136T180 116Z" />
<glyph unicode="&#x2039;" glyph-name="guilsinglleft" horiz-adv-x="300" d="M184 52L50 192V312L184 452L246 402L138 252L246 102L184 52Z" />
<glyph unicode="&#x203a;" glyph-name="guilsinglright" horiz-adv-x="300" d="M116 52L54 102L162 252L54 402L116 452L250 312V192L116 52Z" />
</font>
</defs>
</svg>
