<?xml version="1.0" standalone="no"?>
<!DOCTYPE svg PUBLIC "-//W3C//DTD SVG 1.1//EN" "http://www.w3.org/Graphics/SVG/1.1/DTD/svg11.dtd">
<svg xmlns="http://www.w3.org/2000/svg">
<defs >
<font id="SourceSansPro" horiz-adv-x="495" ><font-face
    font-family="Source Sans Pro SemiBold"
    units-per-em="1000"
    panose-1="2 11 6 3 3 4 3 9 2 4"
    ascent="984"
    descent="-273"
    alphabetic="0" />
<glyph unicode=" " glyph-name="space" horiz-adv-x="200" />
<glyph unicode="!" glyph-name="exclam" horiz-adv-x="307" d="M109 212L182 671H289L265 561L181 212H109ZM104 -12Q77 -12 61 5T44 50Q44 82 67 109T127 136Q154 136 170 118T186 73Q186 41 163 15T104 -12Z" />
<glyph unicode="&quot;" glyph-name="quotedbl" horiz-adv-x="460" d="M124 394L146 561L163 671H269L245 561L196 394H124ZM317 394L339 561L356 671H462L438 561L389 394H317Z" />
<glyph unicode="#" glyph-name="numbersign" horiz-adv-x="493" d="M36 0L98 196H21L38 269H120L161 401H83L101 474H184L240 650H307L251 474H363L419 650H486L430 474H507L489 401H407L366 269H444L427 196H343L281 0H215L277 196H164L102 0H36ZM187 269H300L341
401H228L187 269Z" />
<glyph unicode="$" glyph-name="dollar" horiz-adv-x="494" d="M138 -110L159 -7Q116 3 78 27T11 85L78 151Q101 121 134 98T210 75Q258 75 286 101T315 171Q315 209 294 236T242 287T181 335T129 392T108 469Q108 546 158 596T289 653L308 752H382L362 647Q397
637 427 616T481 564L412 503Q393 531 365 549T306 567Q265 567 240 544T214 482Q214 449 235 425T286 379T348 332T400 271T421 186Q421 133 398 91T332 21T232 -11L212 -110H138Z" />
<glyph unicode="%" glyph-name="percent" horiz-adv-x="810" d="M188 258Q130 258 94 301T57 414Q57 480 79 539T144 635T244 672Q303 672 339 629T375 516Q375 450 353 391T288 295T188 258ZM194 324Q226 324 248 351T283 421T296 513Q296 554 283 580T238 606Q207
606 184 579T149 509T136 417Q136 376 149 350T194 324ZM138 -12L617 672H683L204 -12H138ZM586 -12Q528 -12 492 31T455 144Q455 210 477 269T542 365T642 402Q701 402 737 359T773 246Q773 180 751 121T686 25T586 -12ZM592 54Q624 54 646 81T681 151T694 243Q694
284 681 310T636 336Q605 336 582 309T547 239T534 147Q534 106 547 80T592 54Z" />
<glyph unicode="&amp;" glyph-name="ampersand" horiz-adv-x="608" d="M245 476Q245 460 247 442T255 407Q305 436 340 468T376 546Q376 566 366 579T333 593Q297 593 271 561T245 476ZM190 -12Q109 -12 62 31T15 146Q15 200 37 239T96 308T173 361Q164 390 159
418T154 472Q154 527 179 571T247 640T340 666Q399 666 430 633T461 547Q461 497 435 459T368 390T283 333Q304 290 333 250T397 176Q434 216 462 262T512 360H610Q580 296 543 236T458 123Q484 104 510 92T557 73L514 -12Q448 5 385 55Q342 24 294 6T190 -12ZM119
158Q119 119 144 95T210 70Q267 70 325 110Q252 186 204 282Q167 256 143 226T119 158Z" />
<glyph unicode="&apos;" glyph-name="quotesingle" horiz-adv-x="267" d="M124 394L146 561L163 671H269L245 561L196 394H124Z" />
<glyph unicode="(" glyph-name="parenleft" horiz-adv-x="310" d="M118 -178Q95 -114 78 -32T60 132Q60 248 87 349T167 543T294 732L357 699Q251 562 200 419T148 123Q148 79 152 30T165 -66T188 -150L118 -178Z" />
<glyph unicode=")" glyph-name="parenright" horiz-adv-x="312" d="M24 -178L-38 -144Q67 -7 118 137T170 432Q170 477 166 526T154 621T131 705L200 732Q224 669 241 587T258 423Q258 307 231 206T152 11T24 -178Z" />
<glyph unicode="*" glyph-name="asterisk" horiz-adv-x="421" d="M174 399L132 438L204 532L113 584L138 636L240 603L269 713L327 709L319 596L427 610L436 554L329 519L367 417L315 387L258 478L174 399Z" />
<glyph unicode="+" glyph-name="plus" horiz-adv-x="494" d="M218 99V292H48V369H220V559H300V369H472V292H299V99H218Z" />
<glyph unicode="," glyph-name="comma" horiz-adv-x="267" d="M-16 -176L-29 -115Q24 -98 54 -68T92 -2Q64 -2 45 14T26 58Q26 88 47 112T104 136Q138 136 156 114T174 54Q174 -30 122 -92T-16 -176Z" />
<glyph unicode="-" glyph-name="hyphen" horiz-adv-x="310" d="M34 213L50 292H277L260 213H34Z" />
<glyph unicode="." glyph-name="period" horiz-adv-x="267" d="M82 -12Q55 -12 39 5T23 50Q23 82 46 109T106 136Q133 136 148 118T164 73Q164 41 142 15T82 -12Z" />
<glyph unicode="/" glyph-name="slash" horiz-adv-x="334" d="M-70 -160L332 710H406L2 -160H-70Z" />
<glyph unicode="0" glyph-name="zero" horiz-adv-x="494" d="M209 -12Q132 -12 86 47T40 210Q40 308 62 388T124 527T211 616T312 648Q388 648 433 588T479 424Q479 327 457 247T396 109T310 20T209 -12ZM215 72Q248 72 277 102T330 183T366 298T380 432Q380 495
362 530T305 565Q272 565 243 535T190 453T154 336T140 202Q140 140 159 106T215 72Z" />
<glyph unicode="1" glyph-name="one" horiz-adv-x="494" d="M22 0L40 87H175L262 517H147L161 585Q208 593 244 605T312 636H393L282 87H405L388 0H22Z" />
<glyph unicode="2" glyph-name="two" horiz-adv-x="494" d="M-12 0L0 62Q115 159 195 229T318 356T361 472Q361 511 339 536T271 562Q242 562 213 547T154 505L101 569Q146 607 191 627T284 648Q370 648 418 603T466 484Q466 417 432 359T332 238T172 91H416L399 0H-12Z" />
<glyph unicode="3" glyph-name="three" horiz-adv-x="494" d="M194 -12Q133 -12 79 18T-12 100L56 156Q81 122 116 99T194 75Q254 75 290 106T327 186Q327 232 291 260T156 288L172 366Q245 366 286 383T345 426T362 481Q362 517 340 539T273 562Q219 562 160
517L107 587Q151 619 197 633T292 648Q375 648 423 608T471 499Q471 438 437 394T329 327V323Q381 304 407 269T434 187Q434 125 403 80T318 12T194 -12Z" />
<glyph unicode="4" glyph-name="four" horiz-adv-x="494" d="M352 0H254L287 165H12L26 239L355 636H479L402 249H480L463 165H385L352 0ZM137 249H303L333 400Q340 432 349 466T365 534H361Q342 506 322 478T282 424L137 249Z" />
<glyph unicode="5" glyph-name="five" horiz-adv-x="494" d="M197 -12Q135 -12 85 17T-2 99L67 155Q90 121 121 98T200 75Q236 75 267 92T318 143T337 220Q337 273 310 299T236 325Q208 325 188 318T136 294L94 328L173 636H494L476 546H248L205 390Q221 398 238
402T277 406Q349 406 397 364T445 238Q445 161 410 105T318 19T197 -12Z" />
<glyph unicode="6" glyph-name="six" horiz-adv-x="494" d="M151 201Q151 140 176 105T244 69Q278 69 303 91T342 146T356 213Q356 260 334 287T271 315Q249 315 217 301T152 245Q151 235 151 224T151 201ZM238 -12Q181 -12 139 16T74 94T51 209Q51 339 91 438T200
592T359 648Q415 648 452 622T509 564L439 507Q424 533 403 547T352 561Q287 561 234 500T161 325Q192 358 230 374T298 391Q367 391 411 349T455 225Q455 163 427 109T350 22T238 -12Z" />
<glyph unicode="7" glyph-name="seven" horiz-adv-x="494" d="M110 0Q139 115 176 211T266 389T394 546H100L118 636H533L519 568Q421 477 364 385T275 197T221 0H110Z" />
<glyph unicode="8" glyph-name="eight" horiz-adv-x="494" d="M228 -12Q182 -12 137 5T63 59T33 153Q33 199 53 235T106 297T178 339V343Q150 372 135 402T120 470Q120 526 147 566T220 627T320 648Q362 648 400 633T463 585T488 501Q488 440 455 397T368 324V320Q400
298 426 262T453 176Q453 118 422 76T340 11T228 -12ZM316 355Q347 378 371 410T396 486Q396 525 374 548T312 571Q274 571 245 546T215 475Q215 432 241 406T316 355ZM235 64Q266 64 293 76T337 113T354 173Q354 204 337 226T290 267T224 306Q184 281 157 247T129
164Q129 120 159 92T235 64Z" />
<glyph unicode="9" glyph-name="nine" horiz-adv-x="494" d="M166 423Q166 376 187 349T250 321Q273 321 304 336T370 393Q371 404 371 414T371 435Q371 496 346 531T278 567Q245 567 220 545T180 490T166 423ZM162 -12Q106 -12 70 14T13 72L82 129Q98 104 119
90T169 75Q234 75 287 137T361 312Q331 278 292 262T223 245Q154 245 111 287T67 411Q67 473 95 527T172 614T283 648Q341 648 383 620T448 542T471 427Q471 330 448 249T384 110T286 20T162 -12Z" />
<glyph unicode=":" glyph-name="colon" horiz-adv-x="267" d="M142 339Q115 339 99 356T83 401Q83 433 106 460T166 487Q193 487 208 469T224 424Q224 392 202 366T142 339ZM82 -12Q55 -12 39 5T23 50Q23 82 46 109T106 136Q133 136 148 118T164 73Q164 41 142
15T82 -12Z" />
<glyph unicode=";" glyph-name="semicolon" horiz-adv-x="267" d="M142 339Q115 339 99 356T83 401Q83 433 106 460T166 487Q193 487 208 469T224 424Q224 392 202 366T142 339ZM-16 -176L-29 -115Q24 -98 54 -68T92 -2Q64 -2 45 14T26 58Q26 88 47 112T104 136Q138
136 156 114T174 54Q174 -30 122 -92T-16 -176Z" />
<glyph unicode="&lt;" glyph-name="less" horiz-adv-x="494" d="M472 121L46 292V369L472 540V451L285 381L158 333V329L285 282L472 212V121Z" />
<glyph unicode="=" glyph-name="equal" horiz-adv-x="494" d="M48 403V480H472V403H48ZM48 436V513H472V436H48Z" />
<glyph unicode="&gt;" glyph-name="greater" horiz-adv-x="494" d="M48 121V212L235 282L362 329V333L235 381L48 451V540L474 369V292L48 121Z" />
<glyph unicode="?" glyph-name="question" horiz-adv-x="427" d="M145 217Q149 266 169 301T216 363T270 413T315 462T333 520Q333 555 313 575T258 595Q234 595 211 583T168 550L112 612Q144 644 185 663T271 682Q347 682 392 644T438 537Q438 489 420 455T373
394T315 341T264 283T237 209L145 217ZM151 -12Q124 -12 108 5T92 50Q92 82 115 109T175 136Q202 136 217 118T233 73Q233 41 211 15T151 -12Z" />
<glyph unicode="@" glyph-name="at" horiz-adv-x="840" d="M366 -162Q278 -162 205 -125T88 -16T44 163Q44 268 80 357T180 513T323 617T492 655Q591 655 661 615T767 507T804 353Q804 251 773 182T690 78T579 43Q544 43 518 62T484 118H481Q460 90 430 71T368
52Q319 52 284 89T248 192Q248 238 263 281T306 358T370 413T447 434Q494 434 518 385H520L535 426H602L552 207Q542 163 552 138T599 112Q629 112 659 138T711 215T732 341Q732 409 707 465T627 555T482 589Q416 589 352 558T236 470T152 339T120 176Q120 87 156
27T250 -63T375 -94Q443 -94 502 -59L532 -119Q450 -162 366 -162ZM389 122Q408 122 427 135T466 177L500 326Q490 347 477 355T449 364Q415 364 388 338T346 274T330 200Q330 161 346 142T389 122Z" />
<glyph unicode="A" glyph-name="A" horiz-adv-x="529" d="M241 365L192 266H359L352 365Q349 415 346 465T340 568H336Q312 515 290 466T241 365ZM-58 0L292 654H420L490 0H378L365 184H152L61 0H-58Z" />
<glyph unicode="B" glyph-name="B" horiz-adv-x="594" d="M32 0L162 654H350Q446 654 503 618T561 507Q561 466 542 433T490 377T417 344L416 340Q469 327 500 296T532 212Q532 137 495 91T396 22T255 0H32ZM215 380H295Q375 380 413 410T451 490Q451 528 421
549T328 570H254L215 380ZM156 84H255Q336 84 382 114T428 207Q428 252 396 278T301 304H200L156 84Z" />
<glyph unicode="C" glyph-name="C" horiz-adv-x="559" d="M297 -12Q222 -12 168 21T86 114T57 257Q57 338 82 411T153 542T262 633T400 666Q456 666 498 639T567 566L493 509Q474 539 450 556T394 573Q344 573 303 547T231 476T184 377T167 265Q167 183 203 132T318
81Q353 81 384 96T443 135L490 66Q457 37 409 13T297 -12Z" />
<glyph unicode="D" glyph-name="D" horiz-adv-x="604" d="M32 0L162 654H295Q432 654 505 589T578 398Q578 274 534 185T410 48T222 0H32ZM157 87H220Q294 87 349 123T436 227T468 391Q468 478 422 522T292 567H252L157 87Z" />
<glyph unicode="E" glyph-name="E" horiz-adv-x="515" d="M32 0L162 654H537L519 563H251L216 387H443L425 296H199L157 91H433L415 0H32Z" />
<glyph unicode="F" glyph-name="F" horiz-adv-x="489" d="M32 0L162 654H537L519 563H251L213 370H440L422 279H196L140 0H32Z" />
<glyph unicode="G" glyph-name="G" horiz-adv-x="600" d="M307 -12Q188 -12 123 60T57 257Q57 338 82 412T155 543T266 633T410 666Q471 666 514 639T583 566L509 509Q490 539 465 556T404 573Q351 573 308 547T233 476T184 377T167 265Q167 184 203 132T325 80Q353
80 376 89T416 111L448 265H327L344 353H561L502 55Q466 26 416 7T307 -12Z" />
<glyph unicode="H" glyph-name="H" horiz-adv-x="638" d="M32 0L162 654H270L216 389H475L528 654H636L505 0H397L457 295H198L140 0H32Z" />
<glyph unicode="I" glyph-name="I" horiz-adv-x="273" d="M32 0L162 654H270L140 0H32Z" />
<glyph unicode="J" glyph-name="J" horiz-adv-x="474" d="M168 -12Q110 -12 65 15T-5 88L63 151Q77 120 104 101T168 81Q212 81 240 114T281 211L369 654H477L385 194Q374 136 347 90T276 16T168 -12Z" />
<glyph unicode="K" glyph-name="K" horiz-adv-x="582" d="M32 0L162 654H270L211 358H215L501 654H620L379 394L526 0H414L299 326L181 206L140 0H32Z" />
<glyph unicode="L" glyph-name="L" horiz-adv-x="481" d="M32 0L162 654H270L158 91H419L401 0H32Z" />
<glyph unicode="M" glyph-name="M" horiz-adv-x="723" d="M32 0L162 654H282L334 327L353 201H357L422 327L602 654H721L590 0H488L553 314Q563 361 578 417T606 519H603L523 371L350 64H300L246 371L225 519H221Q216 473 210 417T194 314L131 0H32Z" />
<glyph unicode="N" glyph-name="N" horiz-adv-x="631" d="M32 0L162 654H268L396 275L434 134H438Q444 184 450 244T467 357L526 654H630L499 0H394L267 378L229 521H225Q219 469 212 411T194 300L135 0H32Z" />
<glyph unicode="O" glyph-name="O" horiz-adv-x="647" d="M294 -12Q184 -12 121 62T58 263Q58 344 83 416T152 545T256 634T384 666Q495 666 557 592T620 391Q620 310 595 238T526 109T422 20T294 -12ZM300 81Q344 81 382 106T448 175T493 272T510 383Q510 470
477 521T378 573Q335 573 297 548T230 479T185 382T169 271Q169 184 201 133T300 81Z" />
<glyph unicode="P" glyph-name="P" horiz-adv-x="567" d="M32 0L162 654H358Q421 654 469 638T545 584T573 487Q573 402 534 349T429 270T279 245H188L140 0H32ZM206 331H288Q374 331 420 366T466 472Q466 522 433 545T338 568H252L206 331Z" />
<glyph unicode="Q" glyph-name="Q" horiz-adv-x="647" d="M300 78Q344 78 382 103T448 171T493 269T510 383Q510 470 477 521T378 573Q335 573 297 548T230 479T185 382T169 271Q169 180 201 129T300 78ZM471 -169Q380 -169 315 -128T220 -2Q144 21 101 90T58
263Q58 344 83 416T152 545T256 634T384 666Q495 666 557 592T620 391Q620 316 599 248T538 125T447 35T332 -9Q352 -46 391 -63T478 -81Q495 -81 509 -79T538 -73L544 -156Q508 -169 471 -169Z" />
<glyph unicode="R" glyph-name="R" horiz-adv-x="576" d="M32 0L162 654H355Q418 654 466 638T541 587T569 494Q569 403 518 348T390 271L498 0H383L288 258H191L140 0H32ZM209 344H292Q375 344 418 381T462 479Q462 526 430 547T334 568H252L209 344Z" />
<glyph unicode="S" glyph-name="S" horiz-adv-x="518" d="M234 -12Q169 -12 111 16T8 107L86 167Q115 127 155 104T243 80Q294 80 327 106T360 179Q360 210 339 230T281 273L212 315Q169 341 141 378T113 474Q113 527 141 570T219 640T330 666Q389 666 438 640T522
570L453 507Q428 535 397 554T324 573Q277 573 251 546T224 485Q224 454 247 434T307 391L377 349Q424 321 448 286T472 194Q472 136 442 89T359 15T234 -12Z" />
<glyph unicode="T" glyph-name="T" horiz-adv-x="521" d="M157 0L269 562H88L106 654H576L558 562H377L265 0H157Z" />
<glyph unicode="U" glyph-name="U" horiz-adv-x="630" d="M297 -12Q189 -12 133 42T77 205Q77 227 81 253T89 304L159 654H267L194 288Q185 246 185 211Q185 148 212 115T301 81Q353 81 391 123T448 264L526 654H632L553 264Q524 118 459 53T297 -12Z" />
<glyph unicode="V" glyph-name="V" horiz-adv-x="526" d="M138 0L80 654H192L214 312Q217 260 220 206T225 99H229Q253 152 277 206T326 312L490 654H607L268 0H138Z" />
<glyph unicode="W" glyph-name="W" horiz-adv-x="775" d="M86 0L102 654H212L197 318Q193 266 190 213T182 106H186Q208 159 231 212T275 318L424 654H517L523 318Q523 213 520 106H524Q543 159 563 212T602 318L728 654H832L570 0H434L432 356Q432 390 434 430T438
509H434Q421 471 405 433T373 356L220 0H86Z" />
<glyph unicode="X" glyph-name="X" horiz-adv-x="524" d="M-36 0L211 338L106 654H225L269 502Q275 480 281 456T294 404H298Q315 431 331 456T362 504L461 654H576L342 332L456 0H337L289 163Q282 188 275 213T260 266H257Q238 238 221 212T188 160L79 0H-36Z" />
<glyph unicode="Y" glyph-name="Y" horiz-adv-x="486" d="M138 0L187 246L82 654H193L230 482Q238 445 244 411T258 338H262Q302 410 347 483L454 654H570L295 246L246 0H138Z" />
<glyph unicode="Z" glyph-name="Z" horiz-adv-x="519" d="M-3 0L11 65L401 563H123L141 654H548L535 589L148 91H454L435 0H-3Z" />
<glyph unicode="[" glyph-name="bracketleft" horiz-adv-x="311" d="M2 -152L174 708H359L349 649H243L95 -93H200L187 -152H2Z" />
<glyph unicode="\" glyph-name="backslash" horiz-adv-x="334" d="M182 -160L86 710H157L254 -160H182Z" />
<glyph unicode="]" glyph-name="bracketright" horiz-adv-x="311" d="M-39 -152L-26 -93H78L227 649H122L133 708H319L147 -152H-39Z" />
<glyph unicode="^" glyph-name="asciicircum" horiz-adv-x="493" d="M78 279L225 670H310L458 279H370L315 435L270 569H267L222 435L167 279H78Z" />
<glyph unicode="_" glyph-name="underscore" horiz-adv-x="482" d="M-42 -131L-28 -67H428L415 -131H-42Z" />
<glyph unicode="`" glyph-name="grave" horiz-adv-x="526" d="M366 569L223 737L315 806L432 621L366 569Z" />
<glyph unicode="a" glyph-name="a" horiz-adv-x="544" d="M175 -12Q111 -12 73 34T35 167Q35 238 57 299T116 405T200 477T299 503Q335 503 365 485T412 434H414L435 491H521L423 0H335L340 68H337Q303 32 260 10T175 -12ZM219 76Q251 76 284 95T348 159L388 355Q372
387 350 401T305 415Q264 415 228 383T169 298T146 182Q146 128 165 102T219 76Z" />
<glyph unicode="b" glyph-name="b" horiz-adv-x="545" d="M245 -12Q208 -12 180 7T134 57H132L111 0H22L164 706H271L236 532L212 438H214Q249 466 288 484T368 503Q433 503 470 457T508 324Q508 254 486 193T427 86T343 14T245 -12ZM238 76Q280 76 316 108T375
193T398 310Q398 363 378 389T324 415Q296 415 262 398T199 344L157 136Q173 105 194 91T238 76Z" />
<glyph unicode="c" glyph-name="c" horiz-adv-x="439" d="M220 -12Q139 -12 86 40T33 188Q33 254 55 311T117 411T207 479T315 503Q360 503 392 485T444 443L384 378Q367 398 350 407T308 416Q264 416 227 386T166 304T143 192Q143 137 168 106T242 75Q271 75
293 86T335 113L381 45Q353 25 315 7T220 -12Z" />
<glyph unicode="d" glyph-name="d" horiz-adv-x="540" d="M175 -12Q111 -12 73 34T35 167Q35 238 57 299T116 405T200 477T299 503Q335 503 363 485T407 438H410L424 532L458 706H565L423 0H335L340 68H337Q303 32 260 10T175 -12ZM219 76Q251 76 284 95T348 159L388
355Q372 387 350 401T305 415Q264 415 228 383T169 298T146 182Q146 128 165 102T219 76Z" />
<glyph unicode="e" glyph-name="e" horiz-adv-x="488" d="M230 -12Q142 -12 88 42T33 196Q33 265 56 321T119 418T205 481T301 503Q358 503 392 479T441 414T457 322Q457 291 450 262T437 220H137Q131 167 146 134T191 86T258 70Q284 70 311 82T358 109L398 40Q368
19 326 4T230 -12ZM146 288H363Q365 298 366 308T368 329Q368 365 351 392T288 420Q244 420 204 385T146 288Z" />
<glyph unicode="f" glyph-name="f" horiz-adv-x="305" d="M40 0L121 406H58L74 486L139 491L150 548Q165 623 207 670T323 718Q351 718 375 711T420 693L384 617Q375 622 362 627T333 632Q273 632 257 551L245 491H338L321 406H227L147 0H40Z" />
<glyph unicode="g" glyph-name="g" horiz-adv-x="538" d="M174 -211Q128 -211 83 -193T-2 -143L46 -70Q74 -93 107 -109T178 -125Q231 -125 265 -94T313 -8L338 87Q303 51 263 31T178 10Q116 10 76 53T35 183Q35 250 56 308T114 410T197 478T293 503Q329 503 358
485T404 434H407L428 491H515L415 -7Q395 -109 333 -160T174 -211ZM217 99Q246 99 281 116T344 173L381 355Q364 387 343 401T299 415Q259 415 224 385T168 306T146 197Q146 148 165 124T217 99Z" />
<glyph unicode="h" glyph-name="h" horiz-adv-x="535" d="M22 0L164 706H271L228 498L209 427H213Q251 459 291 481T375 503Q437 503 464 471T491 379Q491 362 490 346T483 310L421 0H314L374 296Q377 313 379 325T382 348Q382 411 320 411Q295 411 265 393T196
335L130 0H22Z" />
<glyph unicode="i" glyph-name="i" horiz-adv-x="251" d="M22 0L121 491H228L130 0H22ZM199 578Q175 578 156 592T137 634Q137 663 158 683T209 704Q233 704 252 690T271 648Q271 618 250 598T199 578Z" />
<glyph unicode="j" glyph-name="j" horiz-adv-x="252" d="M-42 -206Q-88 -206 -128 -186L-94 -108Q-74 -120 -50 -120Q-23 -120 -9 -99T16 -36L122 491H229L123 -38Q107 -111 70 -158T-42 -206ZM196 578Q172 578 153 592T134 634Q134 663 155 683T206 704Q230
704 249 690T268 648Q268 618 247 598T196 578Z" />
<glyph unicode="k" glyph-name="k" horiz-adv-x="501" d="M22 0L164 706H271L182 262H186L403 491H523L325 281L442 0H334L250 218L154 121L130 0H22Z" />
<glyph unicode="l" glyph-name="l" horiz-adv-x="262" d="M123 -12Q80 -12 60 9T40 68Q40 91 47 120L164 706H271L153 115Q152 108 152 104T151 96Q151 75 168 75Q173 75 176 75T186 78L184 -2Q173 -6 158 -9T123 -12Z" />
<glyph unicode="m" glyph-name="m" horiz-adv-x="813" d="M22 0L121 491H208L204 422H208Q245 455 285 479T366 503Q423 503 448 478T480 412Q524 453 567 478T650 503Q711 503 738 471T766 379Q766 362 764 346T758 310L696 0H588L648 296Q652 313 654 325T656
348Q656 411 596 411Q577 411 547 393T479 335L412 0H305L364 296Q368 313 370 325T372 348Q372 411 313 411Q294 411 264 393T196 335L130 0H22Z" />
<glyph unicode="n" glyph-name="n" horiz-adv-x="539" d="M22 0L121 491H208L204 422H208Q246 455 287 479T375 503Q437 503 464 471T491 379Q491 362 490 346T483 310L421 0H314L374 296Q377 313 379 325T382 348Q382 411 320 411Q295 411 265 393T196 335L130 0H22Z" />
<glyph unicode="o" glyph-name="o" horiz-adv-x="524" d="M217 -12Q135 -12 85 42T34 188Q34 259 57 316T119 416T206 480T304 503Q387 503 437 449T488 303Q488 233 465 175T403 75T316 11T217 -12ZM229 75Q268 75 302 105T358 186T379 300Q379 356 357 386T293
416Q254 416 220 386T164 306T142 192Q142 137 164 106T229 75Z" />
<glyph unicode="p" glyph-name="p" horiz-adv-x="544" d="M-17 -194L121 491H208L206 431H209Q244 462 285 482T368 503Q433 503 470 457T508 324Q508 254 486 193T427 86T343 14T245 -12Q211 -12 183 6T136 52H134L118 -48L90 -194H-17ZM238 76Q280 76 316 108T375
193T398 310Q398 363 378 389T324 415Q296 415 262 398T199 344L157 134Q173 103 194 90T238 76Z" />
<glyph unicode="q" glyph-name="q" horiz-adv-x="544" d="M276 -194L306 -48L340 69H338Q303 32 260 10T175 -12Q111 -12 73 34T35 167Q35 238 57 299T116 405T200 477T299 503Q335 503 365 485T412 434H414L435 491H521L384 -194H276ZM219 76Q251 76 284 95T348
159L388 355Q372 387 350 401T305 415Q264 415 228 383T169 298T146 182Q146 128 165 102T219 76Z" />
<glyph unicode="r" glyph-name="r" horiz-adv-x="363" d="M22 0L121 491H208L200 396H204Q233 442 271 472T354 503Q384 503 403 494L367 400Q358 405 346 406T321 408Q287 408 253 381T188 297L130 0H22Z" />
<glyph unicode="s" glyph-name="s" horiz-adv-x="413" d="M166 -12Q120 -12 71 13T-6 82L58 134Q82 103 111 86T174 68Q209 68 234 86T260 132Q260 155 239 172T168 217Q125 241 96 273T67 350Q67 395 91 429T155 483T243 503Q292 503 331 484T399 432L338 376Q320
396 296 409T242 422Q209 422 189 404T168 360Q168 334 194 318T252 283Q305 254 333 224T361 145Q361 98 336 63T266 8T166 -12Z" />
<glyph unicode="t" glyph-name="t" horiz-adv-x="346" d="M194 -12Q125 -12 96 22T66 108Q66 123 68 137T72 166L122 406H53L69 486L144 491L183 623H273L247 491H365L348 406H228L178 162Q175 144 175 127Q175 100 188 87T232 73Q245 73 256 77T278 86L298 10Q280
3 254 -4T194 -12Z" />
<glyph unicode="u" glyph-name="u" horiz-adv-x="537" d="M164 -12Q103 -12 75 21T47 112Q47 129 49 145T55 181L117 491H224L165 195Q161 178 159 166T157 143Q157 80 218 80Q267 80 339 156L405 491H512L415 0H328L332 70H328Q291 37 250 13T164 -12Z" />
<glyph unicode="v" glyph-name="v" horiz-adv-x="474" d="M126 0L59 491H166L192 230Q196 193 198 156T202 81H206Q223 119 240 156T275 230L402 491H508L252 0H126Z" />
<glyph unicode="w" glyph-name="w" horiz-adv-x="728" d="M100 0L71 491H177L185 228Q186 193 185 158T184 87H188Q202 123 215 158T245 228L359 491H457L470 228Q471 193 471 158T472 87H476Q490 123 502 158T530 228L639 491H739L523 0H395L386 236Q386 271
386 307T385 381H381Q367 344 354 308T326 236L225 0H100Z" />
<glyph unicode="x" glyph-name="x" horiz-adv-x="460" d="M-42 0L172 262L83 491H192L228 394Q235 372 241 353T254 312H258Q272 332 287 352T315 394L383 491H498L301 238L396 0H286L249 100Q242 122 234 144T217 188H213Q199 167 184 146T151 101L74 0H-42Z" />
<glyph unicode="y" glyph-name="y" horiz-adv-x="474" d="M15 -202Q3 -202 -15 -197T-48 -184L-14 -106Q3 -116 22 -116Q54 -116 83 -91T132 -25L147 5L62 491H169L200 243Q204 210 207 171T212 96H216Q233 131 250 170T285 243L407 491H511L235 -26Q189 -106
139 -154T15 -202Z" />
<glyph unicode="z" glyph-name="z" horiz-adv-x="427" d="M-10 0L2 61L294 406H94L111 491H446L434 429L141 85H372L355 0H-10Z" />
<glyph unicode="{" glyph-name="braceleft" horiz-adv-x="309" d="M138 -152Q89 -152 68 -132T46 -68Q46 -39 54 -4T72 68T91 136T99 188Q99 209 85 227T29 246L43 310Q94 312 115 336T141 389Q150 436 154 476T169 569Q185 649 215 678T309 708H364L351 649H329Q294
649 278 629T254 564Q246 523 240 481T225 393Q214 340 193 313T134 277L133 273Q183 259 183 207Q183 181 176 147T159 76T142 6T134 -49Q134 -71 144 -82T183 -93H203L191 -152H138Z" />
<glyph unicode="|" glyph-name="bar" horiz-adv-x="243" d="M92 -250V750H161V-250H92Z" />
<glyph unicode="}" glyph-name="braceright" horiz-adv-x="312" d="M-45 -152L-32 -93H-10Q25 -93 41 -74T65 -9Q73 32 79 74T94 162Q105 216 126 243T185 279L186 283Q159 291 148 307T136 349Q136 375 143 409T160 479T177 549T185 604Q185 627 175 638T136
649H116L128 708H181Q231 708 252 687T273 624Q273 596 265 560T247 488T228 419T220 367Q220 347 234 330T290 310L276 246Q225 245 204 220T178 167Q169 120 165 79T150 -14Q134 -93 103 -122T10 -152H-45Z" />
<glyph unicode="~" glyph-name="asciitilde" horiz-adv-x="494" d="M337 253Q309 253 287 265T245 293T208 322T169 334Q128 334 98 276L42 313Q71 365 105 387T173 409Q201 409 223 397T265 369T302 340T341 328Q382 328 412 386L468 349Q440 297 406 275T337 253Z" />
<glyph unicode="&#xa0;" glyph-name="space" horiz-adv-x="200" />
<glyph unicode="&#xa1;" glyph-name="exclamdown" horiz-adv-x="307" d="M19 -180L43 -70L128 280H200L126 -180H19ZM181 355Q154 355 139 373T123 418Q123 450 145 476T205 503Q232 503 248 486T264 441Q264 410 241 383T181 355Z" />
<glyph unicode="&#xa2;" glyph-name="cent" horiz-adv-x="494" d="M208 -16L228 86Q158 96 117 148T75 287Q75 350 96 400T153 487T233 546T324 574L344 673H407L387 573Q424 567 450 548T498 505L434 445Q419 462 405 472T370 487L308 171Q335 174 358 184T402
210L436 139Q404 118 369 104T291 84L271 -16H208ZM180 304Q180 205 246 177L307 484Q255 470 218 422T180 304Z" />
<glyph unicode="&#xa3;" glyph-name="sterling" horiz-adv-x="494" d="M1 0L14 65Q82 97 118 151T155 274V276H59L74 349L149 354Q147 372 146 389T144 422Q144 491 173 542T252 620T364 648Q415 648 451 624T512 564L442 507Q426 532 406 546T358 561Q310 561
277 523T244 410Q244 397 245 383T248 354H399L384 276H253Q252 219 233 176T176 95V91H423L407 0H1Z" />
<glyph unicode="&#xa4;" glyph-name="currency" horiz-adv-x="494" d="M56 104L9 160L77 219Q62 252 62 295Q62 341 77 379T121 448L74 507L133 557L182 494Q208 509 236 517T294 526Q353 526 393 495L466 558L513 502L444 441Q459 410 459 366Q459 322 444 284T403
216L453 152L395 103L341 170Q289 135 227 135Q168 135 128 167L56 104ZM238 213Q269 213 296 231T342 283T360 357Q360 401 340 425T282 449Q252 449 224 431T178 380T160 305Q160 261 180 237T238 213Z" />
<glyph unicode="&#xa5;" glyph-name="yen" horiz-adv-x="494" d="M144 0L175 155H23L34 209H186L198 272H46L57 327H184L98 637H207L239 479Q245 446 251 413T265 345H268Q289 380 309 413T349 479L441 637H549L340 327H467L456 272H304L292 209H444L432 155H281L250
0H144Z" />
<glyph unicode="&#xa6;" glyph-name="brokenbar" horiz-adv-x="243" d="M92 299V750H161V299H92ZM92 -250V209H161V-250H92Z" />
<glyph unicode="&#xa7;" glyph-name="section" horiz-adv-x="491" d="M187 -70Q141 -70 94 -49T8 10L63 77Q88 51 122 31T193 11Q225 11 245 29T266 75Q266 101 245 120T191 158T127 197T74 250T52 326Q52 378 82 415T159 473Q142 501 142 533Q142 601 188 644T306
687Q352 687 393 666T467 611L410 550Q390 572 363 588T305 605Q280 605 260 590T240 545Q240 521 262 502T316 464T381 422T435 368T457 292Q457 236 430 200T352 141Q364 117 364 88Q364 42 342 6T279 -50T187 -70ZM145 339Q145 314 160 296T201 261T254 230T306
195Q333 207 348 226T363 279Q363 303 348 322T309 357T258 389T205 424Q179 412 162 392T145 339Z" />
<glyph unicode="&#xa8;" glyph-name="dieresis" horiz-adv-x="526" d="M238 580Q216 580 202 593T188 630Q188 656 206 675T251 695Q272 695 286 682T301 644Q301 617 283 599T238 580ZM436 580Q414 580 400 593T386 630Q386 656 404 675T449 695Q471 695 485
682T499 644Q499 617 481 599T436 580Z" />
<glyph unicode="&#xa9;" glyph-name="copyright" horiz-adv-x="668" d="M298 -10Q221 -10 161 25T67 124T33 268Q33 345 59 414T135 537T251 623T401 654Q479 654 538 619T632 521T666 377Q666 301 640 231T564 107T448 22T298 -10ZM302 41Q370 41 426 68T525
142T590 248T613 372Q613 438 588 490T515 573T397 604Q330 604 273 577T174 503T109 397T86 273Q86 208 111 155T185 72T302 41ZM328 126Q261 126 219 166T177 279Q177 333 196 376T247 451T317 498T392 514Q427 514 451 498T492 462L444 417Q417 448 382 448Q353
448 324 428T276 372T256 290Q256 243 280 218T344 192Q369 192 388 201T430 226L462 176Q431 152 399 139T328 126Z" />
<glyph unicode="&#xaa;" glyph-name="ordfeminine" horiz-adv-x="360" d="M175 377Q132 377 107 407T81 496Q81 558 106 608T172 688T258 718Q306 718 329 673H333L347 710H409L345 385H282L286 430H282Q260 405 232 391T175 377ZM205 440Q225 440 248 453T290
495L313 617Q303 637 290 646T262 655Q237 655 214 635T175 581T160 506Q160 472 173 456T205 440Z" />
<glyph unicode="&#xab;" glyph-name="guillemotleft" horiz-adv-x="437" d="M143 62L40 216L54 296L209 440L244 402L107 248L188 91L143 62ZM317 62L214 216L228 296L383 440L418 402L281 248L362 91L317 62Z" />
<glyph unicode="&#xac;" glyph-name="logicalnot" horiz-adv-x="494" d="M392 99V292H48V369H472V99H392Z" />
<glyph unicode="&#xad;" glyph-name="hyphen" horiz-adv-x="310" d="M34 213L50 292H277L260 213H34Z" />
<glyph unicode="&#xae;" glyph-name="registered" horiz-adv-x="425" d="M245 318Q200 318 162 340T100 401T77 490Q77 547 103 598T175 680T281 712Q326 712 364 690T425 629T449 539Q449 482 423 432T350 350T245 318ZM248 358Q293 358 328 382T384 447T405
535Q405 593 371 632T278 671Q233 671 198 647T142 582T121 494Q121 436 155 397T248 358ZM173 417L214 616H288Q317 616 335 601T353 558Q353 536 340 519T304 493L330 417H283L263 482H233L219 417H173ZM240 517H259Q280 517 291 527T303 553Q303 580 273 580H252L240
517Z" />
<glyph unicode="&#xaf;" glyph-name="overscore" horiz-adv-x="526" d="M200 597L214 668H483L470 597H200Z" />
<glyph unicode="&#xb0;" glyph-name="degree" horiz-adv-x="331" d="M214 418Q163 418 131 450T98 536Q98 577 117 611T169 665T239 685Q290 685 322 653T355 567Q355 526 336 492T284 438T214 418ZM218 473Q253 473 273 501T294 565Q294 592 279 611T235 630Q201
630 180 602T158 538Q158 511 174 492T218 473Z" />
<glyph unicode="&#xb1;" glyph-name="plusminus" horiz-adv-x="494" d="M218 142V313H48V391H220V559H300V391H472V313H299V142H218ZM48 0V78H472V0H48Z" />
<glyph unicode="&#xb2;" glyph-name="two.sups" horiz-adv-x="358" d="M71 385L79 432Q193 509 246 562T299 664Q299 689 286 703T243 717Q225 717 207 705T172 676L127 724Q157 753 187 770T257 787Q314 787 347 758T380 678Q380 620 336 568T211 453H351L338 385H71Z" />
<glyph unicode="&#xb3;" glyph-name="three.sups" horiz-adv-x="356" d="M212 373Q161 373 126 396T71 453L125 491Q139 467 158 453T206 438Q238 438 259 455T280 498Q280 524 259 541T184 559L195 610Q257 610 279 631T301 678Q301 698 287 710T249 723Q213
723 174 695L140 749Q172 770 202 778T266 787Q316 787 348 761T381 691Q381 613 296 583Q327 570 343 547T359 497Q359 458 339 430T286 388T212 373Z" />
<glyph unicode="&#xb4;" glyph-name="acute" horiz-adv-x="526" d="M309 579L261 640L438 800L503 717L309 579Z" />
<glyph unicode="&#xb5;" glyph-name="mu" horiz-adv-x="536" d="M-17 -186L118 491H225L166 195Q162 178 160 166T158 143Q158 80 219 80Q266 80 340 155L406 491H512L416 0H328L333 70H329Q301 38 268 16T202 -7Q177 -7 158 1T129 32L118 -40L90 -186H-17Z" />
<glyph unicode="&#xb6;" glyph-name="paragraph" horiz-adv-x="572" d="M307 -80L453 654H560L414 -80H307ZM289 213Q231 213 181 233T101 294T71 393Q71 461 94 510T158 591T248 638T354 654H400L312 213H289Z" />
<glyph unicode="&#xb7;" glyph-name="middot" horiz-adv-x="267" d="M136 254Q109 254 93 271T77 316Q77 348 100 375T160 402Q187 402 202 384T218 339Q218 307 196 281T136 254Z" />
<glyph unicode="&#xb8;" glyph-name="cedilla" horiz-adv-x="526" d="M79 -233L78 -184Q137 -181 163 -169T193 -134Q194 -117 180 -107T124 -92L187 3H257L216 -63Q252 -72 266 -88T278 -131Q272 -180 220 -205T79 -233Z" />
<glyph unicode="&#xb9;" glyph-name="one.sups" horiz-adv-x="366" d="M191 385L251 683H163L173 734Q214 740 238 749T287 775H349L273 385H191Z" />
<glyph unicode="&#xba;" glyph-name="ordmasculine" horiz-adv-x="353" d="M207 377Q152 377 117 412T82 510Q82 573 109 620T178 692T265 718Q320 718 355 683T390 585Q390 522 363 475T295 403T207 377ZM214 439Q242 439 264 458T299 511T312 583Q312 618 299
637T258 656Q231 656 209 637T174 585T160 512Q160 478 173 459T214 439Z" />
<glyph unicode="&#xbb;" glyph-name="guillemotright" horiz-adv-x="437" d="M60 62L25 100L162 254L80 411L126 440L229 286L214 206L60 62ZM234 62L199 100L336 254L254 411L300 440L403 286L388 206L234 62Z" />
<glyph unicode="&#xbc;" glyph-name="onequarter" horiz-adv-x="762" d="M140 270L200 568H112L122 619Q163 625 187 634T236 660H298L222 270H140ZM122 -12L601 672H667L188 -12H122ZM490 152H595L607 214L634 328H630L566 244L490 152ZM564 0L583 97H404L412
140L616 390H711L664 152H722L710 97H653L634 0H564Z" />
<glyph unicode="&#xbd;" glyph-name="onehalf" horiz-adv-x="793" d="M136 270L196 568H108L118 619Q159 625 183 634T232 660H294L218 270H136ZM104 -12L583 672H649L170 -12H104ZM432 0L440 47Q554 124 607 177T660 279Q660 304 647 318T604 332Q586 332 568
320T533 291L488 339Q518 368 548 385T618 402Q675 402 708 373T741 293Q741 235 697 183T572 68H712L699 0H432Z" />
<glyph unicode="&#xbe;" glyph-name="threequarters" horiz-adv-x="776" d="M183 258Q132 258 97 281T42 338L96 376Q110 352 129 338T177 323Q209 323 230 340T251 383Q251 409 230 426T155 444L166 495Q228 495 250 516T272 563Q272 583 258 595T220 608Q184
608 145 580L111 634Q143 655 173 663T237 672Q287 672 319 646T352 576Q352 498 267 468Q298 455 314 432T330 382Q330 343 310 315T257 273T183 258ZM151 -12L630 672H696L217 -12H151ZM505 152H610L622 214L649 328H645L581 244L505 152ZM579 0L598 97H419L427
140L631 390H726L679 152H737L725 97H668L649 0H579Z" />
<glyph unicode="&#xbf;" glyph-name="questiondown" horiz-adv-x="427" d="M164 -190Q89 -190 44 -152T-2 -45Q-2 3 16 37T63 98T121 151T171 209T198 283L290 275Q286 226 266 191T219 129T165 79T120 30T102 -28Q102 -63 122 -83T177 -103Q201 -103 224 -91T268
-58L323 -120Q291 -152 250 -171T164 -190ZM260 356Q233 356 218 374T202 419Q202 451 225 477T284 504Q311 504 327 487T343 442Q343 411 320 384T260 356Z" />
<glyph unicode="&#xc0;" glyph-name="Agrave" horiz-adv-x="529" d="M241 365L192 266H359L352 365Q349 415 346 465T340 568H336Q312 515 290 466T241 365ZM-58 0L292 654H420L490 0H378L365 184H152L61 0H-58ZM384 684L235 815L310 883L445 737L384 684Z" />
<glyph unicode="&#xc1;" glyph-name="Aacute" horiz-adv-x="529" d="M241 365L192 266H359L352 365Q349 415 346 465T340 568H336Q312 515 290 466T241 365ZM-58 0L292 654H420L490 0H378L365 184H152L61 0H-58ZM329 694L287 756L467 876L517 796L329 694Z" />
<glyph unicode="&#xc2;" glyph-name="Acircumflex" horiz-adv-x="529" d="M241 365L192 266H359L352 365Q349 415 346 465T340 568H336Q312 515 290 466T241 365ZM-58 0L292 654H420L490 0H378L365 184H152L61 0H-58ZM251 692L206 728L323 836H447L523 725L470
693L382 781H378L251 692Z" />
<glyph unicode="&#xc3;" glyph-name="Atilde" horiz-adv-x="529" d="M241 365L192 266H359L352 365Q349 415 346 465T340 568H336Q312 515 290 466T241 365ZM-58 0L292 654H420L490 0H378L365 184H152L61 0H-58ZM437 700Q411 700 393 710T361 732T335 755T308
765Q272 765 255 707L181 713Q196 781 233 813T319 846Q345 846 363 837T394 814T420 792T448 782Q482 782 501 840L574 834Q560 767 523 734T437 700Z" />
<glyph unicode="&#xc4;" glyph-name="Adieresis" horiz-adv-x="529" d="M241 365L192 266H359L352 365Q349 415 346 465T340 568H336Q312 515 290 466T241 365ZM-58 0L292 654H420L490 0H378L365 184H152L61 0H-58ZM270 708Q249 708 235 721T221 757Q221 782 239
802T283 822Q303 822 317 809T332 773Q332 749 314 729T270 708ZM468 708Q447 708 433 721T419 757Q419 782 437 802T481 822Q501 822 515 809T530 773Q530 749 512 729T468 708Z" />
<glyph unicode="&#xc5;" glyph-name="Aring" horiz-adv-x="529" d="M241 365L192 266H359L352 365Q349 415 346 465T340 568H336Q312 515 290 466T241 365ZM-58 0L292 654H420L490 0H378L365 184H152L61 0H-58ZM371 698Q333 698 304 718T274 781Q274 810 289 833T331
871T389 885Q427 885 456 865T486 803Q486 759 453 729T371 698ZM373 743Q394 743 410 759T426 798Q426 817 416 828T387 840Q365 840 350 824T334 785Q334 767 344 755T373 743Z" />
<glyph unicode="&#xc6;" glyph-name="AE" horiz-adv-x="821" d="M327 373L254 259H399L462 574H459Q425 522 393 473T327 373ZM-34 0L406 654H842L824 563H567L532 387H749L731 296H515L473 91H739L721 0H348L383 174H199L88 0H-34Z" />
<glyph unicode="&#xc7;" glyph-name="Ccedilla" horiz-adv-x="559" d="M297 -12Q222 -12 168 21T86 114T57 257Q57 338 82 411T153 542T262 633T400 666Q456 666 498 639T567 566L493 509Q474 539 450 556T394 573Q344 573 303 547T231 476T184 377T167 265Q167
183 203 132T318 81Q353 81 384 96T443 135L490 66Q457 37 409 13T297 -12ZM139 -233L138 -184Q197 -181 223 -169T253 -134Q254 -117 240 -107T184 -92L247 3H317L276 -63Q312 -72 326 -88T338 -131Q332 -180 280 -205T139 -233Z" />
<glyph unicode="&#xc8;" glyph-name="Egrave" horiz-adv-x="515" d="M32 0L162 654H537L519 563H251L216 387H443L425 296H199L157 91H433L415 0H32ZM385 684L236 815L311 883L446 737L385 684Z" />
<glyph unicode="&#xc9;" glyph-name="Eacute" horiz-adv-x="515" d="M32 0L162 654H537L519 563H251L216 387H443L425 296H199L157 91H433L415 0H32ZM330 694L288 756L468 876L518 796L330 694Z" />
<glyph unicode="&#xca;" glyph-name="Ecircumflex" horiz-adv-x="515" d="M32 0L162 654H537L519 563H251L216 387H443L425 296H199L157 91H433L415 0H32ZM252 692L207 728L324 836H448L524 725L471 693L383 781H379L252 692Z" />
<glyph unicode="&#xcb;" glyph-name="Edieresis" horiz-adv-x="515" d="M32 0L162 654H537L519 563H251L216 387H443L425 296H199L157 91H433L415 0H32ZM271 708Q250 708 236 721T222 757Q222 782 240 802T284 822Q304 822 318 809T333 773Q333 749 315 729T271
708ZM469 708Q448 708 434 721T420 757Q420 782 438 802T482 822Q502 822 516 809T531 773Q531 749 513 729T469 708Z" />
<glyph unicode="&#xcc;" glyph-name="Igrave" horiz-adv-x="273" d="M32 0L162 654H270L140 0H32ZM249 684L100 815L175 883L310 737L249 684Z" />
<glyph unicode="&#xcd;" glyph-name="Iacute" horiz-adv-x="273" d="M32 0L162 654H270L140 0H32ZM194 694L152 756L332 876L382 796L194 694Z" />
<glyph unicode="&#xce;" glyph-name="Icircumflex" horiz-adv-x="273" d="M32 0L162 654H270L140 0H32ZM116 692L71 728L188 836H312L388 725L335 693L247 781H243L116 692Z" />
<glyph unicode="&#xcf;" glyph-name="Idieresis" horiz-adv-x="273" d="M32 0L162 654H270L140 0H32ZM135 708Q114 708 100 721T86 757Q86 782 104 802T148 822Q168 822 182 809T197 773Q197 749 179 729T135 708ZM333 708Q312 708 298 721T284 757Q284 782 302
802T346 822Q366 822 380 809T395 773Q395 749 377 729T333 708Z" />
<glyph unicode="&#xd0;" glyph-name="Eth" horiz-adv-x="622" d="M50 0L113 315H42L53 367L124 371L180 654H313Q450 654 523 589T596 398Q596 274 552 185T428 48T240 0H50ZM175 87H238Q312 87 367 123T454 227T486 391Q486 478 440 522T310 567H270L231 371H368L356
315H220L175 87Z" />
<glyph unicode="&#xd1;" glyph-name="Ntilde" horiz-adv-x="631" d="M32 0L162 654H268L396 275L434 134H438Q444 184 450 244T467 357L526 654H630L499 0H394L267 378L229 521H225Q219 469 212 411T194 300L135 0H32ZM482 700Q456 700 438 710T406 732T380 755T353
765Q317 765 300 707L226 713Q241 781 278 813T364 846Q390 846 408 837T439 814T465 792T493 782Q527 782 546 840L619 834Q605 767 568 734T482 700Z" />
<glyph unicode="&#xd2;" glyph-name="Ograve" horiz-adv-x="647" d="M294 -12Q184 -12 121 62T58 263Q58 344 83 416T152 545T256 634T384 666Q495 666 557 592T620 391Q620 310 595 238T526 109T422 20T294 -12ZM300 81Q344 81 382 106T448 175T493 272T510 383Q510
470 477 521T378 573Q335 573 297 548T230 479T185 382T169 271Q169 184 201 133T300 81ZM433 684L284 815L359 883L494 737L433 684Z" />
<glyph unicode="&#xd3;" glyph-name="Oacute" horiz-adv-x="647" d="M294 -12Q184 -12 121 62T58 263Q58 344 83 416T152 545T256 634T384 666Q495 666 557 592T620 391Q620 310 595 238T526 109T422 20T294 -12ZM300 81Q344 81 382 106T448 175T493 272T510 383Q510
470 477 521T378 573Q335 573 297 548T230 479T185 382T169 271Q169 184 201 133T300 81ZM378 694L336 756L516 876L566 796L378 694Z" />
<glyph unicode="&#xd4;" glyph-name="Ocircumflex" horiz-adv-x="647" d="M294 -12Q184 -12 121 62T58 263Q58 344 83 416T152 545T256 634T384 666Q495 666 557 592T620 391Q620 310 595 238T526 109T422 20T294 -12ZM300 81Q344 81 382 106T448 175T493 272T510
383Q510 470 477 521T378 573Q335 573 297 548T230 479T185 382T169 271Q169 184 201 133T300 81ZM300 692L255 728L372 836H496L572 725L519 693L431 781H427L300 692Z" />
<glyph unicode="&#xd5;" glyph-name="Otilde" horiz-adv-x="647" d="M294 -12Q184 -12 121 62T58 263Q58 344 83 416T152 545T256 634T384 666Q495 666 557 592T620 391Q620 310 595 238T526 109T422 20T294 -12ZM300 81Q344 81 382 106T448 175T493 272T510 383Q510
470 477 521T378 573Q335 573 297 548T230 479T185 382T169 271Q169 184 201 133T300 81ZM486 700Q460 700 442 710T410 732T384 755T357 765Q321 765 304 707L230 713Q245 781 282 813T368 846Q394 846 412 837T443 814T469 792T497 782Q531 782 550 840L623 834Q609
767 572 734T486 700Z" />
<glyph unicode="&#xd6;" glyph-name="Odieresis" horiz-adv-x="647" d="M294 -12Q184 -12 121 62T58 263Q58 344 83 416T152 545T256 634T384 666Q495 666 557 592T620 391Q620 310 595 238T526 109T422 20T294 -12ZM300 81Q344 81 382 106T448 175T493 272T510
383Q510 470 477 521T378 573Q335 573 297 548T230 479T185 382T169 271Q169 184 201 133T300 81ZM319 708Q298 708 284 721T270 757Q270 782 288 802T332 822Q352 822 366 809T381 773Q381 749 363 729T319 708ZM517 708Q496 708 482 721T468 757Q468 782 486
802T530 822Q550 822 564 809T579 773Q579 749 561 729T517 708Z" />
<glyph unicode="&#xd7;" glyph-name="multiply" horiz-adv-x="494" d="M118 128L64 182L206 331L64 479L118 533L260 385L402 533L456 479L314 331L456 182L402 128L260 277L118 128Z" />
<glyph unicode="&#xd8;" glyph-name="Oslash" horiz-adv-x="647" d="M44 -35L-6 10L90 110Q58 174 58 263Q58 344 83 416T152 545T256 634T384 666Q437 666 480 648T553 597L644 692L692 647L590 540Q620 479 620 391Q620 310 595 238T526 109T422 20T294 -12Q191
-12 128 54L44 -35ZM169 271Q169 233 175 200L479 519Q463 545 438 559T378 573Q335 573 297 548T230 479T185 382T169 271ZM300 81Q344 81 382 106T448 175T493 272T510 383Q510 419 504 449L202 131Q219 107 243 94T300 81Z" />
<glyph unicode="&#xd9;" glyph-name="Ugrave" horiz-adv-x="630" d="M297 -12Q189 -12 133 42T77 205Q77 227 81 253T89 304L159 654H267L194 288Q185 246 185 211Q185 148 212 115T301 81Q353 81 391 123T448 264L526 654H632L553 264Q524 118 459 53T297 -12ZM434
684L285 815L360 883L495 737L434 684Z" />
<glyph unicode="&#xda;" glyph-name="Uacute" horiz-adv-x="630" d="M297 -12Q189 -12 133 42T77 205Q77 227 81 253T89 304L159 654H267L194 288Q185 246 185 211Q185 148 212 115T301 81Q353 81 391 123T448 264L526 654H632L553 264Q524 118 459 53T297 -12ZM379
694L337 756L517 876L567 796L379 694Z" />
<glyph unicode="&#xdb;" glyph-name="Ucircumflex" horiz-adv-x="630" d="M297 -12Q189 -12 133 42T77 205Q77 227 81 253T89 304L159 654H267L194 288Q185 246 185 211Q185 148 212 115T301 81Q353 81 391 123T448 264L526 654H632L553 264Q524 118 459 53T297
-12ZM301 692L256 728L373 836H497L573 725L520 693L432 781H428L301 692Z" />
<glyph unicode="&#xdc;" glyph-name="Udieresis" horiz-adv-x="630" d="M297 -12Q189 -12 133 42T77 205Q77 227 81 253T89 304L159 654H267L194 288Q185 246 185 211Q185 148 212 115T301 81Q353 81 391 123T448 264L526 654H632L553 264Q524 118 459 53T297
-12ZM320 708Q299 708 285 721T271 757Q271 782 289 802T333 822Q353 822 367 809T382 773Q382 749 364 729T320 708ZM518 708Q497 708 483 721T469 757Q469 782 487 802T531 822Q551 822 565 809T580 773Q580 749 562 729T518 708Z" />
<glyph unicode="&#xdd;" glyph-name="Yacute" horiz-adv-x="486" d="M138 0L187 246L82 654H193L230 482Q238 445 244 411T258 338H262Q302 410 347 483L454 654H570L295 246L246 0H138ZM300 694L258 756L438 876L488 796L300 694Z" />
<glyph unicode="&#xde;" glyph-name="Thorn" horiz-adv-x="579" d="M32 0L162 660H270L249 550H350Q410 550 456 534T528 481T554 384Q554 298 515 245T409 166T259 141H166L138 0H32ZM184 227H267Q355 227 401 263T447 368Q447 419 415 441T324 464H231L184 227Z" />
<glyph unicode="&#xdf;" glyph-name="germandbls" horiz-adv-x="583" d="M357 -12Q320 -12 283 -1T213 35L259 106Q281 90 304 80T356 69Q389 69 411 90T433 142Q433 166 419 184T383 219T341 252T305 292T290 345Q290 374 302 396T333 436T370 473T401 512T414
563Q414 594 399 613T348 632Q302 632 272 592T228 493L130 0H22L126 515Q138 572 167 618T244 691T353 718Q397 718 434 703T495 657T518 578Q518 542 506 516T475 469T439 431T408 398T395 361Q395 342 409 326T443 295T484 260T519 216T533 154Q533 108 510
71T447 11T357 -12Z" />
<glyph unicode="&#xe0;" glyph-name="agrave" horiz-adv-x="544" d="M175 -12Q111 -12 73 34T35 167Q35 238 57 299T116 405T200 477T299 503Q335 503 365 485T412 434H414L435 491H521L423 0H335L340 68H337Q303 32 260 10T175 -12ZM219 76Q251 76 284 95T348
159L388 355Q372 387 350 401T305 415Q264 415 228 383T169 298T146 182Q146 128 165 102T219 76ZM364 569L221 737L313 806L430 621L364 569Z" />
<glyph unicode="&#xe1;" glyph-name="aacute" horiz-adv-x="544" d="M175 -12Q111 -12 73 34T35 167Q35 238 57 299T116 405T200 477T299 503Q335 503 365 485T412 434H414L435 491H521L423 0H335L340 68H337Q303 32 260 10T175 -12ZM219 76Q251 76 284 95T348
159L388 355Q372 387 350 401T305 415Q264 415 228 383T169 298T146 182Q146 128 165 102T219 76ZM307 579L259 640L436 800L501 717L307 579Z" />
<glyph unicode="&#xe2;" glyph-name="acircumflex" horiz-adv-x="544" d="M175 -12Q111 -12 73 34T35 167Q35 238 57 299T116 405T200 477T299 503Q335 503 365 485T412 434H414L435 491H521L423 0H335L340 68H337Q303 32 260 10T175 -12ZM219 76Q251 76 284 95T348
159L388 355Q372 387 350 401T305 415Q264 415 228 383T169 298T146 182Q146 128 165 102T219 76ZM202 564L163 609L297 742H414L501 606L451 564L351 670H347L202 564Z" />
<glyph unicode="&#xe3;" glyph-name="atilde" horiz-adv-x="544" d="M175 -12Q111 -12 73 34T35 167Q35 238 57 299T116 405T200 477T299 503Q335 503 365 485T412 434H414L435 491H521L423 0H335L340 68H337Q303 32 260 10T175 -12ZM219 76Q251 76 284 95T348
159L388 355Q372 387 350 401T305 415Q264 415 228 383T169 298T146 182Q146 128 165 102T219 76ZM407 575Q382 575 365 586T336 612T310 638T280 650Q240 650 228 582L155 586Q168 654 201 692T286 730Q311 730 328 719T357 693T383 667T413 656Q451 656 465 723L538
719Q525 652 492 614T407 575Z" />
<glyph unicode="&#xe4;" glyph-name="adieresis" horiz-adv-x="544" d="M175 -12Q111 -12 73 34T35 167Q35 238 57 299T116 405T200 477T299 503Q335 503 365 485T412 434H414L435 491H521L423 0H335L340 68H337Q303 32 260 10T175 -12ZM219 76Q251 76 284 95T348
159L388 355Q372 387 350 401T305 415Q264 415 228 383T169 298T146 182Q146 128 165 102T219 76ZM236 580Q214 580 200 593T186 630Q186 656 204 675T249 695Q270 695 284 682T299 644Q299 617 281 599T236 580ZM434 580Q412 580 398 593T384 630Q384 656 402
675T447 695Q469 695 483 682T497 644Q497 617 479 599T434 580Z" />
<glyph unicode="&#xe5;" glyph-name="aring" horiz-adv-x="544" d="M175 -12Q111 -12 73 34T35 167Q35 238 57 299T116 405T200 477T299 503Q335 503 365 485T412 434H414L435 491H521L423 0H335L340 68H337Q303 32 260 10T175 -12ZM219 76Q251 76 284 95T348
159L388 355Q372 387 350 401T305 415Q264 415 228 383T169 298T146 182Q146 128 165 102T219 76ZM333 561Q288 561 258 583T228 647Q228 694 265 727T359 760Q405 760 434 738T464 674Q464 628 427 595T333 561ZM340 606Q363 606 379 625T395 671Q395 689 384
702T352 715Q330 715 314 696T297 650Q297 631 308 619T340 606Z" />
<glyph unicode="&#xe6;" glyph-name="ae" horiz-adv-x="758" d="M156 -12Q102 -12 65 20T27 109Q27 180 67 222T178 283T338 306Q341 326 341 338Q341 418 266 418Q236 418 203 407T134 378L108 453Q149 475 196 489T290 503Q337 503 369 483T413 422Q446 460
487 481T570 503Q627 503 661 479T711 414T726 322Q726 291 719 262T706 220H418Q409 147 441 109T528 70Q554 70 580 82T628 109L667 40Q639 19 598 4T506 -12Q454 -12 412 13T350 76Q304 35 257 12T156 -12ZM198 72Q224 72 257 89T324 144Q320 169 320 190T324
238Q231 236 182 208T132 131Q132 103 150 88T198 72ZM427 288H632Q634 299 635 308T637 329Q637 365 620 392T557 420Q519 420 482 385T427 288Z" />
<glyph unicode="&#xe7;" glyph-name="ccedilla" horiz-adv-x="439" d="M220 -12Q139 -12 86 40T33 188Q33 254 55 311T117 411T207 479T315 503Q360 503 392 485T444 443L384 378Q367 398 350 407T308 416Q264 416 227 386T166 304T143 192Q143 137 168 106T242
75Q271 75 293 86T335 113L381 45Q353 25 315 7T220 -12ZM69 -233L68 -184Q127 -181 153 -169T183 -134Q184 -117 170 -107T114 -92L177 3H247L206 -63Q242 -72 256 -88T268 -131Q262 -180 210 -205T69 -233Z" />
<glyph unicode="&#xe8;" glyph-name="egrave" horiz-adv-x="488" d="M230 -12Q142 -12 88 42T33 196Q33 265 56 321T119 418T205 481T301 503Q358 503 392 479T441 414T457 322Q457 291 450 262T437 220H137Q131 167 146 134T191 86T258 70Q284 70 311 82T358
109L398 40Q368 19 326 4T230 -12ZM146 288H363Q365 298 366 308T368 329Q368 365 351 392T288 420Q244 420 204 385T146 288ZM356 569L213 737L305 806L422 621L356 569Z" />
<glyph unicode="&#xe9;" glyph-name="eacute" horiz-adv-x="488" d="M230 -12Q142 -12 88 42T33 196Q33 265 56 321T119 418T205 481T301 503Q358 503 392 479T441 414T457 322Q457 291 450 262T437 220H137Q131 167 146 134T191 86T258 70Q284 70 311 82T358
109L398 40Q368 19 326 4T230 -12ZM146 288H363Q365 298 366 308T368 329Q368 365 351 392T288 420Q244 420 204 385T146 288ZM299 579L251 640L428 800L493 717L299 579Z" />
<glyph unicode="&#xea;" glyph-name="ecircumflex" horiz-adv-x="488" d="M230 -12Q142 -12 88 42T33 196Q33 265 56 321T119 418T205 481T301 503Q358 503 392 479T441 414T457 322Q457 291 450 262T437 220H137Q131 167 146 134T191 86T258 70Q284 70 311 82T358
109L398 40Q368 19 326 4T230 -12ZM146 288H363Q365 298 366 308T368 329Q368 365 351 392T288 420Q244 420 204 385T146 288ZM194 564L155 609L289 742H406L493 606L443 564L343 670H339L194 564Z" />
<glyph unicode="&#xeb;" glyph-name="edieresis" horiz-adv-x="488" d="M230 -12Q142 -12 88 42T33 196Q33 265 56 321T119 418T205 481T301 503Q358 503 392 479T441 414T457 322Q457 291 450 262T437 220H137Q131 167 146 134T191 86T258 70Q284 70 311 82T358
109L398 40Q368 19 326 4T230 -12ZM146 288H363Q365 298 366 308T368 329Q368 365 351 392T288 420Q244 420 204 385T146 288ZM228 580Q206 580 192 593T178 630Q178 656 196 675T241 695Q262 695 276 682T291 644Q291 617 273 599T228 580ZM426 580Q404 580 390
593T376 630Q376 656 394 675T439 695Q461 695 475 682T489 644Q489 617 471 599T426 580Z" />
<glyph unicode="&#xec;" glyph-name="igrave" horiz-adv-x="251" d="M22 0L121 491H228L130 0H22ZM227 569L84 737L176 806L293 621L227 569Z" />
<glyph unicode="&#xed;" glyph-name="iacute" horiz-adv-x="251" d="M22 0L121 491H228L130 0H22ZM170 579L122 640L299 800L364 717L170 579Z" />
<glyph unicode="&#xee;" glyph-name="icircumflex" horiz-adv-x="251" d="M22 0L121 491H228L130 0H22ZM65 564L26 609L160 742H277L364 606L314 564L214 670H210L65 564Z" />
<glyph unicode="&#xef;" glyph-name="idieresis" horiz-adv-x="251" d="M22 0L121 491H228L130 0H22ZM99 580Q77 580 63 593T49 630Q49 656 67 675T112 695Q133 695 147 682T162 644Q162 617 144 599T99 580ZM297 580Q275 580 261 593T247 630Q247 656 265 675T310
695Q332 695 346 682T360 644Q360 617 342 599T297 580Z" />
<glyph unicode="&#xf0;" glyph-name="eth" horiz-adv-x="531" d="M136 186Q136 141 160 108T230 75Q272 75 303 105T355 186T380 302Q364 328 340 348T281 368Q235 368 203 341T153 273T136 186ZM220 -12Q169 -12 128 11T63 78T38 177Q38 228 53 276T99 364T171
427T268 451Q303 451 332 435T380 387Q376 437 363 479T327 556L180 496L159 549L289 602Q271 621 249 638T201 672L250 735Q286 715 318 691T376 637L521 696L542 643L413 591Q446 542 464 483T482 352Q482 282 466 217T416 101T334 19T220 -12Z" />
<glyph unicode="&#xf1;" glyph-name="ntilde" horiz-adv-x="539" d="M22 0L121 491H208L204 422H208Q246 455 287 479T375 503Q437 503 464 471T491 379Q491 362 490 346T483 310L421 0H314L374 296Q377 313 379 325T382 348Q382 411 320 411Q295 411 265 393T196
335L130 0H22ZM433 575Q408 575 391 586T362 612T336 638T306 650Q266 650 254 582L181 586Q194 654 227 692T312 730Q337 730 354 719T383 693T409 667T439 656Q477 656 491 723L564 719Q551 652 518 614T433 575Z" />
<glyph unicode="&#xf2;" glyph-name="ograve" horiz-adv-x="524" d="M217 -12Q135 -12 85 42T34 188Q34 259 57 316T119 416T206 480T304 503Q387 503 437 449T488 303Q488 233 465 175T403 75T316 11T217 -12ZM229 75Q268 75 302 105T358 186T379 300Q379 356
357 386T293 416Q254 416 220 386T164 306T142 192Q142 137 164 106T229 75ZM366 569L223 737L315 806L432 621L366 569Z" />
<glyph unicode="&#xf3;" glyph-name="oacute" horiz-adv-x="524" d="M217 -12Q135 -12 85 42T34 188Q34 259 57 316T119 416T206 480T304 503Q387 503 437 449T488 303Q488 233 465 175T403 75T316 11T217 -12ZM229 75Q268 75 302 105T358 186T379 300Q379 356
357 386T293 416Q254 416 220 386T164 306T142 192Q142 137 164 106T229 75ZM309 579L261 640L438 800L503 717L309 579Z" />
<glyph unicode="&#xf4;" glyph-name="ocircumflex" horiz-adv-x="524" d="M217 -12Q135 -12 85 42T34 188Q34 259 57 316T119 416T206 480T304 503Q387 503 437 449T488 303Q488 233 465 175T403 75T316 11T217 -12ZM229 75Q268 75 302 105T358 186T379 300Q379
356 357 386T293 416Q254 416 220 386T164 306T142 192Q142 137 164 106T229 75ZM204 564L165 609L299 742H416L503 606L453 564L353 670H349L204 564Z" />
<glyph unicode="&#xf5;" glyph-name="otilde" horiz-adv-x="524" d="M217 -12Q135 -12 85 42T34 188Q34 259 57 316T119 416T206 480T304 503Q387 503 437 449T488 303Q488 233 465 175T403 75T316 11T217 -12ZM229 75Q268 75 302 105T358 186T379 300Q379 356
357 386T293 416Q254 416 220 386T164 306T142 192Q142 137 164 106T229 75ZM409 575Q384 575 367 586T338 612T312 638T282 650Q242 650 230 582L157 586Q170 654 203 692T288 730Q313 730 330 719T359 693T385 667T415 656Q453 656 467 723L540 719Q527 652 494
614T409 575Z" />
<glyph unicode="&#xf6;" glyph-name="odieresis" horiz-adv-x="524" d="M217 -12Q135 -12 85 42T34 188Q34 259 57 316T119 416T206 480T304 503Q387 503 437 449T488 303Q488 233 465 175T403 75T316 11T217 -12ZM229 75Q268 75 302 105T358 186T379 300Q379
356 357 386T293 416Q254 416 220 386T164 306T142 192Q142 137 164 106T229 75ZM238 580Q216 580 202 593T188 630Q188 656 206 675T251 695Q272 695 286 682T301 644Q301 617 283 599T238 580ZM436 580Q414 580 400 593T386 630Q386 656 404 675T449 695Q471
695 485 682T499 644Q499 617 481 599T436 580Z" />
<glyph unicode="&#xf7;" glyph-name="divide" horiz-adv-x="494" d="M48 292V369H472V292H48ZM260 86Q233 86 215 103T196 148Q196 174 214 192T260 210Q287 210 305 192T324 148Q324 121 306 104T260 86ZM260 449Q233 449 215 467T196 512Q196 538 214 555T260
573Q287 573 305 556T324 512Q324 485 306 467T260 449Z" />
<glyph unicode="&#xf8;" glyph-name="oslash" horiz-adv-x="524" d="M135 192Q135 171 138 153L364 385Q339 418 296 418Q261 418 232 399T181 347T147 274T135 192ZM36 -24L0 10L62 73Q34 121 34 188Q34 259 57 316T119 416T206 480T304 503Q381 503 432 455L489
514L526 480L462 414Q488 368 488 303Q488 232 465 174T403 75T316 11T217 -12Q143 -12 92 34L36 -24ZM225 73Q273 73 309 106T366 191T386 298Q386 317 383 333L159 103Q183 73 225 73Z" />
<glyph unicode="&#xf9;" glyph-name="ugrave" horiz-adv-x="537" d="M164 -12Q103 -12 75 21T47 112Q47 129 49 145T55 181L117 491H224L165 195Q161 178 159 166T157 143Q157 80 218 80Q267 80 339 156L405 491H512L415 0H328L332 70H328Q291 37 250 13T164 -12ZM362
569L219 737L311 806L428 621L362 569Z" />
<glyph unicode="&#xfa;" glyph-name="uacute" horiz-adv-x="537" d="M164 -12Q103 -12 75 21T47 112Q47 129 49 145T55 181L117 491H224L165 195Q161 178 159 166T157 143Q157 80 218 80Q267 80 339 156L405 491H512L415 0H328L332 70H328Q291 37 250 13T164 -12ZM305
579L257 640L434 800L499 717L305 579Z" />
<glyph unicode="&#xfb;" glyph-name="ucircumflex" horiz-adv-x="537" d="M164 -12Q103 -12 75 21T47 112Q47 129 49 145T55 181L117 491H224L165 195Q161 178 159 166T157 143Q157 80 218 80Q267 80 339 156L405 491H512L415 0H328L332 70H328Q291 37 250 13T164
-12ZM200 564L161 609L295 742H412L499 606L449 564L349 670H345L200 564Z" />
<glyph unicode="&#xfc;" glyph-name="udieresis" horiz-adv-x="537" d="M164 -12Q103 -12 75 21T47 112Q47 129 49 145T55 181L117 491H224L165 195Q161 178 159 166T157 143Q157 80 218 80Q267 80 339 156L405 491H512L415 0H328L332 70H328Q291 37 250 13T164
-12ZM234 580Q212 580 198 593T184 630Q184 656 202 675T247 695Q268 695 282 682T297 644Q297 617 279 599T234 580ZM432 580Q410 580 396 593T382 630Q382 656 400 675T445 695Q467 695 481 682T495 644Q495 617 477 599T432 580Z" />
<glyph unicode="&#xfd;" glyph-name="yacute" horiz-adv-x="474" d="M15 -202Q3 -202 -15 -197T-48 -184L-14 -106Q3 -116 22 -116Q54 -116 83 -91T132 -25L147 5L62 491H169L200 243Q204 210 207 171T212 96H216Q233 131 250 170T285 243L407 491H511L235 -26Q189
-106 139 -154T15 -202ZM275 579L227 640L404 800L469 717L275 579Z" />
<glyph unicode="&#xfe;" glyph-name="thorn" horiz-adv-x="544" d="M-17 -194L164 706H271L236 532L212 438H214Q249 466 288 484T368 503Q433 503 470 457T508 324Q508 254 486 193T427 86T343 14T245 -12Q211 -12 183 6T136 52H134L118 -48L90 -194H-17ZM238
76Q280 76 316 108T375 193T398 310Q398 363 378 389T324 415Q296 415 262 398T199 344L157 134Q173 103 194 90T238 76Z" />
<glyph unicode="&#xff;" glyph-name="ydieresis" horiz-adv-x="474" d="M15 -202Q3 -202 -15 -197T-48 -184L-14 -106Q3 -116 22 -116Q54 -116 83 -91T132 -25L147 5L62 491H169L200 243Q204 210 207 171T212 96H216Q233 131 250 170T285 243L407 491H511L235
-26Q189 -106 139 -154T15 -202ZM204 580Q182 580 168 593T154 630Q154 656 172 675T217 695Q238 695 252 682T267 644Q267 617 249 599T204 580ZM402 580Q380 580 366 593T352 630Q352 656 370 675T415 695Q437 695 451 682T465 644Q465 617 447 599T402 580Z"
/>
<glyph unicode="&#x2013;" glyph-name="endash" horiz-adv-x="463" d="M35 216L49 288H428L413 216H35Z" />
<glyph unicode="&#x2014;" glyph-name="emdash" horiz-adv-x="770" d="M35 216L49 288H736L721 216H35Z" />
<glyph unicode="&#x2018;" glyph-name="quoteleft" horiz-adv-x="267" d="M167 394Q139 394 121 415T103 476Q103 529 124 570T179 640T256 684L275 635Q224 613 197 578T170 517Q172 517 173 517T175 517Q201 517 218 503T236 463Q236 435 218 415T167 394Z" />
<glyph unicode="&#x2019;" glyph-name="quoteright" horiz-adv-x="267" d="M128 408L109 457Q160 479 187 514T214 575Q213 575 212 575T209 575Q183 575 166 589T148 629Q148 657 167 677T218 698Q247 698 264 677T281 616Q281 563 261 522T205 452T128 408Z" />
<glyph unicode="&#x201a;" glyph-name="quotesinglbase" horiz-adv-x="267" d="M15 -153L-4 -104Q47 -82 74 -47T101 14Q100 14 99 14T96 14Q70 14 53 28T35 68Q35 96 54 116T105 137Q134 137 151 116T168 55Q168 2 148 -39T92 -109T15 -153Z" />
<glyph unicode="&#x201c;" glyph-name="quotedblleft" horiz-adv-x="460" d="M167 394Q139 394 121 415T103 476Q103 529 124 570T179 640T256 684L275 635Q224 613 197 578T170 517Q172 517 173 517T175 517Q201 517 218 503T236 463Q236 435 218 415T167 394ZM360
394Q332 394 314 415T296 476Q296 529 317 570T372 640T449 684L468 635Q417 613 390 578T363 517Q365 517 366 517T368 517Q394 517 411 503T429 463Q429 435 411 415T360 394Z" />
<glyph unicode="&#x201d;" glyph-name="quotedblright" horiz-adv-x="460" d="M128 408L109 457Q160 479 187 514T214 575Q213 575 212 575T209 575Q183 575 166 589T148 629Q148 657 167 677T218 698Q247 698 264 677T281 616Q281 563 261 522T205 452T128 408ZM321
408L302 457Q353 479 380 514T407 575Q406 575 405 575T402 575Q376 575 359 589T341 629Q341 657 360 677T411 698Q440 698 457 677T474 616Q474 563 454 522T398 452T321 408Z" />
<glyph unicode="&#x201e;" glyph-name="quotedblbase" horiz-adv-x="460" d="M15 -153L-4 -104Q47 -82 74 -47T101 14Q100 14 99 14T96 14Q70 14 53 28T35 68Q35 96 54 116T105 137Q134 137 151 116T168 55Q168 2 148 -39T92 -109T15 -153ZM208 -153L189 -104Q240
-82 267 -47T294 14Q293 14 292 14T289 14Q263 14 246 28T228 68Q228 96 247 116T298 137Q327 137 344 116T361 55Q361 2 341 -39T285 -109T208 -153Z" />
<glyph unicode="&#x2022;" glyph-name="bullet" horiz-adv-x="313" d="M146 136Q100 136 70 167T40 248Q40 283 56 315T101 369T170 390Q215 390 245 359T276 278Q276 243 260 211T215 157T146 136Z" />
<glyph unicode="&#x2039;" glyph-name="guilsinglleft" horiz-adv-x="262" d="M143 62L40 216L54 296L209 440L244 402L107 248L188 91L143 62Z" />
<glyph unicode="&#x203a;" glyph-name="guilsinglright" horiz-adv-x="262" d="M60 62L25 100L162 254L80 411L126 440L229 286L214 206L60 62Z" />
</font>
</defs>
</svg>
