<?xml version="1.0" standalone="no"?>
<!DOCTYPE svg PUBLIC "-//W3C//DTD SVG 1.1//EN" "http://www.w3.org/Graphics/SVG/1.1/DTD/svg11.dtd">
<svg xmlns="http://www.w3.org/2000/svg">
<defs >
<font id="Signika" horiz-adv-x="1241" ><font-face
    font-family="Signika Light Light"
    units-per-em="2000"
    panose-1="0 0 0 0 0 0 0 0 0 0"
    ascent="1880"
    descent="-584"
    alphabetic="0" />
<glyph unicode=" " horiz-adv-x="440" />
<glyph unicode="!" horiz-adv-x="554" d="M216 373Q208 576 199 777T190 1181V1366Q212 1372 244 1373T308 1373T361 1364V1180Q361 978 353 777T335 373Q322 368 307 366T275 364Q260 364 245 366T216 373ZM275 187Q334 187 369 167Q375 156 379 130T383 86Q383
70 379 44T369 6Q353 -3 327 -8T275 -14Q249 -14 224 -9T182 6Q176 17 172 43T168 86Q168 103 172 129T182 167Q198 176 223 181T275 187Z" />
<glyph unicode="&quot;" horiz-adv-x="711" d="M422 1391Q422 1411 425 1431T433 1473Q447 1481 467 1487T515 1494Q539 1494 561 1488T597 1473Q602 1451 604 1431T607 1391Q607 1377 601 1317T582 1170T555 986Q542 978 517 978T476 986Q461 1084 449 1171T429
1317T422 1391ZM104 1391Q104 1411 107 1431T115 1473Q129 1481 149 1487T197 1494Q221 1494 243 1488T279 1473Q284 1451 286 1431T289 1391Q289 1377 283 1317T264 1170T237 986Q224 978 199 978T158 986Q143 1084 131 1171T111 1317T104 1391Z" />
<glyph unicode="#" horiz-adv-x="1211" d="M207 28Q219 22 238 20T277 17Q297 17 316 19T347 28L623 1264Q610 1269 592 1271T554 1273Q535 1273 517 1271T484 1264L207 28ZM605 28Q617 22 636 20T675 17Q696 17 714 19T745 28L1022 1264Q1009 1269 991 1271T952
1273Q933 1273 915 1271T882 1264L605 28ZM1065 334Q1074 360 1074 399Q1074 440 1065 465H62Q52 441 52 399Q52 358 62 334H1065ZM1154 827Q1163 853 1163 893Q1163 933 1154 958H151Q141 934 141 893Q141 851 151 827H1154Z" />
<glyph unicode="$" horiz-adv-x="1080" d="M533 62Q452 62 376 80T237 126T129 186Q130 209 139 232T163 276T194 307Q260 261 350 226T535 191Q635 191 702 233T771 357Q773 427 731 476T604 554L396 626Q287 664 229 733T171 901Q171 987 215 1057T341 1169T538
1211Q639 1211 730 1184T887 1120Q887 1089 872 1055T832 998Q767 1036 693 1058T541 1081Q443 1081 382 1037T321 918Q321 848 366 814T479 756L674 687Q791 646 858 570T925 370Q925 283 878 213T743 103T533 62ZM521 -123Q480 -123 454 -117V92H587V-117Q563
-123 521 -123ZM475 1170V1390Q489 1393 507 1394T541 1396Q558 1396 576 1395T608 1390V1170H475Z" />
<glyph unicode="%" horiz-adv-x="1723" d="M1623 374Q1623 198 1554 87T1323 -24Q1216 -24 1150 27T1054 169T1024 374Q1024 491 1054 580T1151 719T1323 770Q1432 770 1497 720T1593 580T1623 374ZM1161 374Q1161 300 1174 233T1224 125T1325 83Q1390 83 1425
124T1473 233T1487 374Q1487 448 1474 514T1425 621T1325 663Q1260 663 1224 622T1175 514T1161 374ZM700 892Q700 716 631 605T400 494Q293 494 227 545T131 687T101 892Q101 1009 131 1098T228 1237T400 1288Q509 1288 574 1238T670 1098T700 892ZM238 892Q238
818 251 751T301 643T402 601Q467 601 502 642T550 751T564 892Q564 966 551 1032T502 1140T402 1182Q337 1182 301 1141T252 1033T238 892ZM1138 1268Q1155 1275 1184 1277T1242 1278T1287 1268L589 0Q573 -7 544 -9T485 -10T440 0L1138 1268Z" />
<glyph unicode="&amp;" horiz-adv-x="1208" d="M961 793Q1013 793 1061 800T1139 820Q1150 806 1155 785T1160 746Q1160 694 1122 678T1031 662H585Q470 662 402 615T304 498T274 362Q274 244 338 174T517 104Q604 104 683 135T811 207V534Q811 572 812 630T816
728H956Q958 688 959 630T961 536V294Q961 223 964 144T973 0Q959 -3 941 -5T901 -7Q879 -7 861 -5T829 0L816 78Q746 32 662 4T491 -24Q367 -24 283 25T155 162T112 360Q112 469 163 555T293 693T458 746V718Q381 721 315 764T209 880T168 1038Q168 1133 215 1213T354
1341T578 1390Q671 1390 761 1375T913 1336Q913 1305 902 1270T871 1211Q805 1231 734 1246T577 1262Q461 1262 396 1197T330 1031Q330 928 395 861T604 793H961Z" />
<glyph unicode="&apos;" horiz-adv-x="388" d="M94 1391Q94 1411 97 1431T105 1473Q119 1481 139 1487T187 1494Q211 1494 233 1488T269 1473Q274 1451 276 1431T279 1391Q279 1377 273 1317T254 1170T227 986Q214 978 189 978T148 986Q133 1084 121 1171T101
1317T94 1391Z" />
<glyph unicode="(" horiz-adv-x="616" d="M295 552Q295 391 325 232T421 -77T589 -355Q573 -391 549 -411T496 -439Q379 -322 297 -157T172 193T129 552Q129 726 172 910T297 1260T496 1543Q525 1535 549 1515T589 1458Q486 1329 421 1181T326 873T295 552Z" />
<glyph unicode=")" horiz-adv-x="616" d="M321 552Q321 391 291 232T195 -77T27 -355Q43 -391 67 -411T120 -439Q237 -322 318 -157T443 193T486 552Q486 726 443 910T319 1260T120 1543Q92 1535 68 1515T27 1458Q130 1329 195 1181T290 873T321 552Z" />
<glyph unicode="*" horiz-adv-x="991" d="M424 1462Q442 1470 468 1472T521 1473T567 1462L568 1360Q570 1291 556 1220T530 1090Q511 1068 495 1068Q478 1068 461 1090Q448 1148 435 1219T423 1360L424 1462ZM99 1123Q97 1142 102 1167T119 1217T144 1257L240
1228Q306 1207 370 1171T486 1108Q502 1082 495 1068Q492 1060 485 1053T463 1043Q405 1049 333 1057T194 1090L99 1123ZM321 708Q302 713 280 725T237 756T206 792L263 873Q304 930 358 980T453 1070Q481 1078 495 1068Q513 1056 510 1031Q486 976 456 910T381
788L321 708ZM783 790Q774 774 755 757T713 726T668 708L610 788Q567 844 537 910T481 1029Q481 1058 495 1068Q502 1073 512 1074T536 1070Q580 1031 634 981T728 873L783 790ZM848 1255Q861 1243 871 1220T888 1170T892 1122L797 1089Q731 1067 659 1059T530
1043Q503 1050 495 1068Q488 1086 505 1107Q557 1137 621 1173T751 1228L848 1255Z" />
<glyph unicode="+" horiz-adv-x="1080" d="M127 690Q121 659 121 621Q121 581 127 552H393Q410 552 435 553T477 554H603Q620 554 645 553T687 552H953Q959 581 959 621Q959 659 953 690H687Q671 690 646 689T603 688H477Q461 688 436 689T393 690H127ZM467 764Q467
748 468 723T469 680V562Q469 546 468 521T467 478V189Q483 186 500 185T540 183Q560 183 579 184T613 189V478Q613 495 612 520T611 562V680Q611 697 612 722T613 764V1053Q599 1056 580 1057T540 1059Q518 1059 501 1058T467 1053V764Z" />
<glyph unicode="," horiz-adv-x="509" d="M363 182Q372 163 377 130T383 64Q383 -14 354 -85T268 -213T122 -301Q101 -290 90 -266T80 -220Q148 -187 190 -134T234 -18Q217 -15 193 -8T157 8Q151 19 146 44T141 92Q141 115 145 143T157 182Q170 189 203 196T262
203Q287 203 318 198T363 182Z" />
<glyph unicode="-" horiz-adv-x="671" d="M105 461Q102 476 101 493T99 529Q99 550 100 567T105 600H565Q569 584 570 567T572 529Q572 510 571 493T565 461H105Z" />
<glyph unicode="." horiz-adv-x="500" d="M131 94Q131 112 135 140T147 182Q161 190 191 196T250 203Q275 203 307 197T353 182Q361 169 365 141T370 94Q370 76 366 48T353 7Q342 -1 309 -7T250 -14Q222 -14 192 -8T147 7Q140 20 136 48T131 94Z" />
<glyph unicode="/" horiz-adv-x="813" d="M655 1415Q686 1414 722 1401T786 1366L153 -312Q121 -311 86 -298T21 -263L655 1415Z" />
<glyph unicode="0" horiz-adv-x="1080" d="M119 633Q119 829 148 961T269 1185Q317 1235 382 1262T542 1290Q635 1290 698 1263T811 1185Q902 1094 931 962T961 633Q961 436 932 305T811 81Q762 32 698 4T540 -24Q447 -24 383 4T269 81Q179 173 149 304T119 633ZM280
633Q280 446 302 336T379 166Q408 133 447 116T540 98Q593 98 632 115T701 166Q756 226 778 336T800 633Q800 820 778 930T701 1100Q672 1133 633 1150T540 1168Q487 1168 448 1151T379 1100Q324 1040 302 930T280 633Z" />
<glyph unicode="1" horiz-adv-x="1080" d="M669 253Q669 213 668 180T667 104V60H522V104Q522 146 521 179T520 253V785Q520 816 522 877T526 999T528 1093L526 1266Q544 1271 563 1272T598 1274Q615 1274 632 1273T669 1266V253ZM415 127Q435 127 471 126T526
125H663Q683 125 719 126T774 127H928Q934 96 934 64Q934 35 928 0H221Q214 32 214 64Q214 98 221 127H415ZM161 894Q305 982 399 1084T526 1266L587 1140Q564 1072 507 1007T375 888T226 801Q201 818 185 841T161 894Z" />
<glyph unicode="2" horiz-adv-x="1080" d="M151 1024Q181 1094 236 1154T368 1252T543 1290Q716 1290 815 1190T914 934Q914 831 878 759T783 630T659 517L500 383Q431 325 384 274T311 183T286 115V0H205Q179 24 157 49T135 109Q135 168 172 233T270 362T397
483L581 637Q666 708 711 774T757 932Q757 1042 693 1103T532 1165Q443 1165 372 1110T260 966Q231 969 199 982T151 1024ZM944 135Q944 54 921 27T839 0H216L168 108Q219 120 288 126T424 133T527 135H944Z" />
<glyph unicode="3" horiz-adv-x="1080" d="M782 404Q782 525 716 591T530 657Q495 657 453 647T379 618Q357 629 339 651T312 701Q362 730 432 748T564 766Q663 766 749 728T888 608T941 398Q941 289 902 209T799 78T658 1T503 -24Q380 -24 283 11T120 99Q126
126 146 156T189 205Q253 159 325 130T483 101Q606 101 694 176T782 404ZM622 838Q593 808 554 776T477 717T408 673L312 701L598 1006Q612 1020 637 1046T689 1098T734 1141L728 1147Q694 1140 618 1137T477 1133H171Q167 1146 166 1160T164 1186Q164 1206 167
1226T177 1266H861Q878 1233 887 1206T897 1163Q897 1127 863 1090L622 838Z" />
<glyph unicode="4" horiz-adv-x="1080" d="M143 302Q127 325 117 347T107 392Q107 409 118 439T149 512L498 1276Q519 1282 546 1280T598 1271T640 1252L354 634Q340 601 323 564T290 492T259 431L263 425Q300 427 339 428T414 429T472 429H771Q787 429 811 430T851
431H986Q989 414 989 399T990 370Q990 357 988 338T980 302H851Q835 302 811 303T771 304H628Q612 304 587 303T544 302H143ZM626 218Q626 235 627 261T628 304V427Q628 441 627 467T626 509V717Q626 770 652 797T719 825H766L773 818V515Q773 499 772 473T771
429V304Q771 288 772 262T773 218V0Q757 -3 739 -4T698 -6Q678 -6 660 -5T626 0V218Z" />
<glyph unicode="5" horiz-adv-x="1080" d="M340 851Q339 814 334 771T319 693Q292 682 263 676T185 662L212 1254L346 1236Q348 1209 349 1165T350 1077T348 1007L340 851ZM143 97Q148 123 167 153T210 200Q272 158 341 130T500 101Q572 101 637 135T742 241T783
428Q783 542 741 604T636 690T513 714Q448 714 381 688T256 612Q235 616 215 631T185 662Q223 710 279 750T405 815T548 839Q721 839 831 734T942 438Q942 279 879 177T715 25T505 -24Q385 -24 294 12T143 97ZM874 1266Q879 1251 882 1234T885 1204Q885 1133 815
1133H459Q406 1133 360 1134T277 1138T216 1143L212 1254L224 1266H874Z" />
<glyph unicode="6" horiz-adv-x="1080" d="M554 -24Q476 -24 421 -4T330 44T276 92Q263 107 239 139T191 232T149 393T131 644Q131 839 186 984T352 1209T628 1290Q705 1290 777 1275T897 1230Q894 1201 878 1169T837 1120Q800 1137 750 1151T633 1166Q509 1166
433 1101T323 927T288 686V533Q288 489 297 425T327 295T384 182Q413 145 456 122T556 98Q677 98 742 183T808 410Q808 525 775 590T687 682T564 710Q509 710 448 685T334 615T248 509L211 599Q240 666 300 721T438 809T601 843Q764 843 865 738T966 420Q966 293
915 193T772 34T554 -24Z" />
<glyph unicode="7" horiz-adv-x="1080" d="M935 1266Q947 1243 955 1216T964 1169Q964 1152 957 1135T930 1089Q829 953 755 829T629 582T546 331T500 60L494 0Q478 -4 457 -6T413 -8Q393 -8 371 -6T335 0L343 75Q363 263 427 454T592 822T816 1139L810 1145Q792
1141 748 1139T650 1136T552 1134T489 1133H154Q147 1155 147 1186Q147 1206 150 1226T160 1266H935Z" />
<glyph unicode="8" horiz-adv-x="1080" d="M119 316Q119 410 164 487T282 617T435 692L569 645Q430 614 352 524T274 329Q274 210 352 151T536 91Q606 91 666 119T764 202T802 334Q802 415 759 470T649 559T511 611L486 617Q397 640 322 685T201 799T155 960Q155
1058 206 1132T345 1248T538 1290Q650 1290 736 1250T873 1139T923 972Q923 891 885 826T785 715T647 647L519 693Q633 720 701 795T769 964Q769 1065 701 1119T538 1174Q444 1174 377 1118T309 964Q309 869 382 814T575 729L601 722Q700 697 781 645T911 515T959
332Q959 221 900 141T744 19T532 -24Q349 -24 234 64T119 316Z" />
<glyph unicode="9" horiz-adv-x="1080" d="M526 1290Q605 1290 660 1270T751 1223T804 1174Q817 1159 841 1127T889 1034T931 873T949 622Q949 428 894 283T728 57T452 -24Q375 -24 303 -8T183 36Q186 65 202 97T243 146Q280 130 330 116T447 101Q571 101 647
166T757 340T792 580V733Q792 778 784 842T755 972T696 1084Q667 1121 624 1144T524 1168Q403 1168 338 1084T272 856Q272 742 305 677T393 584T516 556Q572 556 632 581T746 652T832 757L869 667Q840 601 780 546T642 457T480 424Q317 424 216 528T114 846Q114
973 165 1073T308 1232T526 1290Z" />
<glyph unicode=":" horiz-adv-x="509" d="M135 94Q135 112 139 140T151 182Q165 190 195 196T254 203Q279 203 311 197T357 182Q365 169 369 141T374 94Q374 76 370 48T357 7Q346 -1 313 -7T254 -14Q226 -14 196 -8T151 7Q144 20 140 48T135 94ZM135 774Q135 792
139 820T151 862Q165 870 195 876T254 883Q279 883 311 877T357 862Q365 849 369 821T374 774Q374 756 370 728T357 687Q346 679 313 673T254 666Q226 666 196 672T151 687Q144 700 140 728T135 774Z" />
<glyph unicode=";" horiz-adv-x="517" d="M615 182Q624 163 629 130T635 64Q635 -14 606 -85T520 -213T374 -301Q353 -290 342 -266T332 -220Q400 -187 442 -134T486 -18Q469 -15 445 -8T409 8Q403 19 398 44T393 92Q393 115 397 143T409 182Q422 189 455 196T514
203Q539 203 570 198T615 182ZM139 774Q139 792 143 820T155 862Q169 870 199 876T258 883Q283 883 315 877T361 862Q369 849 373 821T378 774Q378 756 374 728T361 687Q350 679 317 673T258 666Q230 666 200 672T155 687Q148 700 144 728T139 774Z" />
<glyph unicode="&lt;" horiz-adv-x="1080" d="M875 1093Q900 1076 920 1045T945 974L411 692Q385 678 341 657T277 625V613Q297 603 341 582T411 547L945 264Q941 225 920 194T875 145L120 556Q112 586 111 619T120 682L875 1093Z" />
<glyph unicode="=" horiz-adv-x="1080" d="M127 383Q124 397 123 414T121 450Q121 471 122 488T127 521H953Q956 505 957 488T959 450Q959 431 958 414T953 383H127ZM127 727Q124 741 123 758T121 794Q121 815 122 832T127 865H953Q956 849 957 832T959 794Q959
775 958 758T953 727H127Z" />
<glyph unicode="&gt;" horiz-adv-x="1061" d="M196 147Q171 164 151 195T125 266L660 549Q686 563 730 584T794 615V627Q774 638 730 659T660 693L125 976Q130 1016 150 1047T196 1095L951 684Q959 655 960 622T951 558L196 147Z" />
<glyph unicode="?" horiz-adv-x="764" d="M32 1295Q112 1336 206 1362T397 1389Q550 1389 647 1301T745 1060Q745 927 669 834T485 678L357 604L343 373Q330 368 316 366T287 364Q272 364 256 366T226 373L218 671L230 689L321 738Q440 801 511 875T583 1047Q583
1140 525 1196T365 1253Q294 1253 223 1231T88 1177Q70 1194 53 1228T32 1295ZM286 187Q311 187 338 182T381 166Q387 156 391 130T395 86Q395 69 391 43T381 6Q365 -4 338 -9T286 -15Q226 -15 192 6Q186 17 182 43T178 86Q178 103 182 129T192 166Q226 187 286
187Z" />
<glyph unicode="@" horiz-adv-x="1864" d="M1288 307Q1288 219 1313 183T1390 147Q1445 147 1498 188T1587 324T1622 579Q1622 774 1541 921T1313 1150T965 1233Q806 1233 677 1174T455 1009T313 762T263 455Q263 232 342 77T561 -160T884 -242Q999 -242 1102
-225T1296 -170Q1314 -185 1327 -216T1340 -278Q1266 -305 1190 -323T1036 -351T877 -361Q657 -361 485 -266T213 11T114 455Q114 644 176 806T351 1090T621 1278T965 1346Q1145 1346 1292 1291T1546 1133T1711 888T1769 573Q1769 399 1714 278T1570 92T1380 28Q1305
28 1252 58T1172 141T1144 267V769Q1117 798 1068 820T959 843Q880 843 825 790T740 649T711 453Q711 321 757 232T906 143Q956 143 1008 172T1104 247T1166 341L1225 258Q1201 199 1148 144T1025 54T877 19Q782 19 711 71T602 221T563 452Q563 587 608 702T742
887T959 957Q1059 957 1143 920T1288 826V307Z" />
<glyph unicode="A" horiz-adv-x="1194" d="M509 1366Q527 1369 553 1370T599 1372Q616 1372 642 1371T682 1366L1141 9Q1124 -2 1101 -7T1050 -12Q1013 -12 994 4T958 67L695 866Q665 955 638 1044T592 1201H582Q572 1162 560 1117T535 1031T515 963L199 -2Q185
-5 167 -6T131 -8Q108 -8 91 -5T56 2L52 9L509 1366ZM454 354Q448 354 414 354T345 355T303 356H242L291 487H345Q352 487 381 487T439 488T475 489H704Q711 489 740 489T800 488T838 487H892L936 356H876Q869 356 834 356T765 355T723 354H454Z" />
<glyph unicode="B" horiz-adv-x="1200" d="M210 1366Q314 1368 409 1370T600 1372Q752 1372 844 1326T978 1199T1020 1012Q1020 935 987 870T892 762T748 711V739Q832 739 909 693T1036 565T1086 377Q1086 282 1043 194T898 50T622 -6Q498 -6 406 -4T210 0L197
12V1354L210 1366ZM351 119Q422 119 493 120T634 121Q757 121 819 164T903 270T925 387Q925 441 899 503T805 609T615 653H287V783H597Q706 783 762 819T839 909T860 1015Q860 1069 842 1122T768 1210T603 1245Q553 1245 479 1245T351 1247V119Z" />
<glyph unicode="C" horiz-adv-x="1201" d="M951 934Q951 1006 923 1081T827 1209T640 1261Q466 1261 371 1112T276 676Q276 409 373 260T639 110Q727 110 818 147T1005 269Q1033 252 1056 224T1089 169Q1036 115 963 71T802 2T616 -24Q480 -24 385 34T229 191T142
415T114 676Q114 924 187 1081T380 1314T641 1390Q786 1390 890 1334T1050 1192T1106 1014Q1106 981 1090 952T1020 923Q1001 923 987 925T951 934Z" />
<glyph unicode="D" horiz-adv-x="1275" d="M1158 682Q1158 565 1143 459T1085 260T953 94Q911 58 852 36T730 3T615 -8Q537 -8 479 -7T359 -4T210 0L197 12V1354L210 1366Q297 1369 358 1370T478 1372T615 1372Q667 1372 729 1362T851 1329T953 1270Q1040 1196
1084 1104T1143 905T1158 682ZM996 682Q996 779 983 878T930 1059T814 1192T613 1243Q544 1243 486 1244T351 1245V123Q428 123 486 122T613 121Q738 121 814 171T929 305T982 487T996 682Z" />
<glyph unicode="E" horiz-adv-x="1125" d="M197 1354L209 1366H345V1240Q345 1198 346 1175T347 1111V205Q347 185 346 168T345 128V0H285Q245 0 221 27T197 101V1354ZM880 757Q883 741 884 723T886 692Q886 679 885 661T880 626H466Q444 626 415 626T355 627T294
628V755Q323 755 354 755T415 756T466 757H880ZM983 1366Q986 1349 986 1333T987 1304Q987 1291 985 1272T976 1234H466Q444 1234 415 1234T355 1234T294 1236V1366H983ZM1016 133Q1016 55 993 28T913 0H294V125Q333 128 373 130T468 133H1016Z" />
<glyph unicode="F" horiz-adv-x="1028" d="M351 0Q335 -3 315 -4T273 -6Q253 -6 233 -5T197 0V1354L210 1366H349V1255Q349 1181 350 1106T351 957V0ZM967 1366Q972 1352 974 1336T977 1303Q977 1266 955 1249T885 1232H567Q481 1232 413 1234T293 1240V1366H967ZM870
757Q873 740 874 722T876 691Q876 678 875 661T870 626H461Q427 626 382 627T293 628V755Q336 755 381 756T461 757H870Z" />
<glyph unicode="G" horiz-adv-x="1274" d="M1132 1241Q1123 1202 1099 1171T1051 1122Q981 1179 883 1216T683 1253Q572 1253 480 1199T331 1017T275 670Q275 387 381 249T705 110Q815 110 913 137T1057 187L1134 62Q1073 38 995 19T834 -12T677 -24Q512 -24 403
36T231 196T141 421T114 673Q114 868 162 1005T293 1227T478 1351T688 1390Q805 1390 927 1350T1132 1241ZM984 429Q984 498 987 547T998 630L1134 582V62L984 59V429ZM1015 687Q1081 687 1107 662T1134 582V550H777Q758 550 728 559T698 618Q698 636 702 654T710
687H1015Z" />
<glyph unicode="H" horiz-adv-x="1336" d="M470 638Q464 638 437 638T384 639T349 640Q327 640 305 639T259 638V774Q282 774 304 773T349 772Q357 772 383 772T437 773T470 774H866Q873 774 899 774T953 773T987 772Q1010 772 1032 773T1077 774V638Q1055 638
1033 639T987 640Q980 640 953 640T900 639T866 638H470ZM351 0Q335 -3 315 -4T272 -6Q253 -6 233 -5T197 0V1366Q212 1369 232 1370T272 1372Q294 1372 314 1371T351 1366V920Q351 878 350 846T349 772V640Q349 600 350 567T351 492V0ZM985 492Q985 534 986 567T987
640V772Q987 813 986 845T985 920V1366Q1000 1369 1020 1370T1060 1372Q1082 1372 1102 1371T1139 1366V0Q1123 -3 1103 -4T1060 -6Q1040 -6 1020 -5T985 0V492Z" />
<glyph unicode="I" horiz-adv-x="564" d="M205 1366Q220 1369 240 1370T280 1372Q302 1372 322 1371T359 1366V0Q343 -3 323 -4T280 -6Q260 -6 240 -5T205 0V1366Z" />
<glyph unicode="J" horiz-adv-x="872" d="M83 179Q129 151 193 132T316 112Q447 112 498 190T549 452V1366Q565 1369 585 1370T627 1372Q647 1372 667 1371T702 1366V482Q702 377 689 286T637 126T523 19T323 -20Q247 -20 165 2T20 62Q28 97 43 126T83 179Z" />
<glyph unicode="K" horiz-adv-x="1166" d="M197 1366Q212 1369 232 1370T272 1372Q294 1372 314 1371T351 1366V0Q335 -3 315 -4T272 -6Q253 -6 233 -5T197 0V1366ZM1122 42Q1106 17 1074 4T1016 -10Q966 -10 945 15T905 90L778 415Q730 540 671 588T513 636Q489
636 430 636T270 630V739H583Q680 739 740 711T841 625T917 476L1041 164Q1055 131 1068 108T1094 70T1122 42ZM859 1296Q880 1332 900 1351T966 1370Q987 1370 1006 1369T1048 1366L1061 1350L724 807Q687 747 633 711T503 675H270V766Q320 769 385 770T496 772Q522
772 535 784T565 821L859 1296Z" />
<glyph unicode="L" horiz-adv-x="1012" d="M351 0H287Q250 0 224 25T197 103V1360L209 1372H271Q321 1372 336 1348T351 1273V0ZM949 136Q949 53 925 27T847 0H287L211 114Q282 125 368 130T524 136H949Z" />
<glyph unicode="M" horiz-adv-x="1587" d="M275 1366Q303 1371 333 1371T379 1372Q396 1372 423 1372T477 1366L707 664Q716 638 729 594T755 503T777 420T788 372H798Q800 383 809 419T832 503T858 594T880 664L1110 1366Q1141 1371 1166 1371T1208 1372Q1223
1372 1252 1372T1312 1366L1418 2Q1402 -2 1381 -5T1339 -8Q1320 -8 1304 -7T1269 -2L1213 826Q1210 872 1207 938T1202 1076T1197 1203H1187L869 213Q852 210 832 209T792 207Q773 207 754 208T717 213L400 1203H390Q387 1147 385 1076T380 939T374 826L317 -2Q300
-5 282 -6T244 -8Q225 -8 204 -5T169 2L275 1366Z" />
<glyph unicode="N" horiz-adv-x="1343" d="M197 1366Q217 1369 243 1370T289 1372Q312 1372 338 1371T384 1366L342 1182L328 1181Q330 1120 333 1047T338 897T340 750V0Q320 -3 302 -4T268 -6Q252 -6 235 -5T197 0V1366ZM470 907Q432 979 399 1047T334 1182L260
1274L384 1366L870 459Q909 386 943 315T1009 178L1083 103L957 0L470 907ZM1145 1362V0Q1126 -3 1104 -4T1052 -6Q1024 -6 1001 -5T957 0L1001 178H1015Q1012 251 1009 330T1005 487T1003 634V1273Q1003 1323 1017 1347T1082 1372H1133L1145 1362Z" />
<glyph unicode="O" horiz-adv-x="1306" d="M276 684Q276 587 292 485T350 297T464 157T653 104Q768 104 841 157T955 296T1012 485T1028 684Q1028 781 1012 882T956 1070T842 1209T653 1262Q538 1262 465 1209T350 1070T293 883T276 684ZM114 684Q114 879 172
1039T350 1294T653 1390Q837 1390 956 1295T1134 1039T1192 684Q1192 488 1134 328T956 72T653 -24Q469 -24 350 72T172 329T114 684Z" />
<glyph unicode="P" horiz-adv-x="1112" d="M1033 944Q1033 803 977 707T822 562T592 513H287V639Q324 640 384 640T503 641T596 642Q707 642 766 689T847 807T870 944Q870 1013 848 1082T766 1197T596 1244Q547 1244 477 1244T351 1246V0Q335 -3 315 -4T272 -6Q253
-6 233 -5T197 0V1354L210 1366Q314 1368 405 1370T592 1372Q720 1372 819 1324T976 1181T1033 944Z" />
<glyph unicode="Q" horiz-adv-x="1283" d="M275 684Q275 585 290 484T344 299T455 162T642 110Q756 110 828 162T938 298T991 484T1006 684Q1006 783 992 884T939 1071T828 1209T642 1262Q527 1262 455 1210T344 1072T290 885T275 684ZM114 684Q114 883 168 1042T338
1296T642 1390Q830 1390 946 1296T1116 1041T1170 684Q1170 567 1146 449T1073 233T948 74T770 10Q744 -3 723 -13T653 -24Q459 -24 341 69T168 322T114 684ZM609 28L786 83L904 -2Q973 -51 1017 -77T1094 -112T1157 -122Q1153 -185 1119 -211T1046 -237Q1010 -237
982 -227T925 -197L609 28Z" />
<glyph unicode="R" horiz-adv-x="1185" d="M1049 976Q1049 886 1017 813T926 688T786 612Q832 597 866 552T921 451L1025 181Q1050 115 1067 87T1109 38Q1093 12 1061 0T1003 -12Q957 -12 935 14T894 89L779 393Q750 471 705 523T558 576H287V702Q334 704 391
705T506 707T612 708Q722 708 781 749T864 851T887 976Q887 1042 864 1103T782 1204T612 1244Q563 1244 485 1244T351 1246V0Q335 -3 315 -4T272 -6Q253 -6 233 -5T197 0V1354L210 1366Q314 1368 416 1370T614 1372Q753 1372 850 1324T998 1188T1049 976Z" />
<glyph unicode="S" horiz-adv-x="1110" d="M77 126Q81 161 102 195T148 248Q237 187 342 149T549 111Q689 111 771 169T854 330Q854 421 793 482T641 582L399 684Q272 738 201 819T130 1020Q130 1120 183 1204T333 1339T564 1390Q680 1390 782 1361T962 1293Q961
1260 944 1225T901 1167Q822 1208 734 1233T569 1259Q444 1259 365 1197T286 1033Q286 952 343 904T480 822L715 724Q794 691 862 642T971 523T1013 362Q1013 251 962 164T806 26T542 -24Q416 -24 294 17T77 126Z" />
<glyph unicode="T" horiz-adv-x="965" d="M44 1234Q40 1251 39 1267T37 1300Q37 1316 38 1332T44 1366H924Q929 1352 931 1336T934 1303Q934 1266 912 1250T842 1234H670Q652 1234 617 1235T561 1236H408Q389 1236 354 1235T299 1234H44ZM408 1088Q408 1129 408
1161T408 1236V1300H561V1236Q561 1194 561 1162T561 1088V0Q545 -3 525 -4T485 -6Q466 -6 446 -5T408 0V1088Z" />
<glyph unicode="U" horiz-adv-x="1333" d="M1152 466Q1152 303 1090 194T918 31T665 -24Q524 -24 415 30T244 194T181 466V1360L193 1372H255Q305 1372 320 1348T335 1273V468Q335 289 422 196T666 103Q824 103 911 196T998 468V1366Q1013 1369 1033 1370T1073
1372Q1094 1372 1115 1371T1152 1366V466Z" />
<glyph unicode="V" horiz-adv-x="1114" d="M928 1366Q942 1369 958 1370T994 1372Q1014 1372 1033 1370T1065 1364L1071 1351L663 -2Q633 -5 606 -6T549 -8Q503 -8 479 9T441 72L54 1353Q77 1364 101 1371T150 1378Q179 1378 200 1363T235 1304L472 499Q485 455
501 396T534 276T565 165Q570 149 581 149L928 1366Z" />
<glyph unicode="W" horiz-adv-x="1642" d="M77 1359Q103 1372 124 1375T166 1378Q202 1378 220 1360T246 1297L394 529Q402 485 415 413T441 268T463 147Q466 131 469 129T479 126L727 1336Q749 1340 779 1341T828 1343Q850 1343 881 1342T928 1336L1154 147Q1157
133 1160 130T1171 126Q1182 191 1196 268T1224 415T1248 530L1424 1366Q1439 1369 1458 1370T1494 1372Q1512 1372 1531 1371T1569 1364L1577 1353L1279 2Q1249 -4 1206 -6T1134 -8Q1099 -8 1073 6T1038 73L926 666Q910 754 884 891T832 1176H820Q793 1029 767
893T720 666L579 0Q551 -4 511 -6T444 -8Q408 -8 378 7T336 75L77 1359Z" />
<glyph unicode="X" horiz-adv-x="1143" d="M103 1343Q129 1362 156 1370T207 1378Q232 1378 256 1364T303 1315L1097 24Q1072 5 1045 -3T993 -12Q968 -12 944 2T897 51L103 1343ZM904 1366Q912 1369 932 1371T968 1374Q992 1374 1013 1370T1047 1360L1053 1347L646
693L582 628L200 0Q191 -3 170 -5T132 -8Q108 -8 86 -4T52 7L46 19L505 752L569 819L904 1366Z" />
<glyph unicode="Y" horiz-adv-x="963" d="M407 542H560V0Q544 -3 524 -4T482 -6Q462 -6 442 -5T407 0V542ZM788 1366Q804 1371 822 1372T856 1374Q876 1374 894 1372T930 1364L937 1351L542 403H427L30 1349Q62 1367 86 1373T130 1380Q162 1380 181 1362T214 1307L407
842Q427 795 449 729T487 613H497Q508 647 524 693T557 782T580 843L788 1366Z" />
<glyph unicode="Z" horiz-adv-x="1105" d="M668 1018Q700 1069 739 1122T822 1239L816 1245Q798 1241 755 1239T660 1235T565 1232T502 1231H162Q158 1244 157 1257T155 1284Q155 1305 158 1325T168 1366H959Q969 1334 973 1314T980 1282T982 1261Q982 1245 976
1228T958 1190L425 363Q391 310 349 250T267 133L273 127Q336 133 390 135T482 137H743Q826 137 885 144T985 170Q991 151 995 131T999 91Q999 49 974 25T885 0H129Q119 33 114 52T108 83T106 103Q106 120 111 140T129 180L668 1018Z" />
<glyph unicode="[" horiz-adv-x="631" d="M200 1504L353 1449V-321L200 -370V1504ZM212 -383L200 -370L213 -246L558 -255Q563 -268 567 -286T571 -322Q571 -333 571 -344T566 -368L212 -383ZM566 1502Q570 1490 570 1479T571 1456Q571 1440 567 1421T558 1388L213
1380L200 1504L212 1516L566 1502Z" />
<glyph unicode="\" horiz-adv-x="813" d="M661 -312Q691 -310 728 -297T792 -263L159 1415Q127 1415 92 1402T27 1366L661 -312Z" />
<glyph unicode="]" horiz-adv-x="631" d="M431 1504L279 1449V-321L431 -370V1504ZM419 -383L431 -370L419 -246L73 -255Q69 -268 65 -286T60 -322Q60 -333 61 -344T65 -368L419 -383ZM65 1502Q62 1490 61 1479T60 1456Q60 1440 64 1421T73 1388L419 1380L431
1504L419 1516L65 1502Z" />
<glyph unicode="^" horiz-adv-x="1060" d="M955 612Q943 608 923 606T879 604Q858 604 838 606T803 612L601 1026Q589 1051 578 1075T557 1123T536 1170H524Q514 1147 504 1124T482 1076T459 1026L258 612Q243 608 223 606T181 604Q158 604 138 606T105 612L449
1296Q465 1300 486 1302T530 1304Q553 1304 574 1302T611 1296L955 612Z" />
<glyph unicode="_" horiz-adv-x="1020" d="M0 -286Q-3 -274 -4 -260T-6 -227Q-6 -206 -5 -191T0 -163H1020Q1024 -176 1025 -190T1027 -227Q1027 -264 1020 -286H0Z" />
<glyph unicode="`" horiz-adv-x="796" d="M321 1444Q281 1431 248 1399T200 1332L526 1073Q548 1079 567 1097T596 1136L321 1444Z" />
<glyph unicode="a" horiz-adv-x="1007" d="M102 266Q102 377 149 448T281 554T477 588Q539 588 611 582T747 559V453Q688 467 618 472T479 477Q375 477 314 425T252 277Q252 204 292 153T411 102Q491 102 582 157T737 324L762 189Q728 149 674 99T548 13T391 -24Q294
-24 230 19T134 128T102 266ZM896 63Q889 42 871 20T829 -14Q780 4 751 36T710 111T696 207V671Q696 782 647 828T515 875Q434 875 352 851T189 792Q169 809 154 843T138 908Q188 930 252 951T388 987T530 1001Q634 1001 703 963T806 851T840 669V257Q840 194 849
146T896 63Z" />
<glyph unicode="b" horiz-adv-x="1047" d="M322 50H177V1458L189 1470H243Q293 1470 307 1445T322 1369V50ZM946 503Q946 321 885 207T728 40T525 -14Q436 -14 349 2T177 50L253 170Q318 133 381 117T524 100Q597 100 659 143T758 275T796 502Q796 697 732 782T583
868Q492 868 411 810T285 672L262 804Q287 842 335 887T452 964T605 997Q718 997 793 934T907 760T946 503Z" />
<glyph unicode="c" horiz-adv-x="939" d="M711 634Q715 692 697 750T633 848T502 887Q393 887 326 785T259 483Q259 291 327 198T514 104Q588 104 651 138T770 215Q792 201 813 174T841 120Q772 56 686 16T494 -24Q387 -24 313 19T192 135T125 298T104 483Q104
618 137 717T227 879T356 974T506 1005Q601 1005 667 976T775 903T834 809T853 721Q853 683 839 655T774 627Q758 627 743 628T711 634Z" />
<glyph unicode="d" horiz-adv-x="1050" d="M871 277Q871 213 880 156T927 63Q920 42 901 20T859 -14Q780 15 753 82T726 229V1458L738 1470H792Q842 1470 856 1445T871 1369V277ZM102 479Q102 661 159 775T302 943T475 997Q566 997 646 960T798 866L790 734Q732
778 656 823T490 869Q430 869 376 829T287 703T252 478Q252 345 282 263T362 143T466 105Q527 105 589 136T701 226T777 366L804 226Q780 166 728 109T603 14T437 -24Q328 -24 253 39T140 216T102 479Z" />
<glyph unicode="e" horiz-adv-x="1005" d="M194 445V559H740V587Q740 670 717 739T641 849T504 891Q386 891 324 791T261 526V479Q261 371 284 287T364 154T518 106Q598 106 670 130T808 191Q829 172 844 142T862 88Q793 39 697 8T498 -24Q386 -24 310 17T189
131T124 297T104 492Q104 640 151 756T287 938T504 1005Q633 1005 718 948T847 793T890 578Q890 540 888 511T881 445H194Z" />
<glyph unicode="f" horiz-adv-x="641" d="M285 979L644 983Q648 967 649 955T651 926Q651 910 650 897T644 869L286 873L44 869Q41 883 39 896T37 926Q37 942 39 954T44 983L285 979ZM216 915Q210 990 203 1059T195 1187Q195 1269 227 1335T324 1439T483 1478Q536
1478 601 1465T710 1435Q710 1408 701 1380T674 1333Q630 1347 583 1356T491 1365Q418 1365 377 1317T335 1180Q335 1119 343 1052T361 911V0Q328 -6 288 -6Q248 -6 216 0V915Z" />
<glyph unicode="g" horiz-adv-x="1047" d="M929 918Q892 884 883 826T873 704V76Q873 -25 864 -98T834 -223T782 -315Q741 -366 663 -403T476 -440Q385 -440 298 -420T146 -372Q147 -342 158 -309T188 -256Q250 -286 328 -303T461 -320Q579 -320 636 -276T712
-158T731 0V752Q731 832 756 899T861 995Q884 984 903 962T929 918ZM102 489Q102 670 159 783T302 951T474 1005Q556 1005 617 982T725 923T810 845L794 712Q745 779 663 828T494 877Q397 877 325 786T252 488Q252 288 315 201T464 113Q556 113 638 171T763 311L787
184Q763 145 714 99T596 18T443 -16Q331 -16 255 47T141 223T102 489Z" />
<glyph unicode="h" horiz-adv-x="1088" d="M322 0Q294 -6 249 -6Q206 -6 177 0V1458L189 1470H243Q293 1470 307 1445T322 1369V0ZM923 190Q923 141 927 97T946 20Q930 6 905 -3T853 -12Q811 -12 793 12T775 85V638Q775 757 745 810T629 863Q568 863 500 835T374
759T282 653V810Q347 892 452 944T666 997Q761 997 817 955T898 841T923 685V190Z" />
<glyph unicode="i" horiz-adv-x="513" d="M340 0Q326 -3 307 -4T267 -6Q245 -6 226 -5T193 0V772Q193 827 175 848T110 869H91Q85 898 85 924Q85 938 86 950T91 979Q125 984 150 985T192 987H209Q271 987 305 949T340 844V0ZM131 1240Q131 1259 135 1280T146 1315Q160
1324 186 1329T235 1335Q256 1335 284 1330T324 1315Q331 1302 335 1281T339 1240Q339 1222 335 1201T324 1166Q314 1157 285 1151T235 1145Q212 1145 186 1150T146 1166Q139 1179 135 1200T131 1240Z" />
<glyph unicode="j" horiz-adv-x="527" d="M354 -87Q354 -192 332 -260T257 -370T116 -438Q101 -422 89 -399T69 -345Q125 -315 154 -286T195 -212T207 -97V772Q207 827 189 848T124 869H87Q81 898 81 924Q81 938 82 950T87 979Q122 984 156 985T209 987H227Q286
987 320 949T354 844V-87ZM144 1240Q144 1259 148 1280T159 1315Q173 1324 199 1329T248 1335Q269 1335 297 1330T337 1315Q344 1302 348 1281T352 1240Q352 1222 348 1201T337 1166Q327 1157 298 1151T248 1145Q225 1145 199 1150T159 1166Q152 1179 148 1200T144
1240Z" />
<glyph unicode="k" horiz-adv-x="980" d="M322 0Q308 -3 289 -4T249 -6Q206 -6 177 0V1458L189 1470H243Q293 1470 307 1445T322 1369V0ZM840 182Q863 130 886 91T936 33Q923 15 895 2T837 -12Q788 -12 766 16T723 92L630 300Q593 386 554 416T429 447Q409 447
380 446T314 441L247 435V549H489Q597 549 656 505T761 358L840 182ZM612 597Q575 540 529 518T421 495H259V563L409 571Q423 571 433 578T453 597L667 915Q690 949 712 968T781 987Q802 987 818 987T854 985L866 969L612 597Z" />
<glyph unicode="l" horiz-adv-x="566" d="M477 115Q483 99 486 78T490 35Q490 27 490 19T487 4Q458 0 416 -4T341 -8Q266 -8 220 34T173 158V1458L185 1470H239Q289 1470 303 1445T318 1369V199Q318 115 393 115H477Z" />
<glyph unicode="m" horiz-adv-x="1582" d="M244 987Q294 987 309 961T324 884V0Q310 -3 291 -4T251 -6Q229 -6 210 -5T177 0V973L189 987H244ZM722 640Q722 759 692 812T587 865Q534 865 473 835T358 750T271 621V785Q313 851 369 899T489 973T618 999Q705 999
761 957T843 845T870 691V0Q855 -3 836 -4T797 -6Q775 -6 756 -5T722 0V640ZM1269 642Q1269 761 1239 813T1134 865Q1082 865 1022 837T906 754T813 620V817Q865 871 922 912T1040 976T1166 999Q1253 999 1308 957T1390 845T1417 690V190Q1417 141 1421 97T1440
20Q1424 6 1399 -3T1347 -12Q1305 -12 1287 12T1269 85V642Z" />
<glyph unicode="n" horiz-adv-x="1090" d="M244 987Q294 987 309 961T324 884V0Q310 -3 291 -4T251 -6Q229 -6 210 -5T177 0V975L189 987H244ZM925 190Q925 141 930 97T949 20Q933 6 907 -3T855 -12Q813 -12 796 12T778 85V640Q778 759 748 812T631 865Q570 865
502 837T376 761T284 655V812Q349 894 454 946T668 999Q763 999 819 957T900 843T925 687V190Z" />
<glyph unicode="o" horiz-adv-x="1038" d="M935 491Q935 342 888 226T749 43T518 -24Q381 -24 289 43T150 227T104 491Q104 639 151 755T290 938T518 1005Q657 1005 749 938T888 755T935 491ZM257 491Q257 392 281 301T363 151T520 92Q619 92 676 150T757 300T781
491Q781 589 757 681T676 832T520 891Q421 891 364 832T282 681T257 491Z" />
<glyph unicode="p" horiz-adv-x="1051" d="M241 987Q291 987 306 960T322 882V-329Q322 -378 308 -404T243 -430H189L177 -418V975L189 987H241ZM950 503Q950 321 893 206T750 38T576 -16Q485 -16 405 22T254 116L262 247Q319 203 396 158T562 112Q622 112 676
152T765 278T800 503Q800 637 770 719T690 838T585 876Q525 876 463 845T350 755T274 615L248 755Q272 815 323 872T449 967T614 1005Q724 1005 799 942T912 765T950 503Z" />
<glyph unicode="q" horiz-adv-x="1048" d="M102 489Q102 670 159 783T302 951T474 1005Q556 1005 617 983T725 926T810 849L794 712Q745 779 663 828T494 877Q432 877 377 837T287 712T252 488Q252 288 316 201T464 113Q556 113 638 171T763 311L787 180Q763 141
714 96T596 17T443 -16Q331 -16 255 47T141 223T102 489ZM728 752Q728 832 755 899T861 995Q884 984 903 962T929 918Q892 884 883 826T873 704V-418L861 -430H807Q757 -430 743 -404T728 -329V752Z" />
<glyph unicode="r" horiz-adv-x="705" d="M690 987Q690 953 683 914T655 846Q639 848 621 848T586 849Q519 849 471 821T391 749T340 659T311 574L284 607Q284 671 302 739T357 865T454 959T598 995Q615 995 638 994T690 987ZM122 913Q129 933 147 957T186 995Q265
967 301 896T342 723V0Q328 -3 309 -4T269 -6Q247 -6 228 -5T195 0V708Q195 783 172 834T122 913Z" />
<glyph unicode="s" horiz-adv-x="869" d="M74 76Q76 102 93 134T132 184Q194 150 266 121T415 92Q510 92 568 135T628 247Q628 297 590 340T483 409L364 453Q296 478 238 514T145 604T109 730Q109 816 154 877T276 972T444 1005Q518 1005 602 987T747 940Q748
920 743 899T727 858T701 824Q654 846 586 865T440 885Q361 885 312 846T262 740Q262 689 299 656T411 594L534 548Q646 507 714 438T782 258Q782 125 678 51T412 -24Q307 -24 222 6T74 76Z" />
<glyph unicode="t" horiz-adv-x="674" d="M211 1190Q211 1240 225 1265T290 1291H344L356 1278V197Q356 161 374 138T435 115H587Q599 82 599 35Q599 27 599 19T597 4Q550 -2 502 -5T394 -8Q310 -8 261 34T211 158V1190ZM609 983Q616 954 616 926Q616 896 609
869L307 873L70 869Q64 898 64 926Q64 952 70 983L306 979L609 983Z" />
<glyph unicode="u" horiz-adv-x="1092" d="M914 277Q914 213 923 156T970 63Q962 42 944 20T902 -14Q823 15 795 82T766 229V981Q780 984 799 985T839 987Q861 987 880 986T914 981V277ZM165 792Q165 840 161 884T142 961Q158 975 184 984T235 993Q277 993 295
969T313 896V341Q313 223 343 170T459 116Q521 116 588 144T714 220T806 326V170Q742 88 637 35T422 -18Q328 -18 272 24T190 138T165 295V792Z" />
<glyph unicode="v" horiz-adv-x="884" d="M727 983Q744 988 758 988T786 989Q807 989 824 986T859 978L863 972Q826 853 781 717T691 447T605 197T536 0Q512 -6 485 -8T433 -10Q387 -10 365 6T321 87L22 970Q53 985 73 990T113 995Q140 995 158 983T187 938L345
462Q364 406 383 344T417 229T440 144Q443 134 446 131T458 128L727 983Z" />
<glyph unicode="w" horiz-adv-x="1408" d="M65 972Q94 986 116 990T156 995Q179 995 198 984T224 937L330 471Q351 380 370 284T403 129Q406 111 419 111L619 980Q636 984 665 985T710 987Q729 987 757 986T800 980L990 129Q993 111 1006 111Q1028 209 1047 296T1088
471L1208 983Q1221 986 1240 987T1279 989Q1299 989 1317 986T1348 978L1353 972L1104 -2Q1083 -5 1050 -6T989 -8Q947 -8 918 7T874 87L804 399Q793 454 778 528T747 682T713 836H705Q689 763 672 683T637 529T607 399L511 0Q486 -4 450 -6T385 -8Q352 -8 324
8T280 87L65 972Z" />
<glyph unicode="x" horiz-adv-x="898" d="M71 961Q91 975 120 986T174 997Q201 997 217 985T249 952L854 22Q834 9 805 -2T750 -14Q723 -14 706 -2T675 31L71 961ZM669 981Q677 984 696 986T732 989Q756 989 775 986T805 977L811 964L511 492L465 442L188 -2Q180
-5 159 -7T121 -10Q100 -10 81 -6T50 4L44 17L383 545L435 601L669 981Z" />
<glyph unicode="y" horiz-adv-x="903" d="M598 34Q551 -127 500 -231T373 -385T178 -436Q138 -436 90 -428T15 -409Q14 -382 24 -351T49 -303Q69 -310 107 -316T180 -323Q257 -323 305 -287T385 -185T444 -29L450 -8Q399 -5 371 14T325 89L46 970Q74 983 95 989T134
995Q160 995 180 981T212 926L370 424Q387 371 404 315T436 206T462 113Q467 99 482 99L726 983Q741 986 759 987T795 989Q815 989 834 987T868 979L872 972L598 34Z" />
<glyph unicode="z" horiz-adv-x="889" d="M483 669Q516 714 558 765T640 865L634 871Q610 868 562 866T458 862T359 861H118Q115 873 115 888T114 911Q114 922 116 942T122 981H775Q789 944 794 924T800 887Q800 874 794 860T775 829L406 325Q372 277 328 222T249
122L255 116Q307 119 362 120T454 122H564Q644 122 702 127T796 147Q802 131 805 112T809 76Q809 40 786 20T699 0H107Q93 38 88 56T82 92Q82 105 87 120T107 155L483 669Z" />
<glyph unicode="{" horiz-adv-x="635" d="M82 599Q149 625 196 687T243 844V1194Q243 1331 317 1408T506 1505L591 1519Q602 1508 609 1489T618 1449T617 1410L529 1383Q462 1363 429 1315T396 1192V848Q396 757 353 675T235 556V540Q309 505 352 423T396 249V-97Q396
-171 429 -219T529 -288L617 -315Q621 -333 619 -354T609 -393T591 -424L506 -410Q392 -390 318 -313T243 -99V253Q243 347 196 409T82 498Q75 515 75 548T82 599Z" />
<glyph unicode="|" horiz-adv-x="495" d="M177 1550Q192 1553 210 1554T246 1556Q266 1556 284 1555T318 1550V-280Q302 -284 284 -285T246 -287Q229 -287 211 -286T177 -280V1550Z" />
<glyph unicode="}" horiz-adv-x="635" d="M553 599Q486 625 439 687T392 844V1194Q392 1331 318 1408T129 1505L44 1519Q34 1508 27 1489T17 1449T18 1410L106 1383Q173 1363 206 1315T239 1192V848Q239 757 283 675T400 556V540Q327 505 283 423T239 249V-97Q239
-171 206 -219T106 -288L18 -315Q14 -333 16 -354T26 -393T44 -424L129 -410Q243 -390 317 -313T392 -99V253Q392 347 439 409T553 498Q561 515 561 548T553 599Z" />
<glyph unicode="~" horiz-adv-x="1120" d="M675 611Q704 599 732 592T786 585Q825 585 856 604T913 656L944 695Q970 694 996 678T1032 637L1013 601Q972 522 909 483T763 443Q722 443 680 454T598 483L445 551Q417 563 389 570T334 577Q296 577 265 558T207 506L176
467Q151 469 125 485T89 525L108 561Q149 640 211 679T358 719Q399 719 441 708T523 679L675 611Z" />
<glyph unicode="&#xa0;" horiz-adv-x="440" />
<glyph unicode="&#xa1;" horiz-adv-x="554" d="M338 608Q346 405 355 204T364 -200V-385Q343 -390 311 -392T247 -392T193 -383V-199Q193 3 201 204T219 608Q233 613 248 615T279 617Q294 617 309 615T338 608ZM279 794Q220 794 185 814Q179 825 175 851T171 895Q171
912 175 938T185 975Q201 984 227 989T279 995Q305 995 330 990T372 975Q378 964 382 938T386 895Q386 878 382 852T372 814Q356 805 331 800T279 794Z" />
<glyph unicode="&#xa2;" horiz-adv-x="1080" d="M566 -47Q551 -47 532 -46T499 -41V219H632V-41Q619 -44 600 -45T566 -47ZM505 1036V1307Q519 1310 537 1311T572 1313Q589 1313 607 1312T638 1307V1036H505ZM563 137Q444 137 363 180T231 296T159 454T137 626Q137
797 198 908T360 1074T574 1129Q676 1129 747 1100T861 1027T925 934T945 846Q945 807 931 779T866 750Q848 750 833 752T804 758Q808 815 788 873T716 970T570 1009Q443 1009 370 910T296 626Q296 449 370 357T582 265Q664 265 733 299T859 380Q882 369 905 343T937
290Q893 242 834 208T707 156T563 137Z" />
<glyph unicode="&#xa3;" horiz-adv-x="1080" d="M182 0Q167 45 163 66T159 100Q159 129 175 151T207 192L232 220Q282 276 315 334T348 473Q348 552 325 629T278 783T254 938Q254 1024 295 1105T418 1240T625 1293Q740 1293 821 1251T950 1164Q944 1133 923 1102T870
1055Q815 1108 753 1134T627 1161Q541 1161 478 1105T415 935Q415 865 435 793T476 644T496 483Q496 367 440 280T313 130L318 125Q377 127 455 130T616 133H967Q967 48 941 24T868 0H182ZM165 547Q159 571 159 602Q159 631 165 662L393 660L797 662Q800 649 802
636T804 605Q804 590 802 575T797 547L393 548L165 547Z" />
<glyph unicode="&#xa4;" horiz-adv-x="1080" d="M539 255Q430 255 345 304T211 439T162 632Q162 741 210 826T344 961T539 1011Q650 1011 735 962T869 827T918 632Q918 525 870 440T736 305T539 255ZM539 371Q648 371 710 448T772 632Q772 739 710 817T539 895Q432
895 370 817T308 632Q308 525 370 448T539 371ZM152 159Q125 173 102 196T64 247L260 456L361 353L152 159ZM260 810L64 1019Q78 1046 101 1070T152 1107L361 913L260 810ZM820 810L719 913L928 1107Q955 1094 978 1070T1016 1019L820 810ZM927 159L719 353L820
455L1015 247Q1002 220 979 197T927 159Z" />
<glyph unicode="&#xa5;" horiz-adv-x="1080" d="M467 444L105 1255Q134 1271 157 1277T202 1284Q257 1284 284 1217L454 822Q480 762 500 707T540 594H550Q569 647 592 707T638 822L827 1271Q843 1276 861 1277T894 1279Q914 1279 932 1277T969 1269L975 1257L613
444H467ZM538 -6Q521 -6 501 -5T465 0V493H614V0Q598 -3 578 -4T538 -6ZM164 349Q161 363 160 376T158 406Q158 421 159 435T164 463H915Q922 433 922 407Q922 382 915 349H164ZM164 637Q161 649 160 663T158 694Q158 709 159 723T164 751L433 750V637H164ZM646
637V750L915 751Q918 738 920 724T922 694Q922 680 920 666T915 637H646Z" />
<glyph unicode="&#xa6;" horiz-adv-x="483" d="M171 494Q186 497 204 498T240 500Q260 500 278 499T312 494V-280Q296 -284 278 -285T240 -287Q223 -287 205 -286T171 -280V494ZM171 1550Q186 1553 204 1554T240 1556Q260 1556 278 1555T312 1550V776Q296 772
278 771T240 769Q223 769 205 770T171 776V1550Z" />
<glyph unicode="&#xa7;" horiz-adv-x="955" d="M506 345Q593 377 663 436T733 583Q733 634 702 670T621 732T517 779L404 823Q338 849 280 887T185 982T148 1116Q148 1201 194 1262T317 1357T486 1390Q560 1390 642 1371T786 1322Q786 1292 774 1260T739 1207Q692
1228 624 1249T483 1270Q404 1270 353 1231T301 1125Q301 1071 341 1035T451 971L569 925Q651 893 723 852T842 750T888 601Q888 518 841 451T720 336T564 266L506 345ZM450 840Q393 818 341 785T256 706T223 602Q223 551 254 515T336 453T440 405L552 362Q619
336 677 298T771 203T808 69Q808 -16 762 -77T636 -172T455 -206Q374 -206 285 -183T137 -122Q137 -92 155 -59T193 -10Q240 -35 307 -60T463 -86Q552 -86 604 -47T656 60Q656 114 616 150T506 214L388 260Q307 293 234 334T115 435T69 584Q69 668 116 735T237
849T392 919L450 840Z" />
<glyph unicode="&#xa8;" horiz-adv-x="796" d="M128 1217Q128 1235 131 1254T141 1286Q154 1294 178 1299T221 1304Q240 1304 263 1299T300 1286Q307 1273 310 1254T314 1217Q314 1199 311 1180T300 1148Q287 1141 264 1136T221 1130Q202 1130 178 1135T141 1148Q135
1161 132 1180T128 1217ZM482 1217Q482 1235 485 1254T496 1286Q509 1294 532 1299T575 1304Q595 1304 618 1299T655 1286Q662 1273 665 1254T669 1217Q669 1199 666 1180T655 1148Q642 1141 619 1136T575 1130Q556 1130 533 1135T496 1148Q489 1161 486 1180T482
1217Z" />
<glyph unicode="&#xa9;" horiz-adv-x="1620" d="M90 682Q90 834 144 965T297 1194T526 1347T809 1402Q961 1402 1092 1347T1321 1194T1474 965T1529 682Q1529 530 1474 399T1321 171T1092 19T809 -36Q657 -36 526 18T297 170T145 399T90 682ZM230 682Q230 558
273 449T394 256T578 126T809 79Q934 79 1040 126T1224 256T1346 448T1390 682Q1390 807 1347 916T1225 1109T1040 1239T809 1287Q684 1287 578 1240T394 1109T273 917T230 682ZM982 777Q986 823 971 869T916 945T811 976Q719 976 663 901T607 682Q607 543 664
468T821 393Q878 393 936 419T1038 484Q1059 474 1077 451T1105 406Q1053 353 971 317T803 281Q699 281 622 331T503 471T461 682Q461 820 513 909T646 1043T815 1087Q920 1087 986 1047T1082 950T1113 846Q1113 815 1098 791T1041 767Q1023 767 1009 770T982 777Z"
/>
<glyph unicode="&#xaa;" horiz-adv-x="812" d="M80 732Q80 818 117 872T220 951T374 977Q427 977 485 973T594 960V860Q545 869 487 874T373 880Q301 880 258 843T215 742Q215 691 244 653T329 615Q389 615 463 660T587 789L610 676Q583 642 539 603T437 536T309
508Q231 508 181 541T105 625T80 732ZM711 581Q707 565 690 545T650 514Q593 534 568 579T542 690V1029Q542 1107 507 1141T412 1176Q345 1176 281 1161T152 1116Q136 1131 122 1159T107 1218Q166 1244 251 1267T420 1290Q504 1290 558 1261T640 1175T667 1035V730Q667
683 674 646T711 581Z" />
<glyph unicode="&#xab;" horiz-adv-x="1052" d="M666 512L973 168Q966 152 953 136T922 106T886 86L496 458Q488 478 488 510T496 562L875 927Q902 917 926 894T961 845L666 512ZM257 512L564 168Q557 152 544 136T513 106T477 86L87 458Q79 478 79 510T87 562L466
927Q493 917 517 894T552 845L257 512Z" />
<glyph unicode="&#xac;" horiz-adv-x="1080" d="M117 702Q114 686 113 670T111 633Q111 614 112 596T117 564H729Q746 564 771 565T812 566L949 564V690L937 702H117ZM804 575Q805 559 804 534T802 491V260Q819 256 836 255T876 253Q896 253 915 254T949 260V615H802L804
575Z" />
<glyph unicode="&#xad;" horiz-adv-x="671" d="M105 461Q102 476 101 493T99 529Q99 550 100 567T105 600H565Q569 584 570 567T572 529Q572 510 571 493T565 461H105Z" />
<glyph unicode="&#xae;" horiz-adv-x="1176" d="M77 974Q77 1117 145 1233T329 1417T587 1486Q730 1486 846 1418T1030 1233T1099 974Q1099 832 1031 716T846 532T587 464Q445 464 329 532T145 716T77 974ZM191 974Q191 862 243 770T385 622T587 567Q701 567 791
622T933 769T985 974Q985 1087 933 1179T791 1327T587 1383Q475 1383 385 1328T243 1180T191 974ZM784 1081Q784 1026 752 994T682 950Q702 941 713 927T748 869L780 812Q789 796 799 781T822 757Q812 742 794 730T752 718Q727 718 712 734T683 779L631 876Q621
894 606 905T566 917H457V999Q484 1001 523 1001T588 1001Q635 1001 657 1023T679 1076Q679 1105 659 1127T596 1150Q577 1150 548 1150T505 1150V728Q480 721 452 721Q424 721 400 728V1222L406 1228Q451 1230 503 1231T599 1232Q691 1232 737 1192T784 1081Z"
/>
<glyph unicode="&#xaf;" horiz-adv-x="796" d="M132 1155Q125 1183 125 1220Q125 1258 132 1289H664Q668 1273 669 1258T671 1220Q671 1183 664 1155H132Z" />
<glyph unicode="&#xb0;" horiz-adv-x="709" d="M60 992Q60 1077 99 1144T205 1250T355 1290Q438 1290 504 1251T610 1144T649 992Q649 908 610 840T505 733T355 693Q272 693 205 732T99 840T60 992ZM185 992Q185 913 230 860T355 806Q432 806 477 859T522 992Q522
1070 477 1124T355 1178Q276 1178 231 1124T185 992Z" />
<glyph unicode="&#xb1;" horiz-adv-x="1080" d="M147 736Q144 720 143 705T141 668Q141 648 142 631T147 599H394Q410 599 435 600T477 601H603Q620 601 645 600T687 599H933Q936 614 937 631T939 668Q939 690 938 705T933 736H687Q671 736 646 735T603 734H477Q461
734 436 735T394 736H147ZM467 810Q467 794 468 769T469 726V609Q469 593 468 568T467 525V273Q483 270 500 269T540 267Q560 267 579 268T613 273V525Q613 542 612 567T611 609V726Q611 743 612 768T613 810V1062Q599 1065 580 1066T540 1068Q518 1068 501 1067T467
1062V810ZM147 0Q144 17 143 33T141 69Q141 91 142 105T147 138H933Q936 119 937 105T939 69Q939 49 938 33T933 0H147Z" />
<glyph unicode="&#xb2;" horiz-adv-x="839" d="M143 1297Q171 1372 238 1429T410 1486Q527 1486 596 1414T666 1240Q666 1177 641 1128T579 1042T502 975L397 897Q328 846 298 806T267 729V651H173Q149 676 139 694T129 735Q129 787 176 853T292 974L416 1070Q457
1102 492 1144T527 1241Q527 1298 492 1334T401 1370Q348 1370 308 1335T242 1246Q224 1249 204 1256T168 1275T143 1297ZM688 771Q688 723 681 697T658 661T617 651H185L166 738Q215 758 290 764T415 771H688Z" />
<glyph unicode="&#xb3;" horiz-adv-x="839" d="M551 912Q551 992 504 1032T396 1072Q373 1072 347 1066T300 1047Q283 1055 269 1075T251 1121Q289 1138 347 1151T450 1164Q515 1164 568 1134T654 1047T686 910Q686 815 640 755T524 666T381 637Q297 637 230 660T118
718Q123 749 138 774T169 814Q213 786 266 767T380 748Q454 748 502 790T551 912ZM498 1215Q464 1180 416 1150T327 1099L251 1121L422 1302Q434 1315 453 1333T491 1364L487 1369Q463 1365 417 1363T332 1360H154Q151 1374 150 1389T148 1414Q148 1427 150 1443T157
1472H628Q636 1456 643 1436T650 1401Q650 1389 646 1377T628 1351L498 1215Z" />
<glyph unicode="&#xb4;" horiz-adv-x="796" d="M474 1444Q514 1431 547 1399T596 1332L269 1073Q247 1079 228 1097T200 1136L474 1444Z" />
<glyph unicode="&#xb5;" horiz-adv-x="1110" d="M230 442V301Q230 206 264 134T362 21T517 -20Q621 -20 698 33T824 167L823 331Q777 236 702 175T534 114Q443 114 383 172T322 343V442H230ZM931 981Q916 984 897 985T856 987Q836 987 817 986T783 981V230Q783
149 811 82T919 -14Q942 -3 961 19T987 63Q950 98 941 155T931 277V981ZM322 981Q294 987 248 987Q227 987 209 986T177 981V-236Q177 -283 172 -327T153 -406Q170 -420 194 -428T245 -436Q287 -436 302 -412T317 -338V155H322V981Z" />
<glyph unicode="&#xb6;" horiz-adv-x="1254" d="M586 117Q586 20 572 -46T516 -147T387 -182Q342 -182 290 -169T200 -139Q183 -159 170 -195T157 -260Q197 -277 266 -292T400 -307Q536 -307 609 -254T710 -102T739 135V1356L727 1368Q673 1371 636 1372T542 1374Q415
1374 315 1327T158 1186T101 949Q101 808 157 712T313 568T541 519H586V117ZM874 1354L887 1366H1028V-268Q1012 -271 992 -272T949 -274Q930 -274 910 -273T874 -268V1354ZM953 1366H1188Q1193 1350 1194 1324T1195 1272T1188 1230H1094Q1071 1230 1048 1231T1008
1233H953V1366Z" />
<glyph unicode="&#xb7;" horiz-adv-x="582" d="M179 524Q179 542 183 570T194 612Q208 620 236 626T291 633Q314 633 345 627T388 612Q396 599 400 571T404 524Q404 506 400 478T388 437Q377 429 346 423T291 416Q265 416 237 422T194 437Q187 450 183 478T179 524Z" />
<glyph unicode="&#xb8;" horiz-adv-x="796" d="M276 -145Q288 -110 307 -64T342 13H449Q440 -2 427 -31T407 -79Q478 -86 530 -131T582 -253Q582 -334 519 -385T363 -437Q318 -437 278 -427T214 -401Q216 -375 226 -353T250 -312Q270 -324 298 -332T354 -340Q407
-340 429 -313T452 -252Q452 -217 429 -191T356 -165Q344 -165 331 -167T307 -175Q296 -170 288 -162T276 -145Z" />
<glyph unicode="&#xb9;" horiz-adv-x="839" d="M525 701H396V1161Q396 1184 398 1211T401 1267T403 1321L402 1472Q419 1477 435 1478T466 1480Q480 1480 493 1479T525 1472V701ZM302 762Q319 762 348 761T396 760H525Q540 760 572 761T620 762H691Q694 749 695
735T697 707Q697 694 696 680T691 651H191Q188 668 187 681T185 707Q185 721 186 735T191 762H302ZM147 1208Q247 1264 306 1328T402 1472L454 1364Q429 1283 359 1222T203 1122Q181 1133 166 1157T147 1208Z" />
<glyph unicode="&#xba;" horiz-adv-x="778" d="M713 900Q713 809 689 727T604 587Q564 549 509 529T388 508Q324 508 268 527T174 587Q116 647 91 728T65 900Q65 989 88 1071T174 1212Q258 1290 388 1290Q453 1290 509 1272T604 1212Q662 1150 687 1070T713 900ZM202
900Q202 828 219 763T278 658T390 617Q460 617 500 657T558 763T576 900Q576 972 559 1037T501 1142T390 1183Q320 1183 279 1143T220 1037T202 900Z" />
<glyph unicode="&#xbb;" horiz-adv-x="1052" d="M386 501L79 845Q86 862 99 878T130 907T166 927L557 555Q565 535 565 503T557 451L177 86Q151 97 127 120T91 168L386 501ZM795 501L488 845Q495 862 508 878T539 907T575 927L966 555Q974 535 974 503T966 451L586
86Q560 97 536 120T500 168L795 501Z" />
<glyph unicode="&#xbc;" horiz-adv-x="1941" d="M525 851H396V1311Q396 1334 398 1361T401 1417T403 1471L402 1622Q419 1627 435 1628T466 1630Q480 1630 493 1629T525 1622V851ZM302 912Q319 912 348 911T396 910H525Q540 910 572 911T620 912H691Q694 899 695
885T697 857Q697 844 696 830T691 801H191Q188 818 187 831T185 857Q185 871 186 885T191 912H302ZM147 1358Q247 1414 306 1478T402 1622L454 1514Q429 1433 359 1372T203 1272Q181 1283 166 1307T147 1358ZM1332 1366Q1349 1373 1378 1375T1436 1376T1481 1366L729
0Q713 -7 684 -9T625 -10T580 0L1332 1366ZM1243 164Q1232 181 1223 202T1213 241Q1213 255 1223 282T1243 329L1480 829Q1509 834 1547 826T1603 798L1424 414Q1414 392 1402 368T1378 320T1352 279L1354 275Q1376 277 1396 277T1436 278T1469 279H1688Q1702 279
1719 279T1748 280H1819Q1822 269 1823 254T1825 227Q1825 214 1823 195T1815 164H1748Q1736 164 1719 164T1687 165H1563Q1551 165 1532 165T1499 164H1243ZM1562 111Q1562 121 1562 137T1563 165V276Q1563 285 1563 310T1562 345V423Q1562 466 1584 490T1641
514H1686L1689 510V350Q1689 337 1688 315T1687 279V165Q1687 154 1688 138T1689 111V0Q1677 -4 1660 -6T1627 -8Q1610 -8 1593 -6T1562 0V111Z" />
<glyph unicode="&#xbd;" horiz-adv-x="1958" d="M525 851H396V1311Q396 1334 398 1361T401 1417T403 1471L402 1622Q419 1627 435 1628T466 1630Q480 1630 493 1629T525 1622V851ZM302 912Q319 912 348 911T396 910H525Q540 910 572 911T620 912H691Q694 899 695
885T697 857Q697 844 696 830T691 801H191Q188 818 187 831T185 857Q185 871 186 885T191 912H302ZM147 1358Q247 1414 306 1478T402 1622L454 1514Q429 1433 359 1372T203 1272Q181 1283 166 1307T147 1358ZM1332 1366Q1349 1373 1378 1375T1436 1376T1481 1366L729
0Q713 -7 684 -9T625 -10T580 0L1332 1366ZM1262 646Q1290 721 1357 778T1529 835Q1646 835 1715 763T1785 589Q1785 526 1760 477T1698 391T1621 324L1516 246Q1447 195 1417 155T1386 78V0H1292Q1268 25 1258 43T1248 84Q1248 136 1295 202T1411 323L1535 419Q1576
451 1611 493T1646 590Q1646 647 1611 683T1520 719Q1467 719 1427 684T1361 595Q1343 598 1323 605T1287 624T1262 646ZM1807 120Q1807 72 1800 46T1777 10T1736 0H1304L1285 87Q1334 107 1409 113T1534 120H1807Z" />
<glyph unicode="&#xbe;" horiz-adv-x="1892" d="M551 1062Q551 1142 504 1182T396 1222Q373 1222 347 1216T300 1197Q283 1205 269 1225T251 1271Q289 1288 347 1301T450 1314Q515 1314 568 1284T654 1197T686 1060Q686 965 640 905T524 816T381 787Q297 787 230
810T118 868Q123 899 138 924T169 964Q213 936 266 917T380 898Q454 898 502 940T551 1062ZM498 1365Q464 1330 416 1300T327 1249L251 1271L422 1452Q434 1465 453 1483T491 1514L487 1519Q463 1515 417 1513T332 1510H154Q151 1524 150 1539T148 1564Q148 1577
150 1593T157 1622H628Q636 1606 643 1586T650 1551Q650 1539 646 1527T628 1501L498 1365ZM1283 1366Q1300 1373 1329 1375T1387 1376T1432 1366L680 0Q664 -7 635 -9T576 -10T531 0L1283 1366ZM1194 164Q1183 181 1174 202T1164 241Q1164 255 1174 282T1194 329L1431
829Q1460 834 1498 826T1554 798L1375 414Q1365 392 1353 368T1329 320T1303 279L1305 275Q1327 277 1347 277T1387 278T1420 279H1639Q1653 279 1670 279T1699 280H1770Q1773 269 1774 254T1776 227Q1776 214 1774 195T1766 164H1699Q1687 164 1670 164T1638 165H1514Q1502
165 1483 165T1450 164H1194ZM1513 111Q1513 121 1513 137T1514 165V276Q1514 285 1514 310T1513 345V423Q1513 466 1535 490T1592 514H1637L1640 510V350Q1640 337 1639 315T1638 279V165Q1638 154 1639 138T1640 111V0Q1628 -4 1611 -6T1578 -8Q1561 -8 1544
-6T1513 0V111Z" />
<glyph unicode="&#xbf;" horiz-adv-x="764" d="M733 -314Q653 -355 560 -381T368 -408Q215 -408 118 -320T20 -79Q20 54 96 147T280 303L408 377L422 608Q435 613 449 615T478 617Q493 617 509 615T539 608L547 310L535 292L444 243Q325 180 254 106T182 -66Q182
-159 241 -215T400 -272Q471 -272 542 -250T677 -196Q695 -213 712 -247T733 -314ZM479 794Q454 794 427 799T384 815Q378 826 374 852T370 895Q370 912 374 938T384 975Q400 985 427 990T479 996Q539 996 573 975Q579 964 583 938T587 895Q587 878 583 852T573
815Q539 794 479 794Z" />
<glyph unicode="&#xc0;" horiz-adv-x="1194" d="M509 1366Q527 1369 553 1370T599 1372Q616 1372 642 1371T682 1366L1141 9Q1124 -2 1101 -7T1050 -12Q1013 -12 994 4T958 67L695 866Q665 955 638 1044T592 1201H582Q572 1162 560 1117T535 1031T515 963L199
-2Q185 -5 167 -6T131 -8Q108 -8 91 -5T56 2L52 9L509 1366ZM454 354Q448 354 414 354T345 355T303 356H242L291 487H345Q352 487 381 487T439 488T475 489H704Q711 489 740 489T800 488T838 487H892L936 356H876Q869 356 834 356T765 355T723 354H454ZM421 1765Q403
1754 387 1733T360 1685T344 1631L754 1458Q775 1472 786 1496T803 1542L421 1765Z" />
<glyph unicode="&#xc1;" horiz-adv-x="1194" d="M509 1366Q527 1369 553 1370T599 1372Q616 1372 642 1371T682 1366L1141 9Q1124 -2 1101 -7T1050 -12Q1013 -12 994 4T958 67L695 866Q665 955 638 1044T592 1201H582Q572 1162 560 1117T535 1031T515 963L199
-2Q185 -5 167 -6T131 -8Q108 -8 91 -5T56 2L52 9L509 1366ZM454 354Q448 354 414 354T345 355T303 356H242L291 487H345Q352 487 381 487T439 488T475 489H704Q711 489 740 489T800 488T838 487H892L936 356H876Q869 356 834 356T765 355T723 354H454ZM803 1765Q821
1754 836 1733T863 1685T879 1631L469 1458Q449 1472 437 1496T421 1542L803 1765Z" />
<glyph unicode="&#xc2;" horiz-adv-x="1194" d="M509 1366Q527 1369 553 1370T599 1372Q616 1372 642 1371T682 1366L1141 9Q1124 -2 1101 -7T1050 -12Q1013 -12 994 4T958 67L695 866Q665 955 638 1044T592 1201H582Q572 1162 560 1117T535 1031T515 963L199
-2Q185 -5 167 -6T131 -8Q108 -8 91 -5T56 2L52 9L509 1366ZM454 354Q448 354 414 354T345 355T303 356H242L291 487H345Q352 487 381 487T439 488T475 489H704Q711 489 740 489T800 488T838 487H892L936 356H876Q869 356 834 356T765 355T723 354H454ZM666 1752L889
1545Q879 1519 858 1501T816 1476L597 1626L378 1476Q358 1482 336 1500T305 1545L527 1752Q541 1754 559 1755T597 1757Q617 1757 634 1756T666 1752Z" />
<glyph unicode="&#xc3;" horiz-adv-x="1194" d="M509 1366Q527 1369 553 1370T599 1372Q616 1372 642 1371T682 1366L1141 9Q1124 -2 1101 -7T1050 -12Q1013 -12 994 4T958 67L695 866Q665 955 638 1044T592 1201H582Q572 1162 560 1117T535 1031T515 963L199
-2Q185 -5 167 -6T131 -8Q108 -8 91 -5T56 2L52 9L509 1366ZM454 354Q448 354 414 354T345 355T303 356H242L291 487H345Q352 487 381 487T439 488T475 489H704Q711 489 740 489T800 488T838 487H892L936 356H876Q869 356 834 356T765 355T723 354H454ZM509 1568Q490
1577 475 1581T441 1586Q418 1586 396 1571T358 1536L332 1504Q309 1506 288 1519T258 1551L270 1580Q299 1649 346 1684T454 1720Q487 1720 514 1711T563 1691L678 1637Q698 1627 718 1622T753 1616Q776 1616 797 1630T836 1666L862 1697Q885 1696 907 1683T937
1651L924 1621Q896 1553 849 1518T741 1482Q707 1482 680 1491T631 1510L509 1568Z" />
<glyph unicode="&#xc4;" horiz-adv-x="1194" d="M509 1366Q527 1369 553 1370T599 1372Q616 1372 642 1371T682 1366L1141 9Q1124 -2 1101 -7T1050 -12Q1013 -12 994 4T958 67L695 866Q665 955 638 1044T592 1201H582Q572 1162 560 1117T535 1031T515 963L199
-2Q185 -5 167 -6T131 -8Q108 -8 91 -5T56 2L52 9L509 1366ZM454 354Q448 354 414 354T345 355T303 356H242L291 487H345Q352 487 381 487T439 488T475 489H704Q711 489 740 489T800 488T838 487H892L936 356H876Q869 356 834 356T765 355T723 354H454ZM795 1488Q773
1488 750 1492T711 1506Q704 1525 701 1543T698 1577Q698 1594 701 1612T711 1649Q727 1658 750 1662T795 1667Q817 1667 840 1663T878 1649Q886 1630 889 1612T892 1577Q892 1561 889 1543T878 1506Q863 1497 840 1493T795 1488ZM399 1488Q377 1488 354 1492T315
1506Q308 1525 305 1543T302 1577Q302 1594 305 1612T315 1649Q331 1658 354 1662T399 1667Q421 1667 444 1663T483 1649Q491 1630 493 1612T496 1577Q496 1561 494 1543T483 1506Q467 1497 444 1493T399 1488Z" />
<glyph unicode="&#xc5;" horiz-adv-x="1194" d="M509 1367H682L1141 9Q1124 -2 1101 -7T1050 -12Q1013 -12 994 4T958 67L695 866Q665 955 638 1044T592 1201H582Q572 1162 560 1117T535 1031T515 963L199 -2Q185 -5 167 -6T131 -8Q108 -8 91 -5T56 2L52 9L509
1367ZM454 354Q448 354 414 354T345 355T303 356H242L291 487H345Q352 487 381 487T439 488T475 489H704Q711 489 740 489T800 488T838 487H892L936 356H876Q869 356 834 356T765 355T723 354H454ZM377 1553Q377 1640 439 1702T597 1764Q692 1764 754 1702T816
1553Q816 1467 754 1405T597 1343Q502 1343 440 1405T377 1553ZM495 1553Q495 1504 524 1472T597 1440Q641 1440 670 1472T699 1553Q699 1603 670 1635T597 1667Q554 1667 525 1635T495 1553Z" />
<glyph unicode="&#xc6;" horiz-adv-x="1742" d="M734 1349Q754 1359 780 1362T826 1366H954L812 1201H802Q778 1142 748 1077T692 962L200 -2Q184 -5 161 -6T120 -8Q96 -8 80 -5T47 2L42 9L734 1349ZM504 354Q480 354 433 355T367 356H309L376 487H428Q446 487
482 488T543 489H685Q701 489 730 489T788 488T829 487H881V356H827Q815 356 787 356T729 355T684 354H504ZM814 1354L826 1366H961V1240Q961 1198 962 1175T963 1111V206Q963 185 962 168T961 128V0H901Q861 0 838 27T814 101V1354ZM1496 757Q1500 741 1501 723T1503
692Q1503 679 1502 661T1496 626H1082Q1060 626 1031 626T971 627T910 628V755Q940 755 971 755T1031 756T1082 757H1496ZM1599 1366Q1602 1349 1603 1333T1604 1304Q1604 1291 1602 1272T1593 1234H1082Q1060 1234 1031 1234T971 1234T910 1236V1366H1599ZM1632
133Q1632 55 1609 28T1530 0H910V125Q949 128 989 130T1085 133H1632Z" />
<glyph unicode="&#xc7;" horiz-adv-x="1201" d="M951 934Q951 1006 923 1081T827 1209T640 1261Q466 1261 371 1112T276 676Q276 409 373 260T639 110Q727 110 818 147T1005 269Q1033 252 1056 224T1089 169Q1036 115 963 71T802 2T616 -24Q480 -24 385 34T229
191T142 415T114 676Q114 924 187 1081T380 1314T641 1390Q786 1390 890 1334T1050 1192T1106 1014Q1106 981 1090 952T1020 923Q1001 923 987 925T951 934ZM523 -145Q535 -110 554 -64T589 13H696Q687 -2 674 -31T654 -79Q725 -86 777 -131T829 -253Q829 -334
766 -385T610 -437Q565 -437 525 -427T461 -401Q463 -375 473 -353T497 -312Q517 -324 545 -332T601 -340Q654 -340 676 -313T699 -252Q699 -217 676 -191T603 -165Q591 -165 578 -167T554 -175Q543 -170 535 -162T523 -145Z" />
<glyph unicode="&#xc8;" horiz-adv-x="1125" d="M197 1354L209 1366H345V1240Q345 1198 346 1175T347 1111V205Q347 185 346 168T345 128V0H285Q245 0 221 27T197 101V1354ZM880 757Q883 741 884 723T886 692Q886 679 885 661T880 626H466Q444 626 415 626T355
627T294 628V755Q323 755 354 755T415 756T466 757H880ZM983 1366Q986 1349 986 1333T987 1304Q987 1291 985 1272T976 1234H466Q444 1234 415 1234T355 1234T294 1236V1366H983ZM1016 133Q1016 55 993 28T913 0H294V125Q333 128 373 130T468 133H1016ZM422 1765Q404
1754 388 1733T361 1685T345 1631L755 1458Q776 1472 787 1496T804 1542L422 1765Z" />
<glyph unicode="&#xc9;" horiz-adv-x="1125" d="M197 1354L209 1366H345V1240Q345 1198 346 1175T347 1111V205Q347 185 346 168T345 128V0H285Q245 0 221 27T197 101V1354ZM880 757Q883 741 884 723T886 692Q886 679 885 661T880 626H466Q444 626 415 626T355
627T294 628V755Q323 755 354 755T415 756T466 757H880ZM983 1366Q986 1349 986 1333T987 1304Q987 1291 985 1272T976 1234H466Q444 1234 415 1234T355 1234T294 1236V1366H983ZM1016 133Q1016 55 993 28T913 0H294V125Q333 128 373 130T468 133H1016ZM804 1765Q822
1754 837 1733T864 1685T880 1631L470 1458Q450 1472 438 1496T422 1542L804 1765Z" />
<glyph unicode="&#xca;" horiz-adv-x="1125" d="M197 1354L209 1366H345V1240Q345 1198 346 1175T347 1111V205Q347 185 346 168T345 128V0H285Q245 0 221 27T197 101V1354ZM880 757Q883 741 884 723T886 692Q886 679 885 661T880 626H466Q444 626 415 626T355
627T294 628V755Q323 755 354 755T415 756T466 757H880ZM983 1366Q986 1349 986 1333T987 1304Q987 1291 985 1272T976 1234H466Q444 1234 415 1234T355 1234T294 1236V1366H983ZM1016 133Q1016 55 993 28T913 0H294V125Q333 128 373 130T468 133H1016ZM667 1752L890
1545Q880 1519 859 1501T817 1476L598 1626L379 1476Q359 1482 337 1500T306 1545L528 1752Q542 1754 560 1755T598 1757Q618 1757 635 1756T667 1752Z" />
<glyph unicode="&#xcb;" horiz-adv-x="1125" d="M197 1354L209 1366H345V1240Q345 1198 346 1175T347 1111V205Q347 185 346 168T345 128V0H285Q245 0 221 27T197 101V1354ZM880 757Q883 741 884 723T886 692Q886 679 885 661T880 626H466Q444 626 415 626T355
627T294 628V755Q323 755 354 755T415 756T466 757H880ZM983 1366Q986 1349 986 1333T987 1304Q987 1291 985 1272T976 1234H466Q444 1234 415 1234T355 1234T294 1236V1366H983ZM1016 133Q1016 55 993 28T913 0H294V125Q333 128 373 130T468 133H1016ZM796 1488Q774
1488 751 1492T712 1506Q705 1525 702 1543T699 1577Q699 1594 702 1612T712 1649Q728 1658 751 1662T796 1667Q818 1667 841 1663T879 1649Q887 1630 890 1612T893 1577Q893 1561 890 1543T879 1506Q864 1497 841 1493T796 1488ZM400 1488Q378 1488 355 1492T316
1506Q309 1525 306 1543T303 1577Q303 1594 306 1612T316 1649Q332 1658 355 1662T400 1667Q422 1667 445 1663T484 1649Q492 1630 494 1612T497 1577Q497 1561 495 1543T484 1506Q468 1497 445 1493T400 1488Z" />
<glyph unicode="&#xcc;" horiz-adv-x="564" d="M205 1366Q220 1369 240 1370T280 1372Q302 1372 322 1371T359 1366V0Q343 -3 323 -4T280 -6Q260 -6 240 -5T205 0V1366ZM106 1765Q88 1754 72 1733T45 1685T29 1631L439 1458Q460 1472 471 1496T488 1542L106 1765Z" />
<glyph unicode="&#xcd;" horiz-adv-x="564" d="M205 1366Q220 1369 240 1370T280 1372Q302 1372 322 1371T359 1366V0Q343 -3 323 -4T280 -6Q260 -6 240 -5T205 0V1366ZM488 1765Q506 1754 521 1733T548 1685T564 1631L154 1458Q134 1472 122 1496T106 1542L488 1765Z" />
<glyph unicode="&#xce;" horiz-adv-x="564" d="M205 1366Q220 1369 240 1370T280 1372Q302 1372 322 1371T359 1366V0Q343 -3 323 -4T280 -6Q260 -6 240 -5T205 0V1366ZM351 1752L574 1545Q564 1519 543 1501T501 1476L282 1626L63 1476Q43 1482 21 1500T-10 1545L212
1752Q226 1754 244 1755T282 1757Q302 1757 319 1756T351 1752Z" />
<glyph unicode="&#xcf;" horiz-adv-x="564" d="M205 1366Q220 1369 240 1370T280 1372Q302 1372 322 1371T359 1366V0Q343 -3 323 -4T280 -6Q260 -6 240 -5T205 0V1366ZM480 1488Q458 1488 435 1492T396 1506Q389 1525 386 1543T383 1577Q383 1594 386 1612T396
1649Q412 1658 435 1662T480 1667Q502 1667 525 1663T563 1649Q571 1630 574 1612T577 1577Q577 1561 574 1543T563 1506Q548 1497 525 1493T480 1488ZM84 1488Q62 1488 39 1492T0 1506Q-7 1525 -10 1543T-13 1577Q-13 1594 -10 1612T0 1649Q16 1658 39 1662T84
1667Q106 1667 129 1663T168 1649Q176 1630 178 1612T181 1577Q181 1561 179 1543T168 1506Q152 1497 129 1493T84 1488Z" />
<glyph unicode="&#xd0;" horiz-adv-x="1307" d="M1190 684Q1190 567 1175 460T1117 261T985 94Q943 58 884 36T762 3T647 -8Q569 -8 510 -7T390 -4T241 0L229 12V1354L241 1366Q328 1369 389 1370T510 1372T647 1372Q699 1372 761 1362T883 1329T985 1270Q1072
1196 1116 1104T1175 906T1190 684ZM1028 684Q1028 781 1015 879T962 1060T846 1193T645 1243Q576 1243 518 1244T382 1245V123Q459 123 517 122T645 121Q770 121 846 172T961 306T1014 488T1028 684ZM65 626Q62 641 61 655T59 690Q59 712 60 727T65 758H722Q725
742 726 727T728 690Q728 656 722 626H65Z" />
<glyph unicode="&#xd1;" horiz-adv-x="1343" d="M197 1366Q217 1369 243 1370T289 1372Q312 1372 338 1371T384 1366L342 1182L328 1181Q330 1120 333 1047T338 897T340 750V0Q320 -3 302 -4T268 -6Q252 -6 235 -5T197 0V1366ZM470 907Q432 979 399 1047T334 1182L260
1274L384 1366L870 459Q909 386 943 315T1009 178L1083 103L957 0L470 907ZM1145 1362V0Q1126 -3 1104 -4T1052 -6Q1024 -6 1001 -5T957 0L1001 178H1015Q1012 251 1009 330T1005 487T1003 634V1273Q1003 1323 1017 1347T1082 1372H1133L1145 1362ZM588 1568Q569
1577 554 1581T520 1586Q497 1586 475 1571T437 1536L411 1504Q388 1506 367 1519T337 1551L349 1580Q378 1649 425 1684T533 1720Q566 1720 593 1711T642 1691L757 1637Q777 1627 797 1622T832 1616Q855 1616 876 1630T915 1666L941 1697Q964 1696 986 1683T1016
1651L1003 1621Q975 1553 928 1518T820 1482Q786 1482 759 1491T710 1510L588 1568Z" />
<glyph unicode="&#xd2;" horiz-adv-x="1306" d="M276 684Q276 587 292 485T350 297T464 157T653 104Q768 104 841 157T955 296T1012 485T1028 684Q1028 781 1012 882T956 1070T842 1209T653 1262Q538 1262 465 1209T350 1070T293 883T276 684ZM114 684Q114 879
172 1039T350 1294T653 1390Q837 1390 956 1295T1134 1039T1192 684Q1192 488 1134 328T956 72T653 -24Q469 -24 350 72T172 329T114 684ZM477 1765Q459 1754 443 1733T416 1685T400 1631L810 1458Q831 1472 842 1496T859 1542L477 1765Z" />
<glyph unicode="&#xd3;" horiz-adv-x="1306" d="M276 684Q276 587 292 485T350 297T464 157T653 104Q768 104 841 157T955 296T1012 485T1028 684Q1028 781 1012 882T956 1070T842 1209T653 1262Q538 1262 465 1209T350 1070T293 883T276 684ZM114 684Q114 879
172 1039T350 1294T653 1390Q837 1390 956 1295T1134 1039T1192 684Q1192 488 1134 328T956 72T653 -24Q469 -24 350 72T172 329T114 684ZM859 1765Q877 1754 892 1733T919 1685T935 1631L525 1458Q505 1472 493 1496T477 1542L859 1765Z" />
<glyph unicode="&#xd4;" horiz-adv-x="1306" d="M276 684Q276 587 292 485T350 297T464 157T653 104Q768 104 841 157T955 296T1012 485T1028 684Q1028 781 1012 882T956 1070T842 1209T653 1262Q538 1262 465 1209T350 1070T293 883T276 684ZM114 684Q114 879
172 1039T350 1294T653 1390Q837 1390 956 1295T1134 1039T1192 684Q1192 488 1134 328T956 72T653 -24Q469 -24 350 72T172 329T114 684ZM722 1752L945 1545Q935 1519 914 1501T872 1476L653 1626L434 1476Q414 1482 392 1500T361 1545L583 1752Q597 1754 615
1755T653 1757Q673 1757 690 1756T722 1752Z" />
<glyph unicode="&#xd5;" horiz-adv-x="1306" d="M276 684Q276 587 292 485T350 297T464 157T653 104Q768 104 841 157T955 296T1012 485T1028 684Q1028 781 1012 882T956 1070T842 1209T653 1262Q538 1262 465 1209T350 1070T293 883T276 684ZM114 684Q114 879
172 1039T350 1294T653 1390Q837 1390 956 1295T1134 1039T1192 684Q1192 488 1134 328T956 72T653 -24Q469 -24 350 72T172 329T114 684ZM565 1568Q546 1577 531 1581T497 1586Q474 1586 452 1571T414 1536L388 1504Q365 1506 344 1519T314 1551L326 1580Q355
1649 402 1684T510 1720Q543 1720 570 1711T619 1691L734 1637Q754 1627 774 1622T809 1616Q832 1616 853 1630T892 1666L918 1697Q941 1696 963 1683T993 1651L980 1621Q952 1553 905 1518T797 1482Q763 1482 736 1491T687 1510L565 1568Z" />
<glyph unicode="&#xd6;" horiz-adv-x="1306" d="M276 684Q276 587 292 485T350 297T464 157T653 104Q768 104 841 157T955 296T1012 485T1028 684Q1028 781 1012 882T956 1070T842 1209T653 1262Q538 1262 465 1209T350 1070T293 883T276 684ZM114 684Q114 879
172 1039T350 1294T653 1390Q837 1390 956 1295T1134 1039T1192 684Q1192 488 1134 328T956 72T653 -24Q469 -24 350 72T172 329T114 684ZM851 1488Q829 1488 806 1492T767 1506Q760 1525 757 1543T754 1577Q754 1594 757 1612T767 1649Q783 1658 806 1662T851
1667Q873 1667 896 1663T934 1649Q942 1630 945 1612T948 1577Q948 1561 945 1543T934 1506Q919 1497 896 1493T851 1488ZM455 1488Q433 1488 410 1492T371 1506Q364 1525 361 1543T358 1577Q358 1594 361 1612T371 1649Q387 1658 410 1662T455 1667Q477 1667 500
1663T539 1649Q547 1630 549 1612T552 1577Q552 1561 550 1543T539 1506Q523 1497 500 1493T455 1488Z" />
<glyph unicode="&#xd7;" horiz-adv-x="1080" d="M395 667Q406 656 424 639T454 611L530 535Q541 524 558 506T586 476L810 251Q842 262 871 291Q895 315 911 351L685 575Q674 586 656 603T626 632L550 707Q539 719 522 737T494 766L270 992Q253 985 238 976T209
952Q196 936 187 922T169 891L395 667ZM494 476Q505 487 522 505T550 535L626 611Q637 622 655 639T685 667L911 891Q895 927 869 953Q856 966 841 975T810 992L586 766Q575 755 558 737T530 707L454 631Q443 620 425 603T395 575L169 351Q177 332 188 317T211
291Q222 280 236 269T270 250L494 476Z" />
<glyph unicode="&#xd8;" horiz-adv-x="1306" d="M881 1255L992 1450Q1021 1447 1053 1430T1101 1391L970 1156L425 111L314 -84Q286 -80 254 -63T205 -25L336 210L881 1255ZM275 684Q275 587 291 485T349 297T464 157T653 104Q768 104 841 157T956 296T1013 485T1029
684Q1029 781 1013 882T956 1070T842 1209T653 1262Q538 1262 465 1209T350 1070T292 883T275 684ZM114 684Q114 879 172 1039T350 1294T653 1390Q837 1390 956 1295T1134 1039T1192 684Q1192 488 1134 328T956 72T653 -24Q469 -24 350 72T172 329T114 684Z" />
<glyph unicode="&#xd9;" horiz-adv-x="1333" d="M1152 466Q1152 303 1090 194T918 31T665 -24Q524 -24 415 30T244 194T181 466V1360L193 1372H255Q305 1372 320 1348T335 1273V468Q335 289 422 196T666 103Q824 103 911 196T998 468V1366Q1013 1369 1033 1370T1073
1372Q1094 1372 1115 1371T1152 1366V466ZM490 1765Q472 1754 456 1733T429 1685T413 1631L823 1458Q844 1472 855 1496T872 1542L490 1765Z" />
<glyph unicode="&#xda;" horiz-adv-x="1333" d="M1152 466Q1152 303 1090 194T918 31T665 -24Q524 -24 415 30T244 194T181 466V1360L193 1372H255Q305 1372 320 1348T335 1273V468Q335 289 422 196T666 103Q824 103 911 196T998 468V1366Q1013 1369 1033 1370T1073
1372Q1094 1372 1115 1371T1152 1366V466ZM872 1765Q890 1754 905 1733T932 1685T948 1631L538 1458Q518 1472 506 1496T490 1542L872 1765Z" />
<glyph unicode="&#xdb;" horiz-adv-x="1333" d="M1152 466Q1152 303 1090 194T918 31T665 -24Q524 -24 415 30T244 194T181 466V1360L193 1372H255Q305 1372 320 1348T335 1273V468Q335 289 422 196T666 103Q824 103 911 196T998 468V1366Q1013 1369 1033 1370T1073
1372Q1094 1372 1115 1371T1152 1366V466ZM735 1752L958 1545Q948 1519 927 1501T885 1476L666 1626L447 1476Q427 1482 405 1500T374 1545L596 1752Q610 1754 628 1755T666 1757Q686 1757 703 1756T735 1752Z" />
<glyph unicode="&#xdc;" horiz-adv-x="1333" d="M1152 466Q1152 303 1090 194T918 31T665 -24Q524 -24 415 30T244 194T181 466V1360L193 1372H255Q305 1372 320 1348T335 1273V468Q335 289 422 196T666 103Q824 103 911 196T998 468V1366Q1013 1369 1033 1370T1073
1372Q1094 1372 1115 1371T1152 1366V466ZM864 1488Q842 1488 819 1492T780 1506Q773 1525 770 1543T767 1577Q767 1594 770 1612T780 1649Q796 1658 819 1662T864 1667Q886 1667 909 1663T947 1649Q955 1630 958 1612T961 1577Q961 1561 958 1543T947 1506Q932
1497 909 1493T864 1488ZM468 1488Q446 1488 423 1492T384 1506Q377 1525 374 1543T371 1577Q371 1594 374 1612T384 1649Q400 1658 423 1662T468 1667Q490 1667 513 1663T552 1649Q560 1630 562 1612T565 1577Q565 1561 563 1543T552 1506Q536 1497 513 1493T468
1488Z" />
<glyph unicode="&#xdd;" horiz-adv-x="963" d="M407 542H560V0Q544 -3 524 -4T482 -6Q462 -6 442 -5T407 0V542ZM788 1366Q804 1371 822 1372T856 1374Q876 1374 894 1372T930 1364L937 1351L542 403H427L30 1349Q62 1367 86 1373T130 1380Q162 1380 181 1362T214
1307L407 842Q427 795 449 729T487 613H497Q508 647 524 693T557 782T580 843L788 1366ZM695 1765Q713 1754 728 1733T755 1685T771 1631L361 1458Q341 1472 329 1496T313 1542L695 1765Z" />
<glyph unicode="&#xde;" horiz-adv-x="1120" d="M276 1151Q350 1153 429 1155T588 1157Q716 1157 815 1110T972 967T1029 730Q1029 589 973 494T818 349T588 300H276V427Q303 428 346 428T436 429T525 429T592 429Q703 429 762 476T843 593T866 730Q866 799 844
868T762 983T592 1029Q554 1029 498 1029T382 1031T276 1033V1151ZM197 1366Q212 1369 232 1370T272 1372Q294 1372 314 1371T351 1366V0Q335 -3 315 -4T272 -6Q253 -6 233 -5T197 0V1366Z" />
<glyph unicode="&#xdf;" horiz-adv-x="1221" d="M289 937L291 817L48 813Q45 827 44 844T42 878Q42 894 43 909T48 941L289 937ZM220 1021Q220 1142 273 1225T419 1352T630 1396Q758 1396 850 1348T991 1214T1041 1017Q1041 975 1034 935T1013 853L853 840Q876
881 884 921T893 1001Q893 1077 865 1140T778 1242T625 1281Q495 1281 433 1205T370 1004V0Q354 -3 334 -4T295 -6Q278 -6 258 -5T220 0V1021ZM553 48Q555 73 570 106T610 159Q654 129 707 113T810 96Q891 96 938 136T985 235Q985 282 958 322T893 393L813 457Q788
477 756 508T700 583T676 682Q676 771 740 836T899 932L1013 851Q912 825 871 777T830 686Q830 638 864 603T919 553L994 497Q1063 445 1104 379T1145 238Q1145 166 1106 107T993 12T817 -24Q750 -24 679 -6T553 48Z" />
<glyph unicode="&#xe0;" horiz-adv-x="1007" d="M102 266Q102 377 149 448T281 554T477 588Q539 588 611 582T747 559V453Q688 467 618 472T479 477Q375 477 314 425T252 277Q252 204 292 153T411 102Q491 102 582 157T737 324L762 189Q728 149 674 99T548 13T391
-24Q294 -24 230 19T134 128T102 266ZM896 63Q889 42 871 20T829 -14Q780 4 751 36T710 111T696 207V671Q696 782 647 828T515 875Q434 875 352 851T189 792Q169 809 154 843T138 908Q188 930 252 951T388 987T530 1001Q634 1001 703 963T806 851T840 669V257Q840
194 849 146T896 63ZM354 1444Q314 1431 281 1399T233 1332L559 1073Q581 1079 600 1097T629 1136L354 1444Z" />
<glyph unicode="&#xe1;" horiz-adv-x="1007" d="M102 266Q102 377 149 448T281 554T477 588Q539 588 611 582T747 559V453Q688 467 618 472T479 477Q375 477 314 425T252 277Q252 204 292 153T411 102Q491 102 582 157T737 324L762 189Q728 149 674 99T548 13T391
-24Q294 -24 230 19T134 128T102 266ZM896 63Q889 42 871 20T829 -14Q780 4 751 36T710 111T696 207V671Q696 782 647 828T515 875Q434 875 352 851T189 792Q169 809 154 843T138 908Q188 930 252 951T388 987T530 1001Q634 1001 703 963T806 851T840 669V257Q840
194 849 146T896 63ZM628 1444Q668 1431 701 1399T750 1332L423 1073Q401 1079 382 1097T354 1136L628 1444Z" />
<glyph unicode="&#xe2;" horiz-adv-x="1007" d="M102 266Q102 377 149 448T281 554T477 588Q539 588 611 582T747 559V453Q688 467 618 472T479 477Q375 477 314 425T252 277Q252 204 292 153T411 102Q491 102 582 157T737 324L762 189Q728 149 674 99T548 13T391
-24Q294 -24 230 19T134 128T102 266ZM896 63Q889 42 871 20T829 -14Q780 4 751 36T710 111T696 207V671Q696 782 647 828T515 875Q434 875 352 851T189 792Q169 809 154 843T138 908Q188 930 252 951T388 987T530 1001Q634 1001 703 963T806 851T840 669V257Q840
194 849 146T896 63ZM551 1410L752 1158Q740 1132 718 1113T673 1087L484 1274L294 1087Q272 1093 250 1112T215 1158L416 1410Q429 1414 447 1416T484 1418Q502 1418 520 1416T551 1410Z" />
<glyph unicode="&#xe3;" horiz-adv-x="1007" d="M102 266Q102 377 149 448T281 554T477 588Q539 588 611 582T747 559V453Q688 467 618 472T479 477Q375 477 314 425T252 277Q252 204 292 153T411 102Q491 102 582 157T737 324L762 189Q728 149 674 99T548 13T391
-24Q294 -24 230 19T134 128T102 266ZM896 63Q889 42 871 20T829 -14Q780 4 751 36T710 111T696 207V671Q696 782 647 828T515 875Q434 875 352 851T189 792Q169 809 154 843T138 908Q188 930 252 951T388 987T530 1001Q634 1001 703 963T806 851T840 669V257Q840
194 849 146T896 63ZM415 1195Q402 1203 384 1209T345 1216Q313 1216 294 1200T260 1166L234 1135Q211 1137 189 1150T159 1183L177 1222Q205 1282 252 1317T358 1352Q389 1352 416 1343T461 1324L552 1275Q565 1268 583 1260T624 1252Q653 1252 671 1266T706 1302L732
1334Q755 1333 776 1319T807 1285L789 1246Q759 1180 711 1149T607 1117Q578 1117 552 1125T505 1145L415 1195Z" />
<glyph unicode="&#xe4;" horiz-adv-x="1007" d="M102 266Q102 377 149 448T281 554T477 588Q539 588 611 582T747 559V453Q688 467 618 472T479 477Q375 477 314 425T252 277Q252 204 292 153T411 102Q491 102 582 157T737 324L762 189Q728 149 674 99T548 13T391
-24Q294 -24 230 19T134 128T102 266ZM896 63Q889 42 871 20T829 -14Q780 4 751 36T710 111T696 207V671Q696 782 647 828T515 875Q434 875 352 851T189 792Q169 809 154 843T138 908Q188 930 252 951T388 987T530 1001Q634 1001 703 963T806 851T840 669V257Q840
194 849 146T896 63ZM213 1217Q213 1235 216 1254T226 1286Q239 1294 263 1299T306 1304Q325 1304 348 1299T385 1286Q392 1273 395 1254T399 1217Q399 1199 396 1180T385 1148Q372 1141 349 1136T306 1130Q287 1130 263 1135T226 1148Q220 1161 217 1180T213 1217ZM567
1217Q567 1235 570 1254T581 1286Q594 1294 617 1299T660 1304Q680 1304 703 1299T740 1286Q747 1273 750 1254T754 1217Q754 1199 751 1180T740 1148Q727 1141 704 1136T660 1130Q641 1130 618 1135T581 1148Q574 1161 571 1180T567 1217Z" />
<glyph unicode="&#xe5;" horiz-adv-x="1007" d="M102 266Q102 377 149 448T281 554T477 588Q539 588 611 582T747 559V453Q688 467 618 472T479 477Q375 477 314 425T252 277Q252 204 292 153T411 102Q491 102 582 157T737 324L762 189Q728 149 674 99T548 13T391
-24Q294 -24 230 19T134 128T102 266ZM896 63Q889 42 871 20T829 -14Q780 4 751 36T710 111T696 207V671Q696 782 647 828T515 875Q434 875 352 851T189 792Q169 809 154 843T138 908Q188 930 252 951T388 987T530 1001Q634 1001 703 963T806 851T840 669V257Q840
194 849 146T896 63ZM263 1283Q263 1197 325 1135T483 1073Q578 1073 640 1135T703 1283Q703 1370 641 1432T483 1494Q388 1494 326 1432T263 1283ZM381 1283Q381 1333 410 1365T483 1397Q527 1397 556 1365T585 1283Q585 1234 556 1202T483 1170Q440 1170 411
1202T381 1283Z" />
<glyph unicode="&#xe6;" horiz-adv-x="1591" d="M102 268Q102 379 149 449T281 554T477 588Q549 588 616 581T747 559V448Q685 461 616 469T479 477Q375 477 314 426T252 279Q252 206 292 154T411 102Q497 102 596 159T758 347L790 198Q754 147 695 96T559 11T391
-24Q294 -24 230 18T134 128T102 268ZM696 496V671Q696 782 647 828T515 875Q434 875 352 851T189 792Q169 809 154 843T138 908Q213 941 318 971T528 1001Q633 1001 701 962T804 847T838 663V496H696ZM781 445V559H1325V583Q1325 666 1302 736T1228 848T1091 891Q972
891 910 790T848 517V479Q848 371 871 287T951 154T1105 106Q1185 106 1257 130T1395 192Q1415 173 1430 143T1449 88Q1379 39 1284 8T1085 -24Q904 -24 801 99T695 496Q694 576 714 664T781 830T904 956T1091 1005Q1219 1005 1305 948T1434 793T1477 578Q1477
540 1475 511T1468 445H781Z" />
<glyph unicode="&#xe7;" horiz-adv-x="939" d="M711 634Q715 692 697 750T633 848T502 887Q393 887 326 785T259 483Q259 291 327 198T514 104Q588 104 651 138T770 215Q792 201 813 174T841 120Q772 56 686 16T494 -24Q387 -24 313 19T192 135T125 298T104 483Q104
618 137 717T227 879T356 974T506 1005Q601 1005 667 976T775 903T834 809T853 721Q853 683 839 655T774 627Q758 627 743 628T711 634ZM384 -145Q396 -110 415 -64T450 13H557Q548 -2 535 -31T515 -79Q586 -86 638 -131T690 -253Q690 -334 627 -385T471 -437Q426
-437 386 -427T322 -401Q324 -375 334 -353T358 -312Q378 -324 406 -332T462 -340Q515 -340 537 -313T560 -252Q560 -217 537 -191T464 -165Q452 -165 439 -167T415 -175Q404 -170 396 -162T384 -145Z" />
<glyph unicode="&#xe8;" horiz-adv-x="1005" d="M194 445V559H740V587Q740 670 717 739T641 849T504 891Q386 891 324 791T261 526V479Q261 371 284 287T364 154T518 106Q598 106 670 130T808 191Q829 172 844 142T862 88Q793 39 697 8T498 -24Q386 -24 310 17T189
131T124 297T104 492Q104 640 151 756T287 938T504 1005Q633 1005 718 948T847 793T890 578Q890 540 888 511T881 445H194ZM381 1444Q341 1431 308 1399T260 1332L586 1073Q608 1079 627 1097T656 1136L381 1444Z" />
<glyph unicode="&#xe9;" horiz-adv-x="1005" d="M194 445V559H740V587Q740 670 717 739T641 849T504 891Q386 891 324 791T261 526V479Q261 371 284 287T364 154T518 106Q598 106 670 130T808 191Q829 172 844 142T862 88Q793 39 697 8T498 -24Q386 -24 310 17T189
131T124 297T104 492Q104 640 151 756T287 938T504 1005Q633 1005 718 948T847 793T890 578Q890 540 888 511T881 445H194ZM655 1444Q695 1431 728 1399T777 1332L450 1073Q428 1079 409 1097T381 1136L655 1444Z" />
<glyph unicode="&#xea;" horiz-adv-x="1005" d="M194 445V559H740V587Q740 670 717 739T641 849T504 891Q386 891 324 791T261 526V479Q261 371 284 287T364 154T518 106Q598 106 670 130T808 191Q829 172 844 142T862 88Q793 39 697 8T498 -24Q386 -24 310 17T189
131T124 297T104 492Q104 640 151 756T287 938T504 1005Q633 1005 718 948T847 793T890 578Q890 540 888 511T881 445H194ZM578 1410L779 1158Q767 1132 745 1113T700 1087L511 1274L321 1087Q299 1093 277 1112T242 1158L443 1410Q456 1414 474 1416T511 1418Q529
1418 547 1416T578 1410Z" />
<glyph unicode="&#xeb;" horiz-adv-x="1005" d="M194 445V559H740V587Q740 670 717 739T641 849T504 891Q386 891 324 791T261 526V479Q261 371 284 287T364 154T518 106Q598 106 670 130T808 191Q829 172 844 142T862 88Q793 39 697 8T498 -24Q386 -24 310 17T189
131T124 297T104 492Q104 640 151 756T287 938T504 1005Q633 1005 718 948T847 793T890 578Q890 540 888 511T881 445H194ZM240 1217Q240 1235 243 1254T253 1286Q266 1294 290 1299T333 1304Q352 1304 375 1299T412 1286Q419 1273 422 1254T426 1217Q426 1199
423 1180T412 1148Q399 1141 376 1136T333 1130Q314 1130 290 1135T253 1148Q247 1161 244 1180T240 1217ZM594 1217Q594 1235 597 1254T608 1286Q621 1294 644 1299T687 1304Q707 1304 730 1299T767 1286Q774 1273 777 1254T781 1217Q781 1199 778 1180T767 1148Q754
1141 731 1136T687 1130Q668 1130 645 1135T608 1148Q601 1161 598 1180T594 1217Z" />
<glyph unicode="&#xec;" horiz-adv-x="513" d="M340 0Q326 -3 307 -4T267 -6Q245 -6 226 -5T193 0V772Q193 827 175 848T110 869H91Q85 898 85 924Q85 938 86 950T91 979Q125 984 150 985T192 987H209Q271 987 305 949T340 844V0ZM106 1444Q66 1431 33 1399T-15
1332L311 1073Q333 1079 352 1097T381 1136L106 1444Z" />
<glyph unicode="&#xed;" horiz-adv-x="513" d="M340 0Q326 -3 307 -4T267 -6Q245 -6 226 -5T193 0V772Q193 827 175 848T110 869H91Q85 898 85 924Q85 938 86 950T91 979Q125 984 150 985T192 987H209Q271 987 305 949T340 844V0ZM380 1444Q420 1431 453 1399T502
1332L175 1073Q153 1079 134 1097T106 1136L380 1444Z" />
<glyph unicode="&#xee;" horiz-adv-x="513" d="M340 0Q326 -3 307 -4T267 -6Q245 -6 226 -5T193 0V772Q193 827 175 848T110 869H91Q85 898 85 924Q85 938 86 950T91 979Q125 984 150 985T192 987H209Q271 987 305 949T340 844V0ZM303 1410L504 1158Q492 1132
470 1113T425 1087L236 1274L46 1087Q24 1093 2 1112T-33 1158L168 1410Q181 1414 199 1416T236 1418Q254 1418 272 1416T303 1410Z" />
<glyph unicode="&#xef;" horiz-adv-x="513" d="M340 0Q326 -3 307 -4T267 -6Q245 -6 226 -5T193 0V772Q193 827 175 848T110 869H91Q85 898 85 924Q85 938 86 950T91 979Q125 984 150 985T192 987H209Q271 987 305 949T340 844V0ZM-35 1217Q-35 1235 -32 1254T-22
1286Q-9 1294 15 1299T58 1304Q77 1304 100 1299T137 1286Q144 1273 147 1254T151 1217Q151 1199 148 1180T137 1148Q124 1141 101 1136T58 1130Q39 1130 15 1135T-22 1148Q-28 1161 -31 1180T-35 1217ZM319 1217Q319 1235 322 1254T333 1286Q346 1294 369 1299T412
1304Q432 1304 455 1299T492 1286Q499 1273 502 1254T506 1217Q506 1199 503 1180T492 1148Q479 1141 456 1136T412 1130Q393 1130 370 1135T333 1148Q326 1161 323 1180T319 1217Z" />
<glyph unicode="&#xf0;" horiz-adv-x="1033" d="M933 485Q933 338 886 223T745 42T516 -24Q381 -24 289 42T149 222T102 480Q102 623 150 734T291 910T515 974Q601 974 681 937T811 851V713Q769 772 693 814T518 856Q419 856 362 803T280 665T255 480Q255 384
279 295T361 149T518 92Q617 92 674 150T755 298T779 485Q779 618 760 707T717 861Q698 962 632 1065T470 1254T262 1390Q268 1419 284 1447T323 1489Q519 1404 655 1256T862 912T933 485ZM730 1472Q747 1461 769 1433T792 1383L317 1055Q298 1066 278 1094T255
1144L730 1472Z" />
<glyph unicode="&#xf1;" horiz-adv-x="1090" d="M244 987Q294 987 309 961T324 884V0Q310 -3 291 -4T251 -6Q229 -6 210 -5T177 0V975L189 987H244ZM925 190Q925 141 930 97T949 20Q933 6 907 -3T855 -12Q813 -12 796 12T778 85V640Q778 759 748 812T631 865Q570
865 502 837T376 761T284 655V812Q349 894 454 946T668 999Q763 999 819 957T900 843T925 687V190ZM486 1195Q473 1203 455 1209T416 1216Q384 1216 365 1200T331 1166L305 1135Q282 1137 260 1150T230 1183L248 1222Q276 1282 323 1317T429 1352Q460 1352 487
1343T532 1324L623 1275Q636 1268 654 1260T695 1252Q724 1252 742 1266T777 1302L803 1334Q826 1333 847 1319T878 1285L860 1246Q830 1180 782 1149T678 1117Q649 1117 623 1125T576 1145L486 1195Z" />
<glyph unicode="&#xf2;" horiz-adv-x="1038" d="M935 491Q935 342 888 226T749 43T518 -24Q381 -24 289 43T150 227T104 491Q104 639 151 755T290 938T518 1005Q657 1005 749 938T888 755T935 491ZM257 491Q257 392 281 301T363 151T520 92Q619 92 676 150T757
300T781 491Q781 589 757 681T676 832T520 891Q421 891 364 832T282 681T257 491ZM389 1444Q349 1431 316 1399T268 1332L594 1073Q616 1079 635 1097T664 1136L389 1444Z" />
<glyph unicode="&#xf3;" horiz-adv-x="1038" d="M935 491Q935 342 888 226T749 43T518 -24Q381 -24 289 43T150 227T104 491Q104 639 151 755T290 938T518 1005Q657 1005 749 938T888 755T935 491ZM257 491Q257 392 281 301T363 151T520 92Q619 92 676 150T757
300T781 491Q781 589 757 681T676 832T520 891Q421 891 364 832T282 681T257 491ZM663 1444Q703 1431 736 1399T785 1332L458 1073Q436 1079 417 1097T389 1136L663 1444Z" />
<glyph unicode="&#xf4;" horiz-adv-x="1038" d="M935 491Q935 342 888 226T749 43T518 -24Q381 -24 289 43T150 227T104 491Q104 639 151 755T290 938T518 1005Q657 1005 749 938T888 755T935 491ZM257 491Q257 392 281 301T363 151T520 92Q619 92 676 150T757
300T781 491Q781 589 757 681T676 832T520 891Q421 891 364 832T282 681T257 491ZM586 1410L787 1158Q775 1132 753 1113T708 1087L519 1274L329 1087Q307 1093 285 1112T250 1158L451 1410Q464 1414 482 1416T519 1418Q537 1418 555 1416T586 1410Z" />
<glyph unicode="&#xf5;" horiz-adv-x="1038" d="M935 491Q935 342 888 226T749 43T518 -24Q381 -24 289 43T150 227T104 491Q104 639 151 755T290 938T518 1005Q657 1005 749 938T888 755T935 491ZM257 491Q257 392 281 301T363 151T520 92Q619 92 676 150T757
300T781 491Q781 589 757 681T676 832T520 891Q421 891 364 832T282 681T257 491ZM450 1195Q437 1203 419 1209T380 1216Q348 1216 329 1200T295 1166L269 1135Q246 1137 224 1150T194 1183L212 1222Q240 1282 287 1317T393 1352Q424 1352 451 1343T496 1324L587
1275Q600 1268 618 1260T659 1252Q688 1252 706 1266T741 1302L767 1334Q790 1333 811 1319T842 1285L824 1246Q794 1180 746 1149T642 1117Q613 1117 587 1125T540 1145L450 1195Z" />
<glyph unicode="&#xf6;" horiz-adv-x="1038" d="M935 491Q935 342 888 226T749 43T518 -24Q381 -24 289 43T150 227T104 491Q104 639 151 755T290 938T518 1005Q657 1005 749 938T888 755T935 491ZM257 491Q257 392 281 301T363 151T520 92Q619 92 676 150T757
300T781 491Q781 589 757 681T676 832T520 891Q421 891 364 832T282 681T257 491ZM248 1217Q248 1235 251 1254T261 1286Q274 1294 298 1299T341 1304Q360 1304 383 1299T420 1286Q427 1273 430 1254T434 1217Q434 1199 431 1180T420 1148Q407 1141 384 1136T341
1130Q322 1130 298 1135T261 1148Q255 1161 252 1180T248 1217ZM602 1217Q602 1235 605 1254T616 1286Q629 1294 652 1299T695 1304Q715 1304 738 1299T775 1286Q782 1273 785 1254T789 1217Q789 1199 786 1180T775 1148Q762 1141 739 1136T695 1130Q676 1130 653
1135T616 1148Q609 1161 606 1180T602 1217Z" />
<glyph unicode="&#xf7;" horiz-adv-x="1080" d="M437 975Q437 1019 451 1049Q465 1058 491 1064T540 1070Q560 1070 588 1064T629 1049Q635 1036 639 1015T643 975Q643 957 639 936T629 901Q618 892 589 887T540 881Q517 881 491 886T451 901Q437 931 437 975ZM437
263Q437 307 451 337Q465 346 491 351T540 357Q560 357 588 352T629 337Q635 324 639 303T643 263Q643 244 639 223T629 189Q618 180 589 175T540 169Q517 169 491 174T451 189Q437 219 437 263ZM127 554Q124 568 123 585T121 621Q121 642 122 659T127 692H953Q956
676 957 659T959 621Q959 602 958 585T953 554H127Z" />
<glyph unicode="&#xf8;" horiz-adv-x="1039" d="M935 491Q935 373 904 267T795 82Q742 30 673 3T518 -24Q434 -24 366 3T244 82Q166 160 135 266T104 491Q104 610 135 715T244 899Q297 952 365 978T518 1005Q604 1005 673 979T795 899Q873 821 904 716T935 491ZM250
491Q250 393 275 301T359 150T520 90Q622 90 680 149T764 301T789 491Q789 589 764 681T681 833T520 893Q418 893 359 834T275 682T250 491ZM665 895L777 1090Q802 1088 832 1071T876 1034L744 802L368 88L256 -107Q231 -105 201 -88T157 -51L289 181L665 895Z"
/>
<glyph unicode="&#xf9;" horiz-adv-x="1092" d="M914 277Q914 213 923 156T970 63Q962 42 944 20T902 -14Q823 15 795 82T766 229V981Q780 984 799 985T839 987Q861 987 880 986T914 981V277ZM165 792Q165 840 161 884T142 961Q158 975 184 984T235 993Q277 993
295 969T313 896V341Q313 223 343 170T459 116Q521 116 588 144T714 220T806 326V170Q742 88 637 35T422 -18Q328 -18 272 24T190 138T165 295V792ZM409 1444Q369 1431 336 1399T288 1332L614 1073Q636 1079 655 1097T684 1136L409 1444Z" />
<glyph unicode="&#xfa;" horiz-adv-x="1092" d="M914 277Q914 213 923 156T970 63Q962 42 944 20T902 -14Q823 15 795 82T766 229V981Q780 984 799 985T839 987Q861 987 880 986T914 981V277ZM165 792Q165 840 161 884T142 961Q158 975 184 984T235 993Q277 993
295 969T313 896V341Q313 223 343 170T459 116Q521 116 588 144T714 220T806 326V170Q742 88 637 35T422 -18Q328 -18 272 24T190 138T165 295V792ZM683 1444Q723 1431 756 1399T805 1332L478 1073Q456 1079 437 1097T409 1136L683 1444Z" />
<glyph unicode="&#xfb;" horiz-adv-x="1092" d="M914 277Q914 213 923 156T970 63Q962 42 944 20T902 -14Q823 15 795 82T766 229V981Q780 984 799 985T839 987Q861 987 880 986T914 981V277ZM165 792Q165 840 161 884T142 961Q158 975 184 984T235 993Q277 993
295 969T313 896V341Q313 223 343 170T459 116Q521 116 588 144T714 220T806 326V170Q742 88 637 35T422 -18Q328 -18 272 24T190 138T165 295V792ZM606 1410L807 1158Q795 1132 773 1113T728 1087L539 1274L349 1087Q327 1093 305 1112T270 1158L471 1410Q484
1414 502 1416T539 1418Q557 1418 575 1416T606 1410Z" />
<glyph unicode="&#xfc;" horiz-adv-x="1092" d="M914 277Q914 213 923 156T970 63Q962 42 944 20T902 -14Q823 15 795 82T766 229V981Q780 984 799 985T839 987Q861 987 880 986T914 981V277ZM165 792Q165 840 161 884T142 961Q158 975 184 984T235 993Q277 993
295 969T313 896V341Q313 223 343 170T459 116Q521 116 588 144T714 220T806 326V170Q742 88 637 35T422 -18Q328 -18 272 24T190 138T165 295V792ZM268 1217Q268 1235 271 1254T281 1286Q294 1294 318 1299T361 1304Q380 1304 403 1299T440 1286Q447 1273 450
1254T454 1217Q454 1199 451 1180T440 1148Q427 1141 404 1136T361 1130Q342 1130 318 1135T281 1148Q275 1161 272 1180T268 1217ZM622 1217Q622 1235 625 1254T636 1286Q649 1294 672 1299T715 1304Q735 1304 758 1299T795 1286Q802 1273 805 1254T809 1217Q809
1199 806 1180T795 1148Q782 1141 759 1136T715 1130Q696 1130 673 1135T636 1148Q629 1161 626 1180T622 1217Z" />
<glyph unicode="&#xfd;" horiz-adv-x="903" d="M598 34Q551 -127 500 -231T373 -385T178 -436Q138 -436 90 -428T15 -409Q14 -382 24 -351T49 -303Q69 -310 107 -316T180 -323Q257 -323 305 -287T385 -185T444 -29L450 -8Q399 -5 371 14T325 89L46 970Q74 983
95 989T134 995Q160 995 180 981T212 926L370 424Q387 371 404 315T436 206T462 113Q467 99 482 99L726 983Q741 986 759 987T795 989Q815 989 834 987T868 979L872 972L598 34ZM596 1444Q636 1431 669 1399T718 1332L391 1073Q369 1079 350 1097T322 1136L596
1444Z" />
<glyph unicode="&#xfe;" horiz-adv-x="1049" d="M320 -329Q320 -378 306 -404T241 -430H189L177 -418V1458L189 1470H241Q291 1470 305 1445T320 1369V-329ZM947 502Q947 319 890 205T747 37T574 -16Q484 -16 404 21T251 116L260 247Q317 203 394 158T559 112Q620
112 674 151T763 277T798 501Q798 633 768 713T688 831T583 868Q523 868 461 837T348 747T272 607L245 747Q270 807 321 864T447 959T612 997Q721 997 795 935T908 761T947 502Z" />
<glyph unicode="&#xff;" horiz-adv-x="903" d="M598 34Q551 -127 500 -231T373 -385T178 -436Q138 -436 90 -428T15 -409Q14 -382 24 -351T49 -303Q69 -310 107 -316T180 -323Q257 -323 305 -287T385 -185T444 -29L450 -8Q399 -5 371 14T325 89L46 970Q74 983
95 989T134 995Q160 995 180 981T212 926L370 424Q387 371 404 315T436 206T462 113Q467 99 482 99L726 983Q741 986 759 987T795 989Q815 989 834 987T868 979L872 972L598 34ZM181 1217Q181 1235 184 1254T194 1286Q207 1294 231 1299T274 1304Q293 1304 316
1299T353 1286Q360 1273 363 1254T367 1217Q367 1199 364 1180T353 1148Q340 1141 317 1136T274 1130Q255 1130 231 1135T194 1148Q188 1161 185 1180T181 1217ZM535 1217Q535 1235 538 1254T549 1286Q562 1294 585 1299T628 1304Q648 1304 671 1299T708 1286Q715
1273 718 1254T722 1217Q722 1199 719 1180T708 1148Q695 1141 672 1136T628 1130Q609 1130 586 1135T549 1148Q542 1161 539 1180T535 1217Z" />
<glyph unicode="&#x2013;" horiz-adv-x="1034" d="M134 463Q130 477 129 492T127 526Q127 547 128 562T134 593H901Q904 577 905 562T907 526Q907 507 906 492T901 463H134Z" />
<glyph unicode="&#x2014;" horiz-adv-x="1551" d="M137 463Q133 477 132 492T130 526Q130 547 131 562T137 593H1386Q1389 577 1390 562T1392 526Q1392 507 1391 492T1386 463H137Z" />
<glyph unicode="&#x2018;" horiz-adv-x="411" d="M110 1052Q100 1071 95 1104T89 1170Q89 1278 145 1362T312 1494Q333 1484 346 1461T358 1416Q324 1398 297 1371T253 1313T235 1246Q252 1245 277 1240T315 1225Q322 1215 327 1190T332 1141Q332 1119 328 1091T315
1052Q302 1045 270 1038T211 1031Q186 1031 155 1036T110 1052Z" />
<glyph unicode="&#x2019;" horiz-adv-x="411" d="M302 1469Q311 1450 316 1417T322 1351Q322 1242 266 1158T99 1027Q79 1037 66 1060T54 1105Q88 1124 115 1150T158 1208T176 1275Q160 1277 134 1281T96 1295Q90 1306 85 1331T79 1379Q79 1402 84 1430T96 1469Q109
1476 142 1483T201 1490Q226 1490 257 1484T302 1469Z" />
<glyph unicode="&#x201a;" horiz-adv-x="413" d="M317 176Q326 157 331 124T337 58Q337 -50 281 -134T114 -266Q93 -256 80 -233T69 -188Q103 -169 130 -143T173 -84T191 -18Q175 -16 149 -12T111 3Q104 14 99 39T94 86Q94 109 99 137T111 176Q124 183 157 190T216
197Q241 197 272 192T317 176Z" />
<glyph unicode="&#x201c;" horiz-adv-x="755" d="M110 1052Q100 1071 95 1104T89 1170Q89 1278 145 1362T312 1494Q333 1484 346 1461T358 1416Q324 1398 297 1371T253 1313T235 1246Q252 1245 277 1240T315 1225Q322 1215 327 1190T332 1141Q332 1119 328 1091T315
1052Q302 1045 270 1038T211 1031Q186 1031 155 1036T110 1052ZM453 1052Q443 1071 438 1104T432 1170Q432 1278 488 1362T655 1494Q676 1484 689 1461T701 1416Q667 1398 640 1371T596 1313T578 1246Q595 1245 620 1240T658 1225Q665 1215 670 1190T675 1141Q675
1119 671 1091T658 1052Q645 1045 613 1038T554 1031Q529 1031 498 1036T453 1052Z" />
<glyph unicode="&#x201d;" horiz-adv-x="755" d="M303 1469Q312 1450 317 1417T323 1351Q323 1242 267 1158T100 1027Q80 1037 67 1060T55 1105Q89 1124 116 1150T159 1208T177 1275Q161 1277 135 1281T97 1295Q91 1306 86 1331T80 1379Q80 1402 85 1430T97 1469Q110
1476 143 1483T202 1490Q227 1490 258 1484T303 1469ZM646 1469Q655 1450 660 1417T666 1351Q666 1242 610 1158T443 1027Q423 1037 410 1060T398 1105Q432 1124 459 1150T502 1208T520 1275Q504 1277 478 1281T440 1295Q434 1306 429 1331T423 1379Q423 1402 428
1430T440 1469Q453 1476 486 1483T545 1490Q570 1490 601 1484T646 1469Z" />
<glyph unicode="&#x201e;" horiz-adv-x="756" d="M317 176Q326 157 331 124T337 58Q337 -50 281 -134T114 -266Q93 -256 80 -233T69 -188Q103 -169 130 -143T173 -84T191 -18Q175 -16 149 -12T111 3Q104 14 99 39T94 86Q94 109 99 137T111 176Q124 183 157 190T216
197Q241 197 272 192T317 176ZM660 176Q669 157 674 124T680 58Q680 -50 624 -134T457 -266Q436 -256 423 -233T412 -188Q446 -169 473 -143T516 -84T534 -18Q518 -16 492 -12T454 3Q447 14 442 39T437 86Q437 109 442 137T454 176Q467 183 500 190T559 197Q584
197 615 192T660 176Z" />
<glyph unicode="&#x2022;" horiz-adv-x="877" d="M238 543Q238 576 245 627T265 701Q290 716 341 727T440 738Q481 738 536 727T614 701Q628 678 635 627T642 543Q642 511 635 461T614 388Q595 373 538 362T440 350Q393 350 342 361T265 388Q253 410 246 460T238 543Z" />
<glyph unicode="&#x2039;" horiz-adv-x="643" d="M257 512L564 168Q557 152 544 136T513 106T477 86L87 458Q79 478 79 510T87 562L466 927Q493 917 517 894T552 845L257 512Z" />
<glyph unicode="&#x203a;" horiz-adv-x="643" d="M386 501L79 845Q86 862 99 878T130 907T166 927L557 555Q565 535 565 503T557 451L177 86Q151 97 127 120T91 168L386 501Z" />
</font>
</defs>
</svg>
