<?xml version="1.0" standalone="no"?>
<!DOCTYPE svg PUBLIC "-//W3C//DTD SVG 1.1//EN" "http://www.w3.org/Graphics/SVG/1.1/DTD/svg11.dtd">
<svg xmlns="http://www.w3.org/2000/svg">
<defs >
<font id="Signika" horiz-adv-x="1241" ><font-face
    font-family="Signika Light"
    units-per-em="2000"
    panose-1="0 0 0 0 0 0 0 0 0 0"
    ascent="1880"
    descent="-584"
    alphabetic="0" />
<glyph unicode=" " horiz-adv-x="440" />
<glyph unicode="!" horiz-adv-x="576" d="M204 389Q192 588 180 786T167 1185V1365Q197 1374 241 1376T328 1376T401 1364V1182Q401 984 388 786T364 389Q344 383 323 381T284 378Q267 378 245 380T204 389ZM284 219Q354 219 397 195Q405 181 409 151T414 100Q414
80 410 51T397 7Q377 -4 346 -10T284 -17Q253 -17 223 -11T171 7Q164 21 159 50T154 100Q154 121 159 151T171 195Q192 206 222 212T284 219Z" />
<glyph unicode="&quot;" horiz-adv-x="779" d="M457 1407Q457 1431 460 1454T470 1503Q489 1514 514 1521T570 1529Q599 1529 625 1522T671 1503Q676 1478 679 1455T682 1407Q682 1391 674 1327T653 1172T623 984Q605 973 571 973T518 984Q502 1082 488 1172T466
1327T457 1407ZM97 1407Q97 1431 100 1454T110 1503Q129 1514 154 1521T210 1529Q239 1529 265 1522T311 1503Q316 1478 319 1455T322 1407Q322 1391 314 1327T293 1172T263 984Q245 973 211 973T158 984Q142 1082 128 1172T106 1327T97 1407Z" />
<glyph unicode="#" horiz-adv-x="1291" d="M201 27Q217 19 242 15T294 11Q320 11 345 15T388 27L668 1278Q651 1285 627 1288T575 1292Q550 1292 525 1289T482 1278L201 27ZM638 27Q654 19 680 15T731 11Q759 11 784 15T826 27L1106 1278Q1090 1285 1065 1288T1013
1292Q988 1292 963 1289T919 1278L638 27ZM1142 309Q1155 346 1155 395Q1155 445 1142 481H60Q46 447 46 395Q46 343 60 309H1142ZM1237 823Q1250 859 1250 910Q1250 960 1237 995H155Q142 961 142 910Q142 858 155 823H1237Z" />
<glyph unicode="$" horiz-adv-x="1080" d="M523 55Q440 55 360 73T215 120T106 179Q107 207 118 239T148 298T188 339Q256 294 345 261T521 227Q606 226 661 262T717 366Q718 421 684 463T575 532L381 601Q273 640 208 711T143 891Q143 985 190 1059T323 1175T520
1218Q634 1218 729 1192T896 1126Q896 1084 876 1039T823 965Q754 1003 681 1024T535 1045Q453 1045 404 1010T355 913Q355 855 393 826T493 774L676 707Q793 665 862 585T932 377Q932 284 882 211T740 96T523 55ZM511 -125Q460 -125 428 -117V112H593V-117Q563
-125 511 -125ZM448 1154V1389Q465 1393 487 1395T531 1397Q552 1397 574 1395T614 1389V1154H448Z" />
<glyph unicode="%" horiz-adv-x="1815" d="M1718 386Q1718 203 1646 89T1403 -25Q1289 -25 1220 28T1119 173T1088 386Q1088 508 1119 600T1220 743T1403 795Q1517 795 1586 743T1686 599T1718 386ZM1266 386Q1266 315 1276 252T1317 151T1404 112Q1461 112 1490
150T1531 252T1542 386Q1542 458 1531 520T1491 620T1404 659Q1348 659 1318 621T1277 520T1266 386ZM727 882Q727 699 655 585T412 470Q298 470 229 523T128 669T97 882Q97 1003 128 1095T229 1238T412 1290Q526 1290 595 1239T695 1095T727 882ZM275 882Q275
810 285 747T326 646T413 607Q470 607 499 645T539 747T550 882Q550 954 540 1016T500 1116T413 1155Q356 1155 326 1117T286 1016T275 882ZM1162 1277Q1188 1285 1228 1287T1307 1287T1365 1277L660 0Q635 -8 595 -10T516 -10T457 0L1162 1277Z" />
<glyph unicode="&amp;" horiz-adv-x="1245" d="M993 813Q1048 813 1099 821T1184 844Q1198 827 1205 799T1212 745Q1212 683 1170 659T1061 635H605Q504 635 441 597T350 498T321 371Q321 262 378 202T532 142Q614 142 683 171T795 236V509Q795 552 796 615T802
729H994Q998 679 999 615T1001 510V303Q1001 234 1004 151T1014 0Q995 -5 970 -8T916 -11Q888 -11 863 -9T819 -1L804 80Q739 32 656 3T484 -26Q358 -26 273 25T144 163T100 359Q100 471 151 557T282 694T447 745V716Q368 719 303 762T198 876T158 1036Q158 1135
207 1216T350 1344T577 1392Q678 1392 776 1375T943 1334Q944 1293 930 1247T888 1170Q821 1190 749 1206T596 1222Q492 1222 435 1165T378 1021Q378 927 437 870T625 813H993Z" />
<glyph unicode="&apos;" horiz-adv-x="422" d="M90 1407Q90 1431 93 1454T103 1503Q122 1514 147 1521T203 1529Q232 1529 258 1522T304 1503Q309 1478 312 1455T315 1407Q315 1391 307 1327T286 1172T256 984Q238 973 204 973T151 984Q135 1082 121 1172T99 1327T90
1407Z" />
<glyph unicode="(" horiz-adv-x="664" d="M347 550Q347 395 377 237T471 -70T632 -348Q612 -393 579 -420T508 -460Q384 -338 299 -169T169 187T125 550Q125 725 169 912T298 1268T508 1558Q546 1546 579 1519T632 1446Q534 1317 471 1169T378 863T347 550Z" />
<glyph unicode=")" horiz-adv-x="664" d="M316 550Q316 395 286 237T193 -70T31 -348Q52 -393 85 -420T155 -460Q280 -338 365 -169T494 187T538 550Q538 725 494 912T365 1268T155 1558Q118 1546 85 1519T31 1446Q130 1317 193 1169T286 863T316 550Z" />
<glyph unicode="*" horiz-adv-x="1009" d="M414 1461Q435 1471 469 1474T538 1474T595 1461L593 1350Q593 1281 575 1210T543 1076Q524 1054 504 1054Q483 1054 465 1076Q450 1138 433 1209T416 1350L414 1461ZM89 1094Q87 1118 94 1151T116 1216T146 1266L250
1230Q316 1209 378 1170T496 1098Q512 1072 504 1054Q501 1045 493 1037T470 1025Q408 1029 335 1034T195 1062L89 1094ZM338 673Q315 678 286 695T231 735T192 779L257 867Q299 923 355 971T459 1059Q487 1066 504 1054Q523 1041 522 1014Q499 955 471 887T401
763L338 673ZM815 778Q804 758 779 736T724 696T669 672L607 763Q566 819 539 887T486 1013Q487 1042 504 1054Q512 1061 523 1062T548 1059Q597 1019 653 971T750 866L815 778ZM863 1264Q878 1248 891 1217T913 1153T919 1094L813 1060Q748 1041 674 1036T539
1025Q512 1033 504 1054Q497 1074 512 1097Q567 1132 630 1170T758 1229L863 1264Z" />
<glyph unicode="+" horiz-adv-x="1080" d="M123 716Q114 675 114 627Q114 577 123 538H350Q375 538 403 539T456 540H624Q649 540 677 539T730 538H957Q966 578 966 627Q966 673 957 716H730Q705 716 677 715T624 714H456Q432 714 404 715T350 716H123ZM446 812Q446
788 447 760T448 707V548Q448 524 447 497T446 443V196Q468 192 491 191T541 189Q566 189 589 190T634 196V443Q634 469 633 496T632 548V707Q632 731 633 759T634 812V1059Q613 1063 589 1064T540 1066Q514 1066 491 1065T446 1059V812Z" />
<glyph unicode="," horiz-adv-x="538" d="M394 208Q405 182 410 147T416 76Q416 -8 383 -86T285 -227T121 -322Q93 -308 79 -278T67 -219Q136 -188 182 -136T233 -17Q213 -14 189 -7T152 10Q145 24 140 53T134 106Q134 132 139 163T152 208Q170 218 206 226T274
235Q304 235 340 228T394 208Z" />
<glyph unicode="-" horiz-adv-x="700" d="M101 444Q97 465 95 489T93 533Q93 554 95 577T101 623H598Q604 601 605 578T607 533Q607 513 606 489T598 444H101Z" />
<glyph unicode="." horiz-adv-x="526" d="M122 109Q122 127 127 159T141 209Q161 220 196 227T263 235Q293 235 329 228T385 209Q395 191 400 159T405 109Q405 91 400 60T385 10Q368 -2 331 -9T263 -16Q231 -16 196 -9T141 10Q132 28 127 59T122 109Z" />
<glyph unicode="/" horiz-adv-x="845" d="M646 1422Q691 1419 739 1402T825 1355L194 -322Q149 -318 101 -301T14 -254L646 1422Z" />
<glyph unicode="0" horiz-adv-x="1080" d="M102 633Q102 816 129 950T248 1179Q300 1231 369 1261T541 1292Q645 1292 712 1262T832 1179Q923 1084 950 950T978 633Q978 450 951 317T832 87Q779 36 712 5T540 -26Q437 -26 369 5T248 87Q158 183 130 316T102 633ZM319
633Q319 465 336 363T396 207Q420 172 456 155T540 137Q588 137 624 154T684 207Q726 261 743 363T761 633Q761 802 744 903T684 1059Q660 1094 624 1111T540 1129Q493 1129 457 1112T396 1059Q354 1005 337 904T319 633Z" />
<glyph unicode="1" horiz-adv-x="1080" d="M699 306Q699 266 698 230T697 151V83H497V151Q497 193 496 229T495 306V731Q495 765 497 826T503 949T506 1048L502 1266Q528 1272 553 1273T600 1275Q623 1275 647 1274T699 1266V306ZM382 173Q403 173 442 172T501
171H693Q714 171 754 172T814 173H952Q961 131 961 87Q961 46 952 0H199Q189 43 189 87Q189 133 199 173H382ZM128 882Q273 972 367 1073T502 1266L579 1100Q553 1027 495 961T362 843T216 758Q183 777 160 809T128 882Z" />
<glyph unicode="2" horiz-adv-x="1080" d="M132 1000Q161 1079 217 1145T355 1251T538 1292Q718 1292 823 1189T928 920Q928 824 893 753T801 625T678 513L525 387Q468 339 423 294T352 212T325 148L321 -1H200Q169 32 143 65T117 141Q117 198 152 260T245 383T367
501L563 667Q634 726 674 784T714 922Q714 1013 660 1067T520 1121Q437 1121 376 1066T281 930Q243 932 198 949T132 1000ZM959 181Q959 75 928 37T821 -1H214L154 135Q214 152 296 162T459 177T593 181H959Z" />
<glyph unicode="3" horiz-adv-x="1080" d="M744 404Q744 510 683 567T518 625Q486 625 449 617T383 592Q354 607 330 639T298 705Q353 731 422 748T573 765Q678 765 766 725T907 604T960 396Q960 290 921 211T817 79T671 0T506 -26Q378 -26 276 11T107 105Q115
142 140 181T198 245Q257 201 326 173T479 144Q591 144 667 210T744 404ZM659 828Q626 793 582 761T494 704T419 662L298 705L548 965Q564 981 589 1006T641 1057T684 1096L678 1105Q643 1097 576 1092T447 1087H164Q156 1109 154 1129T152 1163Q152 1186 155 1213T170
1266H867Q891 1221 901 1189T912 1134Q912 1088 869 1042L659 828Z" />
<glyph unicode="4" horiz-adv-x="1080" d="M134 275Q114 306 101 339T87 401Q87 424 99 456T127 525L468 1278Q498 1285 536 1282T608 1268T661 1240L430 734Q412 693 388 640T337 535T289 448L293 441Q332 444 377 446T462 448T522 449H800Q824 449 846 450T892
451H998Q1002 430 1003 410T1004 372Q1004 353 1001 326T990 276H892Q868 276 846 276T800 277H602Q578 277 549 276T495 275H134ZM600 170Q600 195 601 224T602 277V430Q602 443 601 471T600 514V671Q600 746 637 787T737 829H793L802 820V556Q802 531 801 502T800
449V277Q800 253 801 224T802 170V0Q777 -4 752 -6T700 -8Q675 -8 650 -6T600 0V170Z" />
<glyph unicode="5" horiz-adv-x="1080" d="M379 858Q377 818 371 776T352 697Q313 682 268 674T167 660L197 1253L381 1224Q384 1195 386 1150T388 1059T387 988L379 858ZM122 101Q128 134 153 175T210 240Q271 198 337 171T484 144Q551 144 609 174T704 266T740
425Q740 522 703 576T609 654T494 677Q436 677 378 655T268 589Q240 595 211 616T167 660Q207 704 264 746T395 815T549 842Q733 842 844 734T956 436Q956 278 889 176T718 24T498 -26Q379 -26 283 10T122 101ZM888 1266Q896 1243 899 1220T902 1180Q902 1088 810
1088H465Q413 1088 362 1090T268 1094T204 1100L197 1253L210 1266H888Z" />
<glyph unicode="6" horiz-adv-x="1080" d="M553 -26Q466 -26 405 -3T307 50T251 102Q237 118 214 150T168 242T127 396T110 634Q110 835 169 982T342 1211T626 1292Q711 1292 787 1276T915 1229Q911 1189 892 1147T841 1082Q802 1099 752 1112T638 1125Q526 1125
458 1069T358 916T327 700V528Q327 477 335 417T361 302T409 207Q433 176 469 156T556 135Q661 135 715 210T769 408Q769 508 742 565T669 647T563 672Q511 672 457 650T354 586T272 489L230 603Q260 667 317 722T451 811T616 846Q779 846 879 743T980 421Q980
288 925 187T774 30T553 -26Z" />
<glyph unicode="7" horiz-adv-x="1080" d="M940 1266Q954 1236 966 1200T978 1136Q978 1117 970 1094T941 1043Q843 911 772 794T652 563T576 329T535 72L528 0Q507 -5 479 -7T420 -9Q393 -9 364 -7T313 0L321 82Q339 265 400 449T559 799T780 1096L773 1104Q752
1099 710 1096T620 1091T529 1088T468 1087H140Q130 1119 130 1159Q130 1187 135 1214T148 1266H940Z" />
<glyph unicode="8" horiz-adv-x="1080" d="M98 318Q98 412 144 488T264 618T418 695L575 635Q443 595 377 511T310 334Q310 233 376 179T537 124Q601 124 653 150T735 224T766 336Q766 402 731 450T640 531T518 583L484 594Q383 626 304 674T179 792T133 956Q133
1054 187 1130T332 1249T539 1292Q659 1292 750 1251T892 1136T944 966Q944 885 905 821T801 712T664 646L513 707Q619 737 679 805T739 957Q739 1041 681 1090T538 1139Q456 1139 399 1090T341 959Q341 878 403 829T571 750L606 739Q711 708 796 654T930 521T980
334Q980 221 919 141T755 17T530 -26Q337 -26 218 64T98 318Z" />
<glyph unicode="9" horiz-adv-x="1080" d="M527 1292Q615 1292 675 1270T774 1217T829 1164Q843 1148 866 1116T912 1024T953 870T970 632Q970 431 911 284T738 55T454 -26Q369 -26 294 -9T165 37Q169 77 188 119T239 184Q278 168 328 155T442 141Q554 141 622
197T722 350T753 566V738Q753 790 745 850T720 965T671 1059Q647 1090 611 1110T524 1131Q419 1131 365 1056T311 858Q311 759 338 702T411 619T517 594Q570 594 624 617T726 681T808 777L850 663Q820 600 763 545T629 455T464 421Q302 421 201 524T100 845Q100
978 155 1079T306 1236T527 1292Z" />
<glyph unicode=":" horiz-adv-x="538" d="M127 109Q127 127 132 159T146 209Q166 220 201 227T268 235Q298 235 334 228T390 209Q400 191 405 159T410 109Q410 91 405 60T390 10Q373 -2 336 -9T268 -16Q236 -16 201 -9T146 10Q137 28 132 59T127 109ZM127 767Q127
785 132 817T146 867Q166 878 201 885T268 893Q298 893 334 886T390 867Q400 849 405 817T410 767Q410 749 405 718T390 668Q373 656 336 649T268 642Q236 642 201 649T146 668Q137 686 132 717T127 767Z" />
<glyph unicode=";" horiz-adv-x="546" d="M647 208Q658 182 663 147T669 76Q669 -8 636 -86T538 -227T374 -322Q346 -308 332 -278T320 -219Q389 -188 435 -136T486 -17Q466 -14 442 -7T405 10Q398 24 393 53T387 106Q387 132 392 163T405 208Q423 218 459 226T527
235Q557 235 593 228T647 208ZM131 767Q131 785 136 817T150 867Q170 878 205 885T272 893Q302 893 338 886T394 867Q404 849 409 817T414 767Q414 749 409 718T394 668Q377 656 340 649T272 642Q240 642 205 649T150 668Q141 686 136 717T131 767Z" />
<glyph unicode="&lt;" horiz-adv-x="1080" d="M856 1112Q894 1090 921 1046T952 950L477 701Q449 687 402 665T330 632V619Q354 609 401 588T477 551L952 302Q947 251 919 206T856 138L118 543Q108 580 107 625T118 708L856 1112Z" />
<glyph unicode="=" horiz-adv-x="1080" d="M123 349Q118 369 116 393T114 436Q114 457 116 481T123 527H957Q962 505 964 481T966 436Q966 417 964 393T957 349H123ZM123 733Q118 753 116 777T114 821Q114 842 116 866T123 911H957Q962 890 964 866T966 821Q966
801 964 777T957 733H123Z" />
<glyph unicode="&gt;" horiz-adv-x="1067" d="M217 141Q181 163 154 207T121 303L597 553Q625 568 672 589T744 621V634Q719 645 672 666T597 702L121 951Q127 1003 154 1048T218 1115L957 710Q966 674 967 629T957 545L217 141Z" />
<glyph unicode="?" horiz-adv-x="791" d="M22 1290Q103 1334 201 1363T403 1392Q574 1392 674 1299T775 1050Q775 911 700 818T514 663L389 593L373 390Q355 383 336 381T296 378Q276 378 254 380T214 390L202 688L219 710L317 759Q423 813 488 878T554 1030Q554
1110 503 1159T358 1209Q290 1209 224 1188T98 1135Q71 1158 48 1203T22 1290ZM295 217Q326 217 357 211T409 192Q417 179 421 149T426 98Q426 78 422 49T409 5Q389 -7 358 -13T295 -20Q225 -20 182 5Q174 19 170 48T165 98Q165 119 169 149T182 192Q225 217 295
217Z" />
<glyph unicode="@" horiz-adv-x="1898" d="M1325 314Q1325 239 1346 208T1412 176Q1461 176 1506 215T1581 343T1610 586Q1610 773 1533 910T1314 1124T982 1201Q829 1201 705 1145T492 987T356 749T308 451Q308 233 383 85T593 -140T906 -216Q1016 -216 1118
-198T1311 -143Q1336 -168 1351 -209T1367 -288Q1297 -315 1218 -335T1057 -366T893 -377Q664 -377 485 -284T204 -7T101 451Q101 645 165 810T348 1097T627 1287T982 1355Q1165 1355 1317 1301T1580 1146T1753 901T1814 580Q1814 394 1755 269T1602 81T1405 18Q1320
18 1258 53T1163 148T1129 286V752Q1104 777 1064 794T976 812Q906 812 860 764T792 636T769 459Q769 329 806 251T930 173Q976 173 1023 200T1109 270T1167 359L1243 257Q1218 198 1164 142T1038 48T886 10Q786 10 715 65T605 219T567 453Q567 594 614 710T752
894T976 963Q1082 963 1173 923T1325 825V314Z" />
<glyph unicode="A" horiz-adv-x="1223" d="M491 1366Q516 1370 552 1372T615 1374Q640 1374 676 1372T734 1365L1183 13Q1160 -1 1127 -7T1059 -14Q1008 -14 981 9T932 99L712 794Q684 881 656 979T606 1156H596Q586 1111 572 1058T543 955T518 867L242 -2Q222
-6 199 -8T150 -10Q122 -10 95 -6T46 4L40 15L491 1366ZM464 330Q455 330 427 330T370 331T331 332H232L298 505H385Q395 505 420 505T470 506T505 507H704Q714 507 739 507T790 506T826 505H916L973 332H874Q864 332 835 332T778 331T739 330H464Z" />
<glyph unicode="B" horiz-adv-x="1210" d="M194 1367Q304 1370 407 1372T610 1374Q757 1374 854 1331T999 1207T1047 1013Q1047 937 1014 872T921 765T785 715V744Q868 743 943 695T1065 565T1112 383Q1112 272 1062 184T907 44T635 -8Q514 -8 411 -6T194 -1L181
11V1355L194 1367ZM392 152Q455 152 516 153T635 154Q743 154 799 193T874 287T894 394Q894 444 871 500T788 595T622 635H308V800H602Q696 800 745 832T814 911T833 1007Q833 1056 816 1103T750 1181T606 1212Q564 1212 503 1212T392 1214V152Z" />
<glyph unicode="C" horiz-adv-x="1207" d="M921 894Q921 970 897 1045T811 1169T642 1219Q484 1219 404 1081T323 676Q323 428 411 294T654 160Q748 160 836 199T1011 312Q1046 290 1077 251T1118 174Q1063 119 986 74T815 1T618 -26Q475 -26 376 33T215 192T127
418T99 677Q99 926 174 1084T374 1317T647 1392Q795 1392 903 1337T1070 1193T1129 1002Q1129 948 1101 915T1008 881Q984 881 965 884T921 894Z" />
<glyph unicode="D" horiz-adv-x="1296" d="M1195 683Q1195 566 1180 459T1119 259T983 92Q939 56 878 34T752 1T634 -9Q553 -9 486 -8T350 -5T194 -1L181 11V1355L194 1367Q281 1370 349 1372T485 1374T634 1374Q688 1374 752 1364T878 1331T983 1272Q1072 1198
1117 1105T1179 906T1195 683ZM973 683Q973 772 961 864T914 1032T812 1155T633 1202Q570 1202 516 1203T394 1204V163Q462 164 516 163T633 162Q744 162 811 209T914 333T961 502T973 683Z" />
<glyph unicode="E" horiz-adv-x="1132" d="M180 1353L193 1366H388V1191Q388 1149 389 1123T390 1055V276Q390 249 389 227T388 175V-2H302Q246 -2 213 33T180 130V1353ZM890 778Q895 758 897 733T900 690Q900 672 898 648T890 601H514Q491 601 456 601T384 602T316
604V776Q346 776 383 776T456 777T514 778H890ZM998 1366Q1003 1342 1004 1321T1005 1281Q1005 1263 1002 1237T988 1186H514Q491 1186 456 1186T384 1186T316 1188V1366H998ZM1037 179Q1037 82 1008 40T896 -2H316V170Q364 173 411 176T520 179H1037Z" />
<glyph unicode="F" horiz-adv-x="1043" d="M394 0Q370 -4 342 -6T288 -8Q264 -8 235 -6T181 0V1354L194 1366H392V1261Q392 1183 393 1105T394 950V0ZM986 1366Q992 1348 995 1325T998 1282Q998 1230 968 1207T878 1183H584Q502 1183 435 1184T310 1189V1366H986ZM880
776Q885 755 887 730T890 687Q890 669 888 645T880 599H479Q442 599 397 600T314 601V774Q352 774 397 775T479 776H880Z" />
<glyph unicode="G" horiz-adv-x="1286" d="M1157 1245Q1149 1196 1118 1153T1054 1087Q983 1141 889 1175T699 1210Q592 1210 506 1158T370 987T319 671Q319 405 418 278T715 150Q821 150 911 173T1050 217L1159 59Q1099 37 1020 18T852 -14T677 -26Q516 -26 406
30T228 183T130 407T99 673Q99 864 149 1000T284 1223T476 1351T696 1392Q820 1392 944 1352T1157 1245ZM956 408Q956 478 960 538T975 644L1159 581V59L956 55V408ZM1008 719Q1092 719 1125 683T1159 581V536H789Q749 536 717 552T684 627Q684 650 689 675T700
719H1008Z" />
<glyph unicode="H" horiz-adv-x="1349" d="M506 614Q497 614 474 614T427 615T392 616Q362 616 330 615T266 614V797Q297 797 329 796T392 795Q403 795 426 795T473 796T506 797H843Q853 797 876 797T923 796T957 795Q988 795 1020 796T1083 797V614Q1052 614
1020 615T957 616Q947 616 924 616T877 615T843 614H506ZM394 0Q370 -4 341 -6T286 -8Q264 -8 234 -6T181 0V1366Q204 1371 234 1372T286 1374Q312 1374 341 1373T394 1366V943Q394 901 393 869T392 795V616Q392 576 393 543T394 468V0ZM955 468Q955 510 956 543T957
616V795Q957 836 956 868T955 943V1366Q979 1371 1007 1372T1060 1374Q1084 1374 1114 1373T1168 1366V0Q1143 -4 1115 -6T1061 -8Q1036 -8 1008 -6T955 0V468Z" />
<glyph unicode="I" horiz-adv-x="588" d="M187 1366Q210 1371 239 1372T292 1374Q318 1374 347 1373T400 1366V0Q376 -4 347 -6T292 -8Q269 -8 240 -6T187 0V1366Z" />
<glyph unicode="J" horiz-adv-x="897" d="M100 224Q144 197 201 178T314 159Q437 159 482 232T528 467V1366Q552 1371 581 1372T635 1374Q659 1374 688 1373T740 1366V497Q740 387 725 293T666 129T542 19T331 -20Q254 -20 170 2T20 64Q28 108 48 149T100 224Z" />
<glyph unicode="K" horiz-adv-x="1193" d="M181 1366Q204 1371 234 1372T286 1374Q312 1374 341 1373T394 1366V0Q370 -4 341 -6T286 -8Q264 -8 234 -6T181 0V1366ZM1160 55Q1138 23 1097 6T1016 -12Q953 -12 926 20T875 117L767 409Q725 524 672 569T530 614Q498
614 437 612T284 604V744H628Q730 744 792 715T893 629T962 490L1071 201Q1087 159 1100 132T1128 88T1160 55ZM839 1286Q863 1329 888 1350T967 1372Q994 1372 1025 1371T1088 1367L1102 1349L799 836Q755 758 689 713T521 668H284V791Q335 793 396 794T506 796Q536
796 550 809T582 852L839 1286Z" />
<glyph unicode="L" horiz-adv-x="1024" d="M394 -2H304Q250 -2 215 32T180 131V1362L193 1374H275Q340 1374 367 1342T394 1239V-2ZM969 184Q969 76 936 37T826 -2H304L194 154Q287 169 388 176T572 184H969Z" />
<glyph unicode="M" horiz-adv-x="1616" d="M254 1365Q290 1372 331 1373T398 1374Q424 1374 460 1373T533 1365L723 739Q730 716 742 672T766 578T789 485T802 422H813Q816 442 826 485T849 578T873 672T892 739L1083 1365Q1121 1372 1156 1373T1218 1374Q1243
1374 1283 1373T1362 1365L1468 3Q1445 -3 1415 -6T1359 -9Q1334 -9 1311 -8T1264 -2L1217 729Q1214 784 1211 856T1206 1002T1201 1136H1190L915 209Q891 205 861 203T806 201Q783 201 753 203T700 209L425 1136H414Q412 1077 410 1003T405 856T398 729L350 -2Q327
-6 303 -7T254 -9Q228 -9 199 -6T148 3L254 1365Z" />
<glyph unicode="N" horiz-adv-x="1360" d="M181 1364Q207 1369 245 1371T308 1374Q333 1374 368 1373T435 1366L379 1118L363 1115Q367 1045 370 960T376 787T379 625V0Q352 -4 327 -6T281 -8Q261 -8 234 -6T181 0V1364ZM497 839Q460 913 429 983T369 1117L269
1237L435 1366L858 528Q896 449 929 375T992 239L1097 128L923 0L497 839ZM1178 1363V2Q1153 -3 1117 -5T1050 -8Q1021 -8 988 -6T923 0L981 238L998 240Q993 320 989 410T984 588T982 744V1242Q982 1312 1006 1343T1096 1374H1166L1178 1363Z" />
<glyph unicode="O" horiz-adv-x="1316" d="M322 684Q322 593 336 499T385 324T487 194T658 144Q763 144 828 193T929 323T978 498T992 684Q992 775 979 869T930 1043T829 1173T658 1222Q553 1222 487 1173T386 1044T336 869T322 684ZM99 684Q99 886 159 1046T344
1299T658 1392Q849 1392 973 1299T1157 1045T1217 684Q1217 481 1156 321T972 67T658 -26Q467 -26 343 68T159 322T99 684Z" />
<glyph unicode="P" horiz-adv-x="1136" d="M1064 929Q1064 783 1006 684T844 534T606 483H305V647Q338 649 396 650T512 651T598 652Q698 652 751 696T823 805T843 929Q843 990 824 1053T751 1160T598 1204Q556 1204 500 1204T394 1206V0Q370 -4 341 -6T286 -8Q264
-8 234 -6T181 0V1355L194 1367Q307 1370 405 1372T606 1374Q739 1374 842 1325T1004 1177T1064 929Z" />
<glyph unicode="Q" horiz-adv-x="1303" d="M320 684Q320 592 333 498T381 324T481 197T652 148Q756 148 821 196T921 324T968 497T981 684Q981 776 969 870T922 1045T822 1173T652 1222Q547 1222 482 1174T381 1045T333 871T320 684ZM99 684Q99 887 157 1047T337
1299T652 1392Q846 1392 968 1299T1147 1046T1205 683Q1205 563 1181 447T1106 235T979 81T795 21Q766 3 737 -11T659 -26Q461 -26 338 66T157 319T99 684ZM590 42L807 113L950 10Q1014 -34 1057 -58T1134 -91T1203 -101Q1200 -179 1157 -217T1060 -256Q1011 -256
975 -241T906 -201L590 42Z" />
<glyph unicode="R" horiz-adv-x="1201" d="M1079 964Q1079 872 1045 798T953 674T823 600Q872 583 907 536T964 430L1053 196Q1075 137 1095 106T1142 52Q1121 21 1080 4T998 -14Q938 -14 910 19T858 117L758 387Q734 456 692 502T556 549H306V716Q350 718 407
719T520 722T614 723Q712 723 764 759T837 850T858 964Q858 1025 838 1080T765 1171T614 1206Q572 1206 508 1206T393 1208V0Q368 -4 340 -6T286 -8Q263 -8 234 -6T181 0V1355L194 1367Q307 1370 415 1372T625 1374Q764 1374 865 1327T1023 1189T1079 964Z" />
<glyph unicode="S" horiz-adv-x="1111" d="M60 124Q65 170 91 215T150 287Q237 230 343 191T553 152Q674 152 740 205T807 340Q807 410 760 464T625 556L383 657Q257 711 183 794T108 1005Q108 1114 165 1201T325 1340T561 1392Q686 1392 796 1360T984 1289Q982
1243 961 1198T907 1122Q829 1162 736 1189T564 1216Q453 1216 390 1162T326 1029Q326 963 372 921T492 848L731 749Q816 713 884 660T991 536T1030 375Q1030 261 976 170T814 26T540 -26Q416 -26 289 14T60 124Z" />
<glyph unicode="T" horiz-adv-x="984" d="M35 1186Q30 1210 28 1233T26 1276Q26 1296 28 1319T35 1366H954Q960 1348 963 1326T966 1282Q966 1230 937 1208T847 1186H716Q696 1186 659 1187T601 1188H388Q368 1188 331 1187T273 1186H35ZM388 1040Q388 1081 388
1113T388 1188V1276H600V1188Q600 1146 600 1114T601 1040V0Q576 -4 548 -6T495 -8Q470 -8 442 -6T388 0V1040Z" />
<glyph unicode="U" horiz-adv-x="1338" d="M1174 480Q1174 314 1112 202T936 32T668 -26Q515 -26 402 31T227 201T164 480V1362L176 1374H258Q323 1374 350 1342T377 1239V480Q377 316 451 231T668 146Q813 146 887 231T961 480V1366Q985 1371 1013 1372T1065
1374Q1089 1374 1119 1373T1174 1366V480Z" />
<glyph unicode="V" horiz-adv-x="1149" d="M917 1366Q938 1371 962 1372T1009 1374Q1032 1374 1059 1371T1107 1362L1116 1347L719 -1Q680 -5 638 -7T555 -9Q493 -9 460 12T409 93L41 1347Q71 1361 104 1370T171 1380Q215 1380 243 1357T287 1276L495 555Q509
506 524 446T555 325T582 210Q587 191 600 191L917 1366Z" />
<glyph unicode="W" horiz-adv-x="1701" d="M60 1355Q89 1368 119 1374T178 1380Q231 1380 256 1355T292 1265L418 587Q427 535 439 463T463 319T482 199Q484 182 487 179T499 176L717 1337Q748 1343 787 1345T855 1347Q887 1347 926 1345T992 1337L1192 199Q1195
183 1199 180T1211 176Q1220 238 1232 314T1258 463T1282 589L1436 1366Q1458 1371 1483 1372T1532 1374Q1557 1374 1584 1371T1634 1362L1645 1347L1358 2Q1320 -4 1265 -6T1168 -9Q1120 -9 1084 8T1037 94L940 630Q924 729 902 862T859 1124H846Q825 996 802
863T758 630L635 1Q597 -4 546 -6T453 -9Q403 -9 364 9T311 96L60 1355Z" />
<glyph unicode="X" horiz-adv-x="1175" d="M84 1333Q117 1357 154 1368T225 1380Q265 1380 297 1362T359 1296L1139 33Q1106 10 1069 -2T998 -14Q958 -14 926 4T863 71L84 1333ZM890 1366Q905 1370 929 1372T979 1375Q1011 1375 1041 1370T1090 1357L1096 1343L683
672L595 578L246 0Q232 -4 206 -6T155 -9Q123 -9 93 -4T42 10L36 24L498 767L585 862L890 1366Z" />
<glyph unicode="Y" horiz-adv-x="1006" d="M398 567H611V0Q586 -4 558 -6T504 -8Q481 -8 451 -6T398 0V567ZM789 1366Q811 1372 834 1373T879 1375Q906 1375 933 1372T982 1361L992 1346L594 396H418L18 1342Q53 1361 86 1371T151 1381Q196 1381 221 1359T266
1288L424 904Q446 851 468 783T508 654H518Q530 694 546 742T579 835T607 909L789 1366Z" />
<glyph unicode="Z" horiz-adv-x="1124" d="M629 983Q660 1031 702 1085T785 1196L779 1202Q755 1198 713 1195T622 1190T532 1187T467 1186H146Q141 1205 140 1223T138 1259Q138 1287 142 1313T154 1366H978Q992 1319 998 1293T1006 1253T1009 1229Q1009 1209
1003 1188T981 1143L479 393Q447 344 404 286T322 178L328 172Q391 177 456 180T569 183H776Q856 183 914 193T1013 221Q1020 198 1024 172T1029 119Q1029 61 992 31T881 0H122Q110 47 105 72T97 111T95 135Q95 156 102 180T123 226L629 983Z" />
<glyph unicode="[" horiz-adv-x="687" d="M199 1517L405 1444V-326L199 -385V1517ZM213 -399L199 -385L216 -224L609 -234Q615 -249 620 -273T626 -323Q626 -336 625 -353T618 -383L213 -399ZM618 1515Q623 1502 624 1485T626 1455Q626 1431 621 1406T609 1366L216
1356L199 1517L213 1530L618 1515Z" />
<glyph unicode="\" horiz-adv-x="845" d="M651 -322Q695 -317 744 -300T830 -254L199 1422Q154 1420 106 1403T20 1355L651 -322Z" />
<glyph unicode="]" horiz-adv-x="687" d="M489 1517L283 1444V-326L489 -385V1517ZM475 -399L489 -385L472 -224L79 -234Q74 -249 68 -273T62 -323Q62 -336 63 -353T69 -383L475 -399ZM69 1515Q65 1502 64 1485T62 1455Q62 1431 68 1406T79 1366L472 1356L489
1517L475 1530L69 1515Z" />
<glyph unicode="^" horiz-adv-x="1060" d="M972 612Q954 607 927 605T869 602Q841 602 815 604T769 612L605 963Q594 987 582 1018T558 1079T537 1132H523Q514 1110 503 1080T479 1018T455 963L292 612Q272 607 246 605T191 602Q161 602 134 604T88 612L419 1296Q438
1301 468 1303T531 1306Q563 1306 592 1304T641 1296L972 612Z" />
<glyph unicode="_" horiz-adv-x="1059" d="M-1 -310Q-5 -292 -7 -271T-9 -231Q-9 -211 -7 -189T-1 -148H1060Q1065 -167 1067 -185T1069 -231Q1069 -275 1060 -310H-1Z" />
<glyph unicode="`" horiz-adv-x="796" d="M327 1478Q282 1463 240 1425T182 1342L524 1076Q552 1084 577 1107T614 1160L327 1478Z" />
<glyph unicode="a" horiz-adv-x="1014" d="M87 268Q87 383 137 456T274 565T470 600Q525 600 596 595T728 576V437Q674 450 608 453T483 457Q392 457 342 411T292 283Q292 222 327 180T427 137Q500 137 581 188T718 338L750 180Q714 138 661 90T539 8T381 -26Q282
-26 217 18T119 129T87 268ZM921 92Q914 64 892 33T844 -15Q781 -2 742 32T684 113T661 214V665Q661 759 619 800T498 842Q423 842 343 819T183 765Q159 790 143 833T124 917Q180 941 250 962T396 995T539 1008Q638 1008 711 972T824 862T865 673V263Q865 207 876
165T921 92Z" />
<glyph unicode="b" horiz-adv-x="1055" d="M359 50H156V1458L169 1471H246Q311 1471 335 1440T359 1339V50ZM969 507Q969 332 908 216T745 43T520 -15Q424 -15 332 2T156 50L258 209Q320 173 382 156T522 138Q590 138 643 178T727 301T758 504Q758 678 706 755T576
832Q502 833 431 785T318 661L288 830Q319 869 367 909T479 976T623 1004Q738 1004 814 941T930 765T969 507Z" />
<glyph unicode="c" horiz-adv-x="943" d="M678 606Q681 671 667 727T614 819T502 855Q407 855 355 764T302 488Q302 308 361 226T528 143Q596 143 657 174T771 245Q798 228 824 192T858 121Q790 55 697 15T496 -26Q389 -26 312 15T186 127T112 292T88 488Q88 627
123 726T218 889T352 983T507 1013Q598 1013 666 986T779 915T847 817T869 712Q869 659 844 628T764 597Q739 597 719 599T678 606Z" />
<glyph unicode="d" horiz-adv-x="1060" d="M901 281Q901 223 912 172T957 92Q949 64 927 33T879 -15Q781 5 740 79T699 249V1458L711 1471H790Q854 1471 877 1440T901 1339V281ZM88 482Q88 660 144 776T288 948T471 1004Q567 1004 647 965T797 875L774 711Q716
756 646 797T500 839Q445 839 399 801T326 683T299 480Q299 362 324 288T390 180T480 146Q530 146 585 173T687 258T760 404L802 251Q783 184 731 120T603 15T432 -26Q319 -26 242 38T127 217T88 482Z" />
<glyph unicode="e" horiz-adv-x="1001" d="M218 428V578H703V604Q703 674 684 732T621 826T505 861Q403 861 352 775T301 538V475Q301 381 320 306T390 187T532 143Q607 143 677 164T810 219Q836 194 853 157T875 87Q804 35 705 5T500 -26Q381 -26 302 16T176
131T109 298T88 492Q88 641 134 759T274 945T505 1013Q635 1013 723 956T857 803T902 587Q902 539 899 505T887 428H218Z" />
<glyph unicode="f" horiz-adv-x="671" d="M300 985L671 989Q676 970 678 952T680 914Q680 894 678 875T671 837L300 841L30 837Q26 855 24 874T21 914Q21 933 23 951T30 989L300 985ZM202 898Q196 970 188 1037T179 1167Q179 1255 215 1325T321 1437T489 1479Q556
1479 627 1465T744 1431Q745 1395 732 1356T697 1292Q658 1304 613 1313T524 1322Q454 1322 415 1279T376 1155Q376 1095 385 1029T404 895V0Q357 -8 302 -8Q248 -8 202 0V898Z" />
<glyph unicode="g" horiz-adv-x="1056" d="M959 895Q926 867 915 816T903 706V114Q903 -1 892 -80T860 -214T807 -308Q760 -368 675 -404T477 -441Q385 -441 292 -421T130 -373Q131 -335 146 -290T185 -218Q248 -248 323 -264T457 -281Q559 -281 611 -244T683
-143T702 -2V738Q702 834 742 908T881 1002Q906 987 929 955T959 895ZM88 492Q88 670 144 785T289 956T471 1013Q558 1013 622 987T732 921T812 839L784 662Q731 744 655 796T503 848Q415 848 357 761T299 490Q299 312 351 234T478 155Q558 155 631 207T746 341L777
182Q750 136 700 91T583 14T436 -17Q321 -17 244 47T127 225T88 492Z" />
<glyph unicode="h" horiz-adv-x="1087" d="M359 0Q317 -8 256 -8Q201 -8 156 0V1458L169 1471H247Q312 1471 335 1440T359 1339V0ZM940 211Q940 159 947 113T973 31Q950 12 916 0T843 -13Q783 -13 759 20T734 118V626Q734 726 708 772T609 818Q559 818 501 794T390
725T306 621V820Q373 897 470 950T675 1004Q769 1004 827 961T912 843T940 676V211Z" />
<glyph unicode="i" horiz-adv-x="543" d="M390 0Q369 -4 342 -6T287 -8Q259 -8 232 -6T183 0V733Q183 786 165 811T96 837H74Q65 873 65 910Q65 928 67 946T74 985Q112 990 145 992T201 994H228Q303 994 346 947T390 817V0ZM122 1254Q122 1276 126 1301T140 1344Q158
1354 189 1361T250 1368Q278 1368 311 1361T360 1344Q369 1326 373 1301T378 1254Q378 1233 374 1208T360 1165Q346 1155 312 1148T250 1140Q221 1140 189 1147T140 1165Q131 1183 127 1208T122 1254Z" />
<glyph unicode="j" horiz-adv-x="556" d="M403 -39Q403 -158 378 -236T290 -363T114 -439Q92 -419 76 -385T53 -312Q110 -283 141 -254T186 -181T199 -65V733Q199 786 180 811T112 837H71Q62 873 62 910Q62 928 64 946T71 985Q112 990 153 992T218 994H245Q318
994 360 947T403 817V-39ZM133 1254Q133 1276 137 1301T151 1344Q169 1354 200 1361T261 1368Q289 1368 322 1361T371 1344Q380 1326 384 1301T389 1254Q389 1233 385 1208T371 1165Q357 1155 323 1148T261 1140Q232 1140 200 1147T151 1165Q142 1183 138 1208T133
1254Z" />
<glyph unicode="k" horiz-adv-x="1004" d="M359 0Q338 -4 312 -6T256 -8Q200 -8 156 0V1458L169 1471H247Q312 1471 335 1440T359 1339V0ZM874 207Q898 146 920 108T970 50Q948 24 910 6T831 -13Q776 -13 750 16T701 103L620 299Q589 377 554 403T450 430Q421
430 391 428T326 422L254 415V565H521Q630 565 696 520T806 372L874 207ZM688 629Q647 561 587 531T441 501H275V595L426 601Q443 601 453 608T474 630L649 907Q674 949 703 971T785 994Q816 994 841 994T894 991L906 975L688 629Z" />
<glyph unicode="l" horiz-adv-x="587" d="M508 155Q516 133 520 106T525 51Q525 40 525 28T520 6Q486 1 439 -4T350 -9Q253 -9 203 42T153 197V1458L166 1471H244Q309 1471 332 1440T355 1339V243Q355 155 434 155H508Z" />
<glyph unicode="m" horiz-adv-x="1594" d="M246 996Q310 996 336 957T362 849V0Q342 -4 315 -6T260 -8Q232 -8 205 -6T156 0V982L169 996H246ZM698 626Q698 732 668 775T579 819Q529 819 473 788T368 704T292 588V789Q336 851 392 899T513 976T645 1005Q732 1005
790 964T876 852T905 695V0Q883 -4 856 -6T802 -8Q774 -8 747 -6T698 0V626ZM1240 628Q1240 734 1210 776T1120 819Q1073 819 1018 789T912 705T829 583V813Q879 867 937 910T1060 979T1191 1005Q1278 1005 1335 963T1419 851T1447 692V211Q1447 159 1454 113T1480
31Q1457 12 1423 0T1351 -13Q1290 -13 1265 20T1240 118V628Z" />
<glyph unicode="n" horiz-adv-x="1091" d="M246 996Q311 996 336 957T362 849V0Q342 -4 315 -6T260 -8Q232 -8 205 -6T156 0V983L169 996H246ZM944 211Q944 159 951 113T978 31Q955 12 920 0T848 -13Q787 -13 763 20T738 118V627Q738 728 712 773T613 819Q563
819 505 795T394 727T310 623V821Q377 898 474 951T679 1005Q773 1005 831 962T916 844T944 677V211Z" />
<glyph unicode="o" horiz-adv-x="1040" d="M952 494Q952 341 903 224T758 40T519 -26Q377 -26 281 41T137 225T88 494Q88 646 137 763T282 946T519 1013Q663 1013 759 947T904 763T952 494ZM301 494Q301 401 320 318T387 184T521 132Q607 132 654 183T720 318T739
494Q739 587 720 670T654 805T521 857Q435 857 387 805T320 670T301 494Z" />
<glyph unicode="p" horiz-adv-x="1060" d="M232 996Q298 996 328 954T359 834V-299Q359 -367 336 -399T247 -431H169L156 -418V983L169 996H232ZM972 506Q972 327 916 211T772 39T588 -17Q493 -17 413 22T263 113L286 276Q344 231 414 190T560 148Q616 148 661
186T734 305T762 507Q762 626 737 699T670 807T580 841Q530 841 475 814T373 730T300 583L258 736Q277 803 329 867T457 972T628 1013Q742 1013 818 949T933 770T972 506Z" />
<glyph unicode="q" horiz-adv-x="1058" d="M88 492Q88 670 144 785T289 956T471 1013Q558 1013 622 988T732 923T812 842L784 662Q731 744 655 796T503 848Q446 848 400 810T326 692T299 490Q299 312 352 234T478 155Q558 155 631 207T746 341L777 179Q750 134
700 89T583 13T436 -17Q321 -17 244 47T127 225T88 492ZM700 738Q700 834 741 908T880 1002Q905 987 928 955T958 895Q925 867 914 816T902 706V-418L890 -431H811Q746 -431 723 -399T700 -299V738Z" />
<glyph unicode="r" horiz-adv-x="737" d="M727 990Q727 948 715 893T676 795Q657 800 636 801T595 804Q538 804 496 781T424 720T373 637T339 549L309 587Q311 658 328 730T380 864T475 963T620 1001Q647 1001 672 999T727 990ZM100 892Q107 919 129 952T175 1002Q275
980 324 902T380 704V0Q359 -4 332 -6T277 -8Q249 -8 222 -6T174 0V686Q174 766 150 817T100 892Z" />
<glyph unicode="s" horiz-adv-x="875" d="M62 74Q64 108 84 150T130 218Q193 184 265 157T411 129Q493 129 541 164T590 254Q590 296 558 332T464 390L348 433Q279 458 222 496T129 588T94 718Q94 810 140 876T267 977T448 1013Q529 1013 620 992T774 941Q775
916 768 887T747 832T714 789Q661 814 591 834T446 855Q381 855 342 824T303 739Q303 697 333 669T426 618L549 573Q662 532 732 460T803 272Q803 133 695 54T411 -26Q306 -26 217 4T62 74Z" />
<glyph unicode="t" horiz-adv-x="701" d="M193 1162Q193 1231 216 1262T304 1294H382L395 1280V242Q395 202 414 179T478 155H616Q632 108 632 51Q632 40 632 28T628 6Q578 0 521 -4T405 -9Q303 -9 248 42T193 197V1162ZM642 989Q652 952 652 914Q652 872 642
837L315 841L46 837Q38 874 38 914Q38 950 46 989L318 985L642 989Z" />
<glyph unicode="u" horiz-adv-x="1094" d="M935 280Q935 222 947 171T991 91Q983 62 961 32T914 -15Q816 5 773 79T729 250V987Q749 991 776 993T832 995Q860 995 887 993T935 987V280ZM147 776Q147 828 140 874T115 956Q137 975 172 987T244 1000Q304 1000 329
967T354 869V360Q354 260 379 214T478 168Q529 168 587 192T697 261T781 364V167Q715 89 618 36T412 -18Q319 -18 261 25T175 144T147 310V776Z" />
<glyph unicode="v" horiz-adv-x="911" d="M708 988Q729 993 748 994T786 996Q814 996 840 992T891 980L896 971Q862 856 820 722T735 453T654 200T588 0Q554 -6 515 -8T438 -11Q377 -11 345 10T289 105L11 971Q46 987 75 994T131 1002Q175 1002 202 983T243 914L377
474Q393 425 408 369T435 264T454 183Q456 172 459 170T472 167L708 988Z" />
<glyph unicode="w" horiz-adv-x="1445" d="M45 974Q80 990 109 996T166 1002Q207 1002 230 983T262 918L353 503Q373 410 390 319T418 171Q421 154 434 154L602 982Q627 988 666 990T725 993Q748 993 787 991T849 982L1011 171Q1015 154 1027 154Q1045 241 1062
327T1100 503L1209 988Q1226 992 1250 994T1297 996Q1321 996 1350 993T1400 980L1407 970L1164 -1Q1133 -6 1089 -7T1008 -9Q948 -9 913 10T864 102L806 380Q797 433 784 502T758 648T730 795H720Q708 724 693 649T664 504T639 381L557 0Q523 -5 477 -7T392 -9Q339
-9 304 11T253 104L45 974Z" />
<glyph unicode="x" horiz-adv-x="921" d="M55 957Q86 979 124 991T197 1004Q235 1004 258 988T301 941L894 32Q865 13 826 -1T751 -15Q713 -15 689 1T645 47L55 957ZM662 987Q676 991 700 993T746 996Q777 996 803 992T848 981L854 965L541 477L486 419L228 -1Q214
-6 190 -8T142 -11Q112 -11 85 -7T37 6L30 22L376 561L438 622L662 987Z" />
<glyph unicode="y" horiz-adv-x="935" d="M648 32Q604 -121 552 -225T417 -383T202 -437Q155 -437 99 -427T11 -405Q8 -368 21 -325T55 -257Q79 -265 121 -273T204 -281Q271 -281 315 -251T390 -165T443 -34L450 -10Q388 -8 351 14T295 97L33 971Q68 988 100 995T158
1002Q195 1002 221 984T262 910L397 450Q412 404 425 350T451 246T472 156Q476 142 491 142L710 988Q729 992 753 994T799 996Q826 996 853 993T905 982L912 970L648 32Z" />
<glyph unicode="z" horiz-adv-x="893" d="M428 639Q463 685 506 736T587 832L581 839Q553 836 506 833T408 829T316 828H106Q102 843 101 862T99 894Q99 913 102 938T110 987H779Q795 943 802 916T810 866Q810 850 804 832T783 796L458 356Q424 310 382 257T304
161L310 154Q358 158 408 160T494 162H589Q657 162 712 168T805 190Q815 165 820 143T825 98Q825 53 797 27T695 0H99Q83 44 77 68T70 113Q70 131 77 151T102 195L428 639Z" />
<glyph unicode="{" horiz-adv-x="693" d="M84 619Q154 640 201 702T249 854V1194Q249 1338 329 1419T533 1521L635 1538Q650 1522 660 1496T674 1443T673 1396L573 1364Q519 1347 489 1304T459 1192V858Q459 763 414 679T292 558V542Q368 508 413 424T459 243V-91Q459
-160 489 -203T573 -263L673 -295Q678 -315 674 -342T660 -395T635 -437L533 -420Q409 -400 329 -319T249 -93V247Q249 336 202 399T84 483Q75 507 75 551T84 619Z" />
<glyph unicode="|" horiz-adv-x="511" d="M158 1549Q180 1554 208 1555T256 1557Q278 1557 303 1556T353 1549V-281Q329 -287 304 -289T256 -291Q236 -291 208 -289T158 -281V1549Z" />
<glyph unicode="}" horiz-adv-x="693" d="M608 619Q539 640 492 702T444 854V1194Q444 1338 364 1419T160 1521L58 1538Q44 1522 34 1496T19 1443T20 1396L120 1364Q174 1347 204 1304T234 1192V858Q234 763 279 679T401 558V542Q325 508 280 424T234 243V-91Q234
-160 204 -203T120 -263L20 -295Q15 -315 19 -342T33 -395T58 -437L160 -420Q283 -400 363 -319T444 -93V247Q444 336 491 399T608 483Q618 507 618 551T608 619Z" />
<glyph unicode="~" horiz-adv-x="1172" d="M708 641Q736 629 762 623T811 616Q847 616 877 633T932 681L970 725Q1004 723 1041 701T1093 644L1066 597Q1020 513 951 468T791 422Q749 422 706 433T621 463L463 534Q436 545 411 551T360 558Q325 558 295 541T239
494L201 450Q168 453 131 474T79 530L106 577Q152 661 221 706T382 752Q423 752 466 741T552 711L708 641Z" />
<glyph unicode="&#xa0;" horiz-adv-x="440" />
<glyph unicode="&#xa1;" horiz-adv-x="576" d="M373 598Q384 398 396 201T409 -198V-379Q380 -386 336 -389T248 -389T175 -377V-196Q175 3 188 201T212 598Q232 604 253 606T292 608Q309 608 331 606T373 598ZM292 767Q222 767 179 792Q172 806 167 836T162 886Q162
907 167 936T179 979Q200 991 231 997T292 1004Q324 1004 354 998T405 979Q413 965 417 936T422 886Q422 866 418 836T405 792Q385 780 355 774T292 767Z" />
<glyph unicode="&#xa2;" horiz-adv-x="1080" d="M565 -50Q545 -50 522 -48T482 -42V241H647V-42Q631 -46 608 -48T565 -50ZM488 1014V1308Q505 1312 528 1314T571 1316Q592 1316 614 1314T653 1308V1014H488ZM568 135Q442 135 357 179T221 295T148 455T125 628Q125
803 189 914T357 1078T576 1131Q672 1131 744 1104T863 1033T933 938T957 837Q957 780 933 748T847 715Q827 715 808 717T770 725Q772 783 755 840T694 934T570 972Q459 972 399 883T338 628Q338 464 407 385T597 305Q670 305 737 336T857 413Q885 396 912 362T951
294Q908 245 847 210T714 155T568 135Z" />
<glyph unicode="&#xa3;" horiz-adv-x="1080" d="M176 0Q158 53 153 79T148 123Q148 156 166 181T203 228L227 255Q271 304 301 357T331 484Q331 564 308 636T262 780T239 931Q239 1025 284 1108T417 1243T628 1295Q738 1295 822 1255T962 1163Q954 1124 926 1084T860
1023Q811 1068 754 1093T640 1119Q565 1119 508 1072T451 919Q451 856 469 790T506 653T525 499Q525 398 476 316T358 171L363 166Q429 171 513 173T688 176H977Q977 70 943 35T840 0H176ZM155 533Q148 564 148 608Q148 650 155 686L403 684L811 686Q815 670 817
651T820 610Q820 590 818 569T811 533L403 534L155 533Z" />
<glyph unicode="&#xa4;" horiz-adv-x="1080" d="M538 245Q426 245 338 295T201 432T151 632Q151 746 200 833T338 971T538 1021Q653 1021 740 971T878 834T928 632Q928 520 878 433T741 295T538 245ZM538 395Q636 395 687 464T738 632Q738 730 687 800T538 871Q442
871 392 801T341 632Q341 535 391 465T538 395ZM167 147Q134 165 104 195T54 260L261 484L392 351L167 147ZM261 780L54 1004Q72 1038 103 1068T167 1117L391 913L261 780ZM820 781L689 914L913 1119Q946 1101 976 1071T1026 1006L820 781ZM910 146L687 351L818
482L1023 259Q1006 226 976 196T910 146Z" />
<glyph unicode="&#xa5;" horiz-adv-x="1080" d="M439 443L86 1249Q119 1266 153 1276T219 1286Q290 1286 321 1204L454 887Q477 829 498 769T539 641H550Q570 702 594 767T640 887L798 1270Q819 1276 840 1278T881 1280Q907 1280 933 1277T986 1267L994 1251L637
443H439ZM538 -8Q517 -8 488 -6T435 0V507H640V0Q615 -4 588 -6T538 -8ZM146 323Q142 340 140 357T138 396Q138 416 140 434T146 469H929Q938 433 938 397Q938 362 929 323H146ZM146 623Q142 639 140 657T138 697Q138 717 140 735T146 770H419V623H146ZM656 623V770H929Q933
756 935 737T938 697Q938 678 936 660T929 623H656Z" />
<glyph unicode="&#xa6;" horiz-adv-x="499" d="M153 493Q175 498 202 499T250 501Q272 501 297 500T346 493V-281Q323 -287 298 -289T250 -291Q230 -291 203 -289T153 -281V493ZM153 1549Q175 1554 202 1555T250 1557Q272 1557 297 1556T346 1549V775Q323 769
298 767T250 765Q230 765 203 767T153 775V1549Z" />
<glyph unicode="&#xa7;" horiz-adv-x="971" d="M508 366Q585 393 644 447T704 577Q704 623 676 657T600 716T498 763L394 804Q325 831 267 871T173 967T138 1101Q138 1187 184 1252T312 1355T495 1392Q576 1392 661 1372T808 1322Q810 1283 793 1240T747 1173Q695
1195 630 1214T498 1234Q432 1234 389 1203T346 1116Q346 1071 379 1042T471 988L588 942Q673 908 746 865T864 760T910 608Q910 526 863 458T741 339T579 263L508 366ZM464 812Q414 793 370 763T297 692T268 601Q268 555 296 522T372 463T476 414L579 374Q649
347 707 307T800 209T835 75Q835 -11 788 -76T658 -179T464 -216Q378 -216 287 -193T132 -132Q131 -93 152 -49T199 15Q249 -10 317 -34T468 -59Q541 -59 584 -27T628 60Q628 105 595 135T503 189L386 236Q302 271 229 313T109 418T63 569Q63 652 110 720T233 839T394
915L464 812Z" />
<glyph unicode="&#xa8;" horiz-adv-x="796" d="M100 1229Q100 1248 103 1270T115 1310Q132 1320 160 1326T212 1333Q236 1333 264 1327T309 1310Q317 1293 320 1271T324 1229Q324 1211 321 1189T309 1149Q292 1139 264 1133T212 1126Q188 1126 160 1132T115 1149Q107
1166 104 1188T100 1229ZM472 1229Q472 1248 475 1270T487 1310Q504 1320 532 1326T584 1333Q609 1333 636 1327T681 1310Q689 1293 693 1271T697 1229Q697 1211 693 1189T681 1149Q664 1139 637 1133T584 1126Q560 1126 532 1132T487 1149Q479 1166 476 1188T472
1229Z" />
<glyph unicode="&#xa9;" horiz-adv-x="1605" d="M80 682Q80 835 135 966T288 1195T517 1349T802 1404Q954 1404 1085 1349T1315 1196T1469 966T1524 682Q1524 529 1469 398T1316 169T1086 17T802 -38Q649 -38 518 16T288 169T135 398T80 682ZM254 682Q254 563
294 459T408 277T582 154T802 109Q921 109 1021 153T1196 276T1311 459T1352 682Q1352 801 1311 905T1196 1088T1022 1212T802 1257Q682 1257 582 1212T409 1089T295 906T254 682ZM944 760Q947 804 935 847T890 920T801 949Q724 949 680 881T635 683Q635 557 685
491T825 425Q875 425 928 449T1023 505Q1047 492 1067 463T1095 407Q1046 356 964 322T799 287Q684 287 608 339T493 482T455 683Q455 822 507 910T641 1039T808 1081Q905 1081 971 1044T1071 952T1105 844Q1105 801 1084 775T1012 749Q994 749 976 752T944 760Z"
/>
<glyph unicode="&#xaa;" horiz-adv-x="849" d="M79 717Q79 807 118 863T227 946T384 973Q431 973 488 969T595 959V836Q550 844 496 848T392 853Q328 853 292 820T255 729Q255 685 282 653T358 621Q412 621 479 663T590 779L619 651Q590 616 546 578T445 512T317
484Q238 484 186 518T106 605T79 717ZM757 584Q753 560 732 533T684 492Q610 505 571 559T532 700V1022Q532 1090 498 1119T413 1149Q350 1149 289 1135T162 1094Q142 1115 127 1149T111 1219Q178 1248 269 1270T445 1292Q524 1292 583 1264T676 1178T709 1029V720Q709
675 718 641T757 584Z" />
<glyph unicode="&#xab;" horiz-adv-x="1116" d="M756 513L1044 182Q1036 161 1018 138T975 98T927 74L531 445Q521 471 521 510T531 575L919 945Q954 934 988 902T1033 835L756 513ZM302 513L590 182Q582 161 564 138T521 98T473 74L77 445Q67 471 67 510T77 575L465
945Q500 934 534 902T579 835L302 513Z" />
<glyph unicode="&#xac;" horiz-adv-x="1080" d="M113 727Q108 706 106 683T104 639Q104 620 106 595T113 550H671Q696 550 724 551T776 552L956 550V715L943 727H113ZM768 568Q769 544 768 514T766 459V270Q791 265 814 264T863 262Q888 262 912 263T956 270V634H766L768
568Z" />
<glyph unicode="&#xad;" horiz-adv-x="700" d="M101 444Q97 465 95 489T93 533Q93 554 95 577T101 623H598Q604 601 605 578T607 533Q607 513 606 489T598 444H101Z" />
<glyph unicode="&#xae;" horiz-adv-x="1186" d="M69 962Q69 1108 138 1227T327 1417T592 1487Q739 1487 858 1417T1047 1228T1117 962Q1117 815 1047 697T858 509T592 439Q446 439 327 508T139 696T69 962ZM206 962Q206 852 256 762T394 617T592 563Q703 563 790
617T928 761T979 962Q979 1072 929 1162T791 1307T592 1362Q482 1362 395 1308T257 1163T206 962ZM796 1073Q796 1016 765 984T695 940Q717 931 729 914T761 862L789 810Q798 794 809 778T833 753Q821 735 798 722T749 708Q722 708 705 724T673 769L625 862Q615
880 602 890T564 901H464V995Q490 997 529 997T589 997Q632 997 651 1016T670 1064Q670 1089 653 1108T597 1128Q579 1128 557 1128T520 1128V718Q495 711 459 711Q423 711 398 718V1212L404 1218Q452 1220 506 1221T605 1222Q704 1222 750 1181T796 1073Z" />
<glyph unicode="&#xaf;" horiz-adv-x="796" d="M118 1151Q108 1188 108 1232Q108 1277 118 1317H679Q684 1295 686 1278T688 1234Q688 1189 679 1151H118Z" />
<glyph unicode="&#xb0;" horiz-adv-x="741" d="M59 978Q59 1069 100 1139T211 1251T371 1292Q460 1292 530 1251T641 1140T682 978Q682 888 642 817T531 705T371 664Q282 664 212 705T100 817T59 978ZM217 978Q217 903 258 854T371 805Q441 805 482 854T523 978Q523
1053 482 1102T371 1151Q300 1151 259 1102T217 978Z" />
<glyph unicode="&#xb1;" horiz-adv-x="1080" d="M143 774Q139 752 137 734T135 691Q135 666 137 647T143 606H353Q378 606 406 607T457 608H623Q647 608 675 607T727 606H937Q941 628 943 647T945 691Q945 716 943 734T937 774H727Q703 774 675 773T623 772H457Q434
772 406 773T353 774H143ZM447 872Q447 847 448 818T449 764V616Q449 592 448 563T447 509V303Q469 299 492 298T541 296Q565 296 589 297T634 303V509Q634 533 633 562T632 616V764Q632 789 633 818T634 872V1083Q613 1088 589 1090T541 1092Q515 1092 492 1090T447
1083V872ZM143 0Q139 23 137 42T135 86Q135 112 137 130T143 172H937Q941 148 943 130T945 86Q945 62 943 43T937 0H143Z" />
<glyph unicode="&#xb2;" horiz-adv-x="834" d="M122 1293Q147 1378 220 1438T405 1499Q529 1499 603 1424T678 1240Q678 1172 651 1120T585 1031T511 968L416 899Q353 853 320 816T286 747V642H167Q134 678 122 702T109 751Q109 807 155 870T266 983L391 1080Q430
1110 463 1148T496 1238Q496 1286 467 1316T390 1346Q343 1346 309 1313T255 1231Q233 1233 206 1242T155 1264T122 1293ZM702 799Q702 733 690 699T656 654T600 642H189L167 750Q229 777 314 788T486 799H702Z" />
<glyph unicode="&#xb3;" horiz-adv-x="834" d="M520 912Q520 979 480 1013T384 1048Q363 1048 342 1044T301 1029Q278 1039 259 1066T233 1124Q284 1141 344 1152T453 1164Q519 1164 575 1134T666 1046T700 910Q700 815 653 753T532 660T378 629Q292 629 222 654T106
716Q112 751 131 783T175 837Q215 810 264 792T370 773Q436 773 478 809T520 912ZM523 1206Q490 1175 436 1143T330 1092L233 1124L387 1279Q403 1293 423 1311T462 1342L458 1348Q433 1344 386 1341T305 1338H144Q140 1357 138 1374T136 1404Q136 1422 139 1443T150
1485H631Q643 1463 653 1436T664 1384Q664 1362 655 1345T626 1310L523 1206Z" />
<glyph unicode="&#xb4;" horiz-adv-x="796" d="M469 1478Q514 1463 555 1425T614 1342L272 1076Q244 1084 219 1107T181 1160L469 1478Z" />
<glyph unicode="&#xb5;" horiz-adv-x="1108" d="M229 456V319Q229 225 263 148T362 26T513 -19Q613 -19 685 35T799 171L789 363Q747 272 683 216T536 160Q456 160 408 212T359 360V456H229ZM948 987Q926 991 899 993T844 995Q816 995 789 993T741 987V251Q741
155 784 80T926 -15Q951 1 973 31T1004 91Q971 120 960 171T948 281V987ZM359 987Q317 995 257 995Q229 995 203 993T156 987V-213Q156 -256 150 -306T123 -395Q148 -415 180 -426T249 -437Q311 -437 330 -400T349 -298V159H359V987Z" />
<glyph unicode="&#xb6;" horiz-adv-x="1342" d="M574 121Q574 33 559 -26T503 -116T381 -147Q335 -147 283 -134T190 -106Q167 -135 153 -182T140 -263Q183 -281 255 -296T401 -311Q549 -311 632 -257T749 -98T784 155V1355L771 1368Q706 1371 657 1373T543 1375Q411
1375 307 1329T144 1187T84 942Q84 796 143 698T304 551T536 502H574V121ZM914 1353L927 1366H1126V-266Q1101 -270 1073 -272T1020 -274Q997 -274 967 -272T914 -266V1353ZM1022 1366H1287Q1293 1345 1295 1310T1296 1239T1287 1183H1207Q1177 1183 1148 1185T1093
1187H1022V1366Z" />
<glyph unicode="&#xb7;" horiz-adv-x="609" d="M172 526Q172 544 176 576T190 626Q209 637 242 645T305 653Q333 653 367 645T420 626Q429 608 433 576T438 526Q438 508 434 477T420 427Q403 415 368 408T305 401Q275 401 242 408T190 427Q181 445 177 476T172 526Z" />
<glyph unicode="&#xb8;" horiz-adv-x="796" d="M263 -149Q275 -115 296 -67T334 12H461Q451 -2 438 -29T418 -73Q493 -80 545 -127T597 -249Q597 -336 529 -391T357 -447Q310 -447 268 -435T200 -407Q202 -378 213 -351T241 -302Q260 -313 287 -321T341 -329Q388
-329 409 -306T430 -252Q430 -220 409 -198T345 -175Q333 -175 321 -177T299 -184Q287 -179 277 -169T263 -149Z" />
<glyph unicode="&#xb9;" horiz-adv-x="834" d="M545 716H373V1106Q373 1129 375 1162T380 1232T381 1299L380 1483Q402 1488 423 1490T464 1492Q484 1492 502 1490T545 1483V716ZM277 788Q295 788 325 787T373 786H545Q561 786 594 787T645 788H708Q713 771 715
752T717 715Q717 698 715 679T708 642H171Q167 662 165 679T163 715Q163 732 165 751T171 788H277ZM118 1210Q222 1270 281 1334T380 1483L443 1361Q416 1267 353 1204T195 1098Q165 1113 144 1145T118 1210Z" />
<glyph unicode="&#xba;" horiz-adv-x="826" d="M754 889Q754 796 730 712T641 567Q599 526 540 505T412 484Q344 484 285 504T184 567Q123 630 97 713T71 889Q71 981 96 1064T184 1210Q271 1292 412 1292Q480 1292 540 1272T641 1210Q702 1146 728 1064T754 889ZM251
889Q251 818 266 758T317 661T414 624Q474 624 509 660T559 757T575 889Q575 960 560 1020T509 1117T414 1153Q353 1153 317 1117T266 1021T251 889Z" />
<glyph unicode="&#xbb;" horiz-adv-x="1116" d="M361 505L73 836Q81 859 99 881T142 920T190 945L586 574Q597 548 597 509T586 444L198 74Q163 85 130 117T84 183L361 505ZM815 505L527 836Q535 859 553 881T596 920T644 945L1040 574Q1051 548 1051 509T1040
444L652 74Q617 85 584 117T538 183L815 505Z" />
<glyph unicode="&#xbc;" horiz-adv-x="1998" d="M545 853H373V1243Q373 1266 375 1299T380 1369T381 1436L380 1620Q402 1625 423 1627T464 1629Q484 1629 502 1627T545 1620V853ZM277 925Q295 925 325 924T373 923H545Q561 923 594 924T645 925H708Q713 908 715
889T717 852Q717 835 715 816T708 779H171Q167 799 165 816T163 852Q163 869 165 888T171 925H277ZM118 1347Q222 1407 281 1471T380 1620L443 1498Q416 1404 353 1341T195 1235Q165 1250 144 1282T118 1347ZM1334 1366Q1360 1374 1401 1376T1480 1376T1537 1366L784
0Q759 -8 718 -10T639 -10T581 0L1334 1366ZM1298 156Q1283 180 1271 209T1259 260Q1259 278 1269 306T1288 352L1519 852Q1559 858 1608 847T1684 813L1533 489Q1522 464 1506 430T1471 361T1434 303L1437 299Q1462 301 1488 302T1539 303T1576 304H1778Q1793
304 1810 304T1842 305H1898Q1902 292 1903 273T1905 238Q1905 218 1902 195T1893 156H1839Q1826 156 1808 156T1777 157H1615Q1600 157 1577 157T1535 156H1298ZM1613 87Q1613 105 1614 123T1615 157V286Q1615 296 1614 318T1613 352V417Q1613 474 1643 508T1724
542H1773L1779 536V393Q1779 373 1778 348T1777 304V157Q1777 142 1778 124T1779 87V1Q1761 -4 1739 -6T1697 -9Q1676 -9 1654 -7T1613 1V87Z" />
<glyph unicode="&#xbd;" horiz-adv-x="2025" d="M545 853H373V1243Q373 1266 375 1299T380 1369T381 1436L380 1620Q402 1625 423 1627T464 1629Q484 1629 502 1627T545 1620V853ZM277 925Q295 925 325 924T373 923H545Q561 923 594 924T645 925H708Q713 908 715
889T717 852Q717 835 715 816T708 779H171Q167 799 165 816T163 852Q163 869 165 888T171 925H277ZM118 1347Q222 1407 281 1471T380 1620L443 1498Q416 1404 353 1341T195 1235Q165 1250 144 1282T118 1347ZM1334 1366Q1360 1374 1401 1376T1480 1376T1537 1366L784
0Q759 -8 718 -10T639 -10T581 0L1334 1366ZM1313 651Q1338 736 1411 796T1596 857Q1720 857 1794 782T1869 598Q1869 530 1842 478T1776 389T1702 326L1607 257Q1544 211 1511 174T1477 105V0H1358Q1325 36 1313 60T1300 109Q1300 165 1346 228T1457 341L1582
438Q1621 468 1654 506T1687 596Q1687 644 1658 674T1581 704Q1534 704 1500 671T1446 589Q1424 591 1397 600T1346 622T1313 651ZM1893 157Q1893 91 1881 57T1847 12T1791 0H1380L1358 108Q1420 135 1505 146T1677 157H1893Z" />
<glyph unicode="&#xbe;" horiz-adv-x="1956" d="M520 1049Q520 1116 480 1150T384 1185Q363 1185 342 1181T301 1166Q278 1176 259 1203T233 1261Q284 1278 344 1289T453 1301Q519 1301 575 1271T666 1183T700 1047Q700 952 653 890T532 797T378 766Q292 766 222
791T106 853Q112 888 131 920T175 974Q215 947 264 929T370 910Q436 910 478 946T520 1049ZM523 1343Q490 1312 436 1280T330 1229L233 1261L387 1416Q403 1430 423 1448T462 1479L458 1485Q433 1481 386 1478T305 1475H144Q140 1494 138 1511T136 1541Q136 1559
139 1580T150 1622H631Q643 1600 653 1573T664 1521Q664 1499 655 1482T626 1447L523 1343ZM1291 1366Q1317 1374 1358 1376T1437 1376T1494 1366L741 0Q716 -8 675 -10T596 -10T538 0L1291 1366ZM1256 156Q1241 180 1229 209T1217 260Q1217 278 1227 306T1246
352L1477 852Q1517 858 1566 847T1642 813L1491 489Q1480 464 1464 430T1429 361T1392 303L1395 299Q1420 301 1446 302T1497 303T1534 304H1736Q1751 304 1768 304T1800 305H1856Q1860 292 1861 273T1863 238Q1863 218 1860 195T1851 156H1797Q1784 156 1766 156T1735
157H1573Q1558 157 1535 157T1493 156H1256ZM1571 87Q1571 105 1572 123T1573 157V286Q1573 296 1572 318T1571 352V417Q1571 474 1601 508T1682 542H1731L1737 536V393Q1737 373 1736 348T1735 304V157Q1735 142 1736 124T1737 87V1Q1719 -4 1697 -6T1655 -9Q1634
-9 1612 -7T1571 1V87Z" />
<glyph unicode="&#xbf;" horiz-adv-x="791" d="M776 -305Q695 -350 597 -378T394 -407Q223 -407 123 -314T23 -66Q23 73 98 167T284 322L409 392L425 595Q443 601 462 603T502 606Q521 606 543 604T584 595L595 297L578 274L481 225Q375 171 309 107T243 -45Q243
-126 295 -175T440 -224Q507 -224 573 -202T700 -150Q727 -173 750 -218T776 -305ZM502 767Q472 767 441 773T389 793Q381 806 376 835T371 886Q371 907 376 936T389 979Q409 991 440 998T502 1005Q572 1005 616 979Q624 965 628 936T633 886Q633 865 629 836T616
793Q572 767 502 767Z" />
<glyph unicode="&#xc0;" horiz-adv-x="1223" d="M491 1366Q516 1370 552 1372T615 1374Q640 1374 676 1372T734 1365L1183 13Q1160 -1 1127 -7T1059 -14Q1008 -14 981 9T932 99L712 794Q684 881 656 979T606 1156H596Q586 1111 572 1058T543 955T518 867L242 -2Q222
-6 199 -8T150 -10Q122 -10 95 -6T46 4L40 15L491 1366ZM464 330Q455 330 427 330T370 331T331 332H232L298 505H385Q395 505 420 505T470 506T505 507H704Q714 507 739 507T790 506T826 505H916L973 332H874Q864 332 835 332T778 331T739 330H464ZM436 1805Q416
1791 396 1764T362 1703T344 1635L779 1457Q806 1473 821 1504T842 1564L436 1805Z" />
<glyph unicode="&#xc1;" horiz-adv-x="1223" d="M491 1366Q516 1370 552 1372T615 1374Q640 1374 676 1372T734 1365L1183 13Q1160 -1 1127 -7T1059 -14Q1008 -14 981 9T932 99L712 794Q684 881 656 979T606 1156H596Q586 1111 572 1058T543 955T518 867L242 -2Q222
-6 199 -8T150 -10Q122 -10 95 -6T46 4L40 15L491 1366ZM464 330Q455 330 427 330T370 331T331 332H232L298 505H385Q395 505 420 505T470 506T505 507H704Q714 507 739 507T790 506T826 505H916L973 332H874Q864 332 835 332T778 331T739 330H464ZM818 1805Q838
1791 857 1764T891 1703T910 1635L474 1457Q450 1472 433 1504T412 1564L818 1805Z" />
<glyph unicode="&#xc2;" horiz-adv-x="1223" d="M491 1366Q516 1370 552 1372T615 1374Q640 1374 676 1372T734 1365L1183 13Q1160 -1 1127 -7T1059 -14Q1008 -14 981 9T932 99L712 794Q684 881 656 979T606 1156H596Q586 1111 572 1058T543 955T518 867L242 -2Q222
-6 199 -8T150 -10Q122 -10 95 -6T46 4L40 15L491 1366ZM464 330Q455 330 427 330T370 331T331 332H232L298 505H385Q395 505 420 505T470 506T505 507H704Q714 507 739 507T790 506T826 505H916L973 332H874Q864 332 835 332T778 331T739 330H464ZM703 1776L927
1564Q916 1531 889 1507T837 1474L612 1624L388 1474Q364 1482 336 1506T296 1564L521 1776Q539 1779 563 1781T612 1784Q637 1784 660 1782T703 1776Z" />
<glyph unicode="&#xc3;" horiz-adv-x="1223" d="M491 1366Q516 1370 552 1372T615 1374Q640 1374 676 1372T734 1365L1183 13Q1160 -1 1127 -7T1059 -14Q1008 -14 981 9T932 99L712 794Q684 881 656 979T606 1156H596Q586 1111 572 1058T543 955T518 867L242 -2Q222
-6 199 -8T150 -10Q122 -10 95 -6T46 4L40 15L491 1366ZM464 330Q455 330 427 330T370 331T331 332H232L298 505H385Q395 505 420 505T470 506T505 507H704Q714 507 739 507T790 506T826 505H916L973 332H874Q864 332 835 332T778 331T739 330H464ZM525 1566Q508
1575 492 1579T459 1584Q438 1584 417 1571T379 1535L356 1505Q326 1507 295 1524T253 1569L267 1601Q299 1673 351 1713T474 1754Q508 1754 538 1744T592 1723L699 1672Q716 1663 735 1658T769 1652Q790 1652 810 1664T849 1701L872 1730Q902 1729 933 1712T975
1667L961 1635Q930 1563 877 1523T755 1482Q720 1482 690 1491T636 1512L525 1566Z" />
<glyph unicode="&#xc4;" horiz-adv-x="1223" d="M491 1366Q516 1370 552 1372T615 1374Q640 1374 676 1372T734 1365L1183 13Q1160 -1 1127 -7T1059 -14Q1008 -14 981 9T932 99L712 794Q684 881 656 979T606 1156H596Q586 1111 572 1058T543 955T518 867L242 -2Q222
-6 199 -8T150 -10Q122 -10 95 -6T46 4L40 15L491 1366ZM464 330Q455 330 427 330T370 331T331 332H232L298 505H385Q395 505 420 505T470 506T505 507H704Q714 507 739 507T790 506T826 505H916L973 332H874Q864 332 835 332T778 331T739 330H464ZM823 1487Q797
1487 770 1492T722 1510Q714 1531 711 1553T708 1592Q708 1610 711 1632T722 1675Q742 1686 769 1692T823 1698Q849 1698 876 1692T923 1675Q932 1654 935 1632T938 1592Q938 1575 935 1553T923 1510Q904 1498 877 1493T823 1487ZM404 1487Q378 1487 351 1492T303
1510Q295 1531 292 1553T289 1592Q289 1610 292 1632T303 1675Q323 1686 350 1692T404 1698Q430 1698 457 1692T505 1675Q513 1654 516 1632T519 1592Q519 1575 516 1553T505 1510Q485 1498 458 1493T404 1487Z" />
<glyph unicode="&#xc5;" horiz-adv-x="1223" d="M493 1372H733L1183 13Q1160 -1 1127 -7T1059 -14Q1008 -14 981 9T932 99L712 794Q684 881 656 979T606 1156H596Q586 1111 572 1058T543 955T518 867L242 -2Q222 -6 199 -8T150 -10Q122 -10 95 -6T46 4L40 15L493
1372ZM464 330Q455 330 427 330T370 331T331 332H232L298 505H385Q395 505 420 505T470 506T505 507H704Q714 507 739 507T790 506T826 505H916L973 332H874Q864 332 835 332T778 331T739 330H464ZM371 1561Q371 1655 439 1721T614 1788Q721 1788 788 1722T855
1561Q855 1468 788 1402T614 1335Q507 1335 439 1401T371 1561ZM513 1561Q513 1514 541 1483T614 1452Q658 1452 686 1483T714 1561Q714 1609 686 1640T614 1671Q570 1671 542 1640T513 1561Z" />
<glyph unicode="&#xc6;" horiz-adv-x="1753" d="M686 1345Q712 1358 749 1362T814 1366H965L802 1156H791Q764 1086 730 1008T667 865L247 -1Q224 -6 196 -7T143 -9Q113 -9 86 -6T37 4L30 15L686 1345ZM514 330Q491 330 449 331T387 332H303L385 504H462Q482 504
515 505T572 506H693Q709 506 734 506T784 505T822 504H898V332H821Q809 332 784 332T734 331T693 330H514ZM802 1353L814 1366H1006V1191Q1006 1149 1007 1123T1008 1055V278Q1008 251 1007 228T1006 175V-2H922Q866 -2 834 33T802 130V1353ZM1510 778Q1516 758
1518 733T1521 690Q1521 672 1519 648T1510 601H1132Q1110 601 1075 601T1004 602T936 604V776Q967 776 1003 776T1075 777T1132 778H1510ZM1618 1366Q1623 1342 1624 1321T1625 1281Q1625 1263 1622 1237T1609 1186H1132Q1110 1186 1075 1186T1004 1186T936 1188V1366H1618ZM1657
179Q1657 75 1625 37T1517 -2H936V170Q984 173 1030 176T1138 179H1657Z" />
<glyph unicode="&#xc7;" horiz-adv-x="1207" d="M921 894Q921 970 897 1045T811 1169T642 1219Q484 1219 404 1081T323 676Q323 428 411 294T654 160Q748 160 836 199T1011 312Q1046 290 1077 251T1118 174Q1063 119 986 74T815 1T618 -26Q475 -26 376 33T215
192T127 418T99 677Q99 926 174 1084T374 1317T647 1392Q795 1392 903 1337T1070 1193T1129 1002Q1129 948 1101 915T1008 881Q984 881 965 884T921 894ZM516 -149Q528 -115 549 -67T587 12H714Q704 -2 691 -29T671 -73Q746 -80 798 -127T850 -249Q850 -336 782
-391T610 -447Q563 -447 521 -435T453 -407Q455 -378 466 -351T494 -302Q513 -313 540 -321T594 -329Q641 -329 662 -306T683 -252Q683 -220 662 -198T598 -175Q586 -175 574 -177T552 -184Q540 -179 530 -169T516 -149Z" />
<glyph unicode="&#xc8;" horiz-adv-x="1132" d="M180 1353L193 1366H388V1191Q388 1149 389 1123T390 1055V276Q390 249 389 227T388 175V-2H302Q246 -2 213 33T180 130V1353ZM890 778Q895 758 897 733T900 690Q900 672 898 648T890 601H514Q491 601 456 601T384
602T316 604V776Q346 776 383 776T456 777T514 778H890ZM998 1366Q1003 1342 1004 1321T1005 1281Q1005 1263 1002 1237T988 1186H514Q491 1186 456 1186T384 1186T316 1188V1366H998ZM1037 179Q1037 82 1008 40T896 -2H316V170Q364 173 411 176T520 179H1037ZM420
1805Q400 1791 380 1764T346 1703T328 1635L763 1457Q790 1473 805 1504T826 1564L420 1805Z" />
<glyph unicode="&#xc9;" horiz-adv-x="1132" d="M180 1353L193 1366H388V1191Q388 1149 389 1123T390 1055V276Q390 249 389 227T388 175V-2H302Q246 -2 213 33T180 130V1353ZM890 778Q895 758 897 733T900 690Q900 672 898 648T890 601H514Q491 601 456 601T384
602T316 604V776Q346 776 383 776T456 777T514 778H890ZM998 1366Q1003 1342 1004 1321T1005 1281Q1005 1263 1002 1237T988 1186H514Q491 1186 456 1186T384 1186T316 1188V1366H998ZM1037 179Q1037 82 1008 40T896 -2H316V170Q364 173 411 176T520 179H1037ZM802
1805Q822 1791 841 1764T875 1703T894 1635L458 1457Q434 1472 417 1504T396 1564L802 1805Z" />
<glyph unicode="&#xca;" horiz-adv-x="1132" d="M180 1353L193 1366H388V1191Q388 1149 389 1123T390 1055V276Q390 249 389 227T388 175V-2H302Q246 -2 213 33T180 130V1353ZM890 778Q895 758 897 733T900 690Q900 672 898 648T890 601H514Q491 601 456 601T384
602T316 604V776Q346 776 383 776T456 777T514 778H890ZM998 1366Q1003 1342 1004 1321T1005 1281Q1005 1263 1002 1237T988 1186H514Q491 1186 456 1186T384 1186T316 1188V1366H998ZM1037 179Q1037 82 1008 40T896 -2H316V170Q364 173 411 176T520 179H1037ZM688
1776L912 1564Q901 1531 874 1507T822 1474L597 1624L373 1474Q349 1482 321 1506T281 1564L506 1776Q524 1779 548 1781T597 1784Q622 1784 645 1782T688 1776Z" />
<glyph unicode="&#xcb;" horiz-adv-x="1132" d="M180 1353L193 1366H388V1191Q388 1149 389 1123T390 1055V276Q390 249 389 227T388 175V-2H302Q246 -2 213 33T180 130V1353ZM890 778Q895 758 897 733T900 690Q900 672 898 648T890 601H514Q491 601 456 601T384
602T316 604V776Q346 776 383 776T456 777T514 778H890ZM998 1366Q1003 1342 1004 1321T1005 1281Q1005 1263 1002 1237T988 1186H514Q491 1186 456 1186T384 1186T316 1188V1366H998ZM1037 179Q1037 82 1008 40T896 -2H316V170Q364 173 411 176T520 179H1037ZM807
1487Q781 1487 754 1492T706 1510Q698 1531 695 1553T692 1592Q692 1610 695 1632T706 1675Q726 1686 753 1692T807 1698Q833 1698 860 1692T907 1675Q916 1654 919 1632T922 1592Q922 1575 919 1553T907 1510Q888 1498 861 1493T807 1487ZM388 1487Q362 1487 335
1492T287 1510Q279 1531 276 1553T273 1592Q273 1610 276 1632T287 1675Q307 1686 334 1692T388 1698Q414 1698 441 1692T489 1675Q497 1654 500 1632T503 1592Q503 1575 500 1553T489 1510Q469 1498 442 1493T388 1487Z" />
<glyph unicode="&#xcc;" horiz-adv-x="588" d="M187 1366Q210 1371 239 1372T292 1374Q318 1374 347 1373T400 1366V0Q376 -4 347 -6T292 -8Q269 -8 240 -6T187 0V1366ZM116 1806Q96 1792 76 1765T42 1704T24 1636L459 1458Q486 1474 501 1505T522 1565L116 1806Z" />
<glyph unicode="&#xcd;" horiz-adv-x="588" d="M187 1366Q210 1371 239 1372T292 1374Q318 1374 347 1373T400 1366V0Q376 -4 347 -6T292 -8Q269 -8 240 -6T187 0V1366ZM498 1806Q518 1792 537 1765T571 1704T590 1636L154 1458Q130 1473 113 1505T92 1565L498 1806Z" />
<glyph unicode="&#xce;" horiz-adv-x="588" d="M187 1366Q210 1371 239 1372T292 1374Q318 1374 347 1373T400 1366V0Q376 -4 347 -6T292 -8Q269 -8 240 -6T187 0V1366ZM383 1777L607 1565Q596 1532 569 1508T517 1475L292 1625L68 1475Q44 1483 16 1507T-24 1565L201
1777Q219 1780 243 1782T292 1785Q317 1785 340 1783T383 1777Z" />
<glyph unicode="&#xcf;" horiz-adv-x="588" d="M187 1366Q210 1371 239 1372T292 1374Q318 1374 347 1373T400 1366V0Q376 -4 347 -6T292 -8Q269 -8 240 -6T187 0V1366ZM503 1488Q477 1488 450 1493T402 1511Q394 1532 391 1554T388 1593Q388 1611 391 1633T402
1676Q422 1687 449 1693T503 1699Q529 1699 556 1693T603 1676Q612 1655 615 1633T618 1593Q618 1576 615 1554T603 1511Q584 1499 557 1494T503 1488ZM84 1488Q58 1488 31 1493T-17 1511Q-25 1532 -28 1554T-31 1593Q-31 1611 -28 1633T-17 1676Q3 1687 30 1693T84
1699Q110 1699 137 1693T185 1676Q193 1655 196 1633T199 1593Q199 1576 196 1554T185 1511Q165 1499 138 1494T84 1488Z" />
<glyph unicode="&#xd0;" horiz-adv-x="1328" d="M1226 684Q1226 567 1211 460T1150 259T1014 92Q971 56 910 34T784 1T666 -9Q585 -9 518 -8T381 -5T225 -1L212 11V1355L225 1367Q312 1370 381 1372T517 1374T666 1374Q719 1374 783 1364T909 1331T1014 1272Q1104
1198 1149 1106T1210 907T1226 684ZM1004 684Q1004 774 993 865T946 1032T844 1155T665 1202Q602 1202 546 1203T422 1204V163Q490 164 546 163T665 162Q776 162 843 209T946 334T992 503T1004 684ZM59 604Q54 624 52 645T50 690Q50 714 52 736T59 781H731Q736
759 738 738T740 691Q740 644 731 604H59Z" />
<glyph unicode="&#xd1;" horiz-adv-x="1360" d="M181 1364Q207 1369 245 1371T308 1374Q333 1374 368 1373T435 1366L379 1118L363 1115Q367 1045 370 960T376 787T379 625V0Q352 -4 327 -6T281 -8Q261 -8 234 -6T181 0V1364ZM497 839Q460 913 429 983T369 1117L269
1237L435 1366L858 528Q896 449 929 375T992 239L1097 128L923 0L497 839ZM1178 1363V2Q1153 -3 1117 -5T1050 -8Q1021 -8 988 -6T923 0L981 238L998 240Q993 320 989 410T984 588T982 744V1242Q982 1312 1006 1343T1096 1374H1166L1178 1363ZM597 1566Q580 1575
564 1579T531 1584Q510 1584 489 1571T451 1535L428 1505Q398 1507 367 1524T325 1569L339 1601Q371 1673 423 1713T546 1754Q580 1754 610 1744T664 1723L771 1672Q788 1663 807 1658T841 1652Q862 1652 882 1664T921 1701L944 1730Q974 1729 1005 1712T1047 1667L1033
1635Q1002 1563 949 1523T827 1482Q792 1482 762 1491T708 1512L597 1566Z" />
<glyph unicode="&#xd2;" horiz-adv-x="1316" d="M322 684Q322 593 336 499T385 324T487 194T658 144Q763 144 828 193T929 323T978 498T992 684Q992 775 979 869T930 1043T829 1173T658 1222Q553 1222 487 1173T386 1044T336 869T322 684ZM99 684Q99 886 159 1046T344
1299T658 1392Q849 1392 973 1299T1157 1045T1217 684Q1217 481 1156 321T972 67T658 -26Q467 -26 343 68T159 322T99 684ZM480 1805Q460 1791 440 1764T406 1703T388 1635L823 1457Q850 1473 865 1504T886 1564L480 1805Z" />
<glyph unicode="&#xd3;" horiz-adv-x="1316" d="M322 684Q322 593 336 499T385 324T487 194T658 144Q763 144 828 193T929 323T978 498T992 684Q992 775 979 869T930 1043T829 1173T658 1222Q553 1222 487 1173T386 1044T336 869T322 684ZM99 684Q99 886 159 1046T344
1299T658 1392Q849 1392 973 1299T1157 1045T1217 684Q1217 481 1156 321T972 67T658 -26Q467 -26 343 68T159 322T99 684ZM862 1805Q882 1791 901 1764T935 1703T954 1635L518 1457Q494 1472 477 1504T456 1564L862 1805Z" />
<glyph unicode="&#xd4;" horiz-adv-x="1316" d="M322 684Q322 593 336 499T385 324T487 194T658 144Q763 144 828 193T929 323T978 498T992 684Q992 775 979 869T930 1043T829 1173T658 1222Q553 1222 487 1173T386 1044T336 869T322 684ZM99 684Q99 886 159 1046T344
1299T658 1392Q849 1392 973 1299T1157 1045T1217 684Q1217 481 1156 321T972 67T658 -26Q467 -26 343 68T159 322T99 684ZM748 1776L972 1564Q961 1531 934 1507T882 1474L657 1624L433 1474Q409 1482 381 1506T341 1564L566 1776Q584 1779 608 1781T657 1784Q682
1784 705 1782T748 1776Z" />
<glyph unicode="&#xd5;" horiz-adv-x="1316" d="M322 684Q322 593 336 499T385 324T487 194T658 144Q763 144 828 193T929 323T978 498T992 684Q992 775 979 869T930 1043T829 1173T658 1222Q553 1222 487 1173T386 1044T336 869T322 684ZM99 684Q99 886 159 1046T344
1299T658 1392Q849 1392 973 1299T1157 1045T1217 684Q1217 481 1156 321T972 67T658 -26Q467 -26 343 68T159 322T99 684ZM569 1566Q552 1575 536 1579T503 1584Q482 1584 461 1571T423 1535L400 1505Q370 1507 339 1524T297 1569L311 1601Q343 1673 395 1713T518
1754Q552 1754 582 1744T636 1723L743 1672Q760 1663 779 1658T813 1652Q834 1652 854 1664T893 1701L916 1730Q946 1729 977 1712T1019 1667L1005 1635Q974 1563 921 1523T799 1482Q764 1482 734 1491T680 1512L569 1566Z" />
<glyph unicode="&#xd6;" horiz-adv-x="1316" d="M322 684Q322 593 336 499T385 324T487 194T658 144Q763 144 828 193T929 323T978 498T992 684Q992 775 979 869T930 1043T829 1173T658 1222Q553 1222 487 1173T386 1044T336 869T322 684ZM99 684Q99 886 159 1046T344
1299T658 1392Q849 1392 973 1299T1157 1045T1217 684Q1217 481 1156 321T972 67T658 -26Q467 -26 343 68T159 322T99 684ZM867 1487Q841 1487 814 1492T766 1510Q758 1531 755 1553T752 1592Q752 1610 755 1632T766 1675Q786 1686 813 1692T867 1698Q893 1698
920 1692T967 1675Q976 1654 979 1632T982 1592Q982 1575 979 1553T967 1510Q948 1498 921 1493T867 1487ZM448 1487Q422 1487 395 1492T347 1510Q339 1531 336 1553T333 1592Q333 1610 336 1632T347 1675Q367 1686 394 1692T448 1698Q474 1698 501 1692T549 1675Q557
1654 560 1632T563 1592Q563 1575 560 1553T549 1510Q529 1498 502 1493T448 1487Z" />
<glyph unicode="&#xd7;" horiz-adv-x="1080" d="M352 688Q369 671 390 651T427 615L527 514Q543 498 563 477T600 439L796 241Q839 258 874 294Q906 326 927 370L728 568Q711 584 690 604T652 641L553 740Q536 757 517 778T480 816L283 1014Q262 1005 243 992T206
962Q189 943 176 925T153 884L352 688ZM480 439Q497 456 516 477T553 514L652 614Q669 631 690 650T728 687L927 884Q906 928 872 962Q856 978 837 991T796 1013L600 815Q583 798 563 777T527 740L427 640Q411 624 390 604T352 567L153 370Q163 348 177 329T207
294Q222 279 241 265T283 240L480 439Z" />
<glyph unicode="&#xd8;" horiz-adv-x="1318" d="M877 1275L991 1474Q1029 1469 1069 1448T1131 1398L997 1158L442 93L328 -106Q291 -101 251 -79T188 -30L322 210L877 1275ZM316 684Q316 593 330 498T382 321T487 191T659 141Q765 141 832 190T935 321T986 497T1000
684Q1000 775 986 870T936 1045T832 1175T659 1225Q554 1225 487 1176T383 1046T331 870T316 684ZM99 684Q99 885 160 1045T345 1298T659 1392Q850 1392 974 1298T1158 1044T1219 684Q1219 483 1159 323T974 68T659 -26Q468 -26 344 68T160 324T99 684Z" />
<glyph unicode="&#xd9;" horiz-adv-x="1338" d="M1174 480Q1174 314 1112 202T936 32T668 -26Q515 -26 402 31T227 201T164 480V1362L176 1374H258Q323 1374 350 1342T377 1239V480Q377 316 451 231T668 146Q813 146 887 231T961 480V1366Q985 1371 1013 1372T1065
1374Q1089 1374 1119 1373T1174 1366V480ZM489 1805Q469 1791 449 1764T415 1703T397 1635L832 1457Q859 1473 874 1504T895 1564L489 1805Z" />
<glyph unicode="&#xda;" horiz-adv-x="1338" d="M1174 480Q1174 314 1112 202T936 32T668 -26Q515 -26 402 31T227 201T164 480V1362L176 1374H258Q323 1374 350 1342T377 1239V480Q377 316 451 231T668 146Q813 146 887 231T961 480V1366Q985 1371 1013 1372T1065
1374Q1089 1374 1119 1373T1174 1366V480ZM871 1805Q891 1791 910 1764T944 1703T963 1635L527 1457Q503 1472 486 1504T465 1564L871 1805Z" />
<glyph unicode="&#xdb;" horiz-adv-x="1338" d="M1174 480Q1174 314 1112 202T936 32T668 -26Q515 -26 402 31T227 201T164 480V1362L176 1374H258Q323 1374 350 1342T377 1239V480Q377 316 451 231T668 146Q813 146 887 231T961 480V1366Q985 1371 1013 1372T1065
1374Q1089 1374 1119 1373T1174 1366V480ZM756 1776L980 1564Q969 1531 942 1507T890 1474L665 1624L441 1474Q417 1482 389 1506T349 1564L574 1776Q592 1779 616 1781T665 1784Q690 1784 713 1782T756 1776Z" />
<glyph unicode="&#xdc;" horiz-adv-x="1338" d="M1174 480Q1174 314 1112 202T936 32T668 -26Q515 -26 402 31T227 201T164 480V1362L176 1374H258Q323 1374 350 1342T377 1239V480Q377 316 451 231T668 146Q813 146 887 231T961 480V1366Q985 1371 1013 1372T1065
1374Q1089 1374 1119 1373T1174 1366V480ZM876 1487Q850 1487 823 1492T775 1510Q767 1531 764 1553T761 1592Q761 1610 764 1632T775 1675Q795 1686 822 1692T876 1698Q902 1698 929 1692T976 1675Q985 1654 988 1632T991 1592Q991 1575 988 1553T976 1510Q957
1498 930 1493T876 1487ZM457 1487Q431 1487 404 1492T356 1510Q348 1531 345 1553T342 1592Q342 1610 345 1632T356 1675Q376 1686 403 1692T457 1698Q483 1698 510 1692T558 1675Q566 1654 569 1632T572 1592Q572 1575 569 1553T558 1510Q538 1498 511 1493T457
1487Z" />
<glyph unicode="&#xdd;" horiz-adv-x="1006" d="M398 567H611V0Q586 -4 558 -6T504 -8Q481 -8 451 -6T398 0V567ZM789 1366Q811 1372 834 1373T879 1375Q906 1375 933 1372T982 1361L992 1346L594 396H418L18 1342Q53 1361 86 1371T151 1381Q196 1381 221 1359T266
1288L424 904Q446 851 468 783T508 654H518Q530 694 546 742T579 835T607 909L789 1366ZM714 1805Q734 1791 753 1764T787 1703T806 1635L370 1457Q346 1472 329 1504T308 1564L714 1805Z" />
<glyph unicode="&#xde;" horiz-adv-x="1142" d="M287 1158Q365 1161 443 1163T602 1165Q735 1165 838 1118T1001 975T1061 729Q1061 582 1002 485T840 339T602 290H287V456Q312 457 354 458T444 459T532 460T594 461Q694 461 747 503T820 607T840 729Q840 790
820 851T747 954T594 996Q563 996 508 996T393 998T287 1000V1158ZM181 1366Q204 1371 234 1372T286 1374Q312 1374 341 1373T394 1366V0Q370 -4 341 -6T286 -8Q264 -8 234 -6T181 0V1366Z" />
<glyph unicode="&#xdf;" horiz-adv-x="1254" d="M308 943L310 784L38 780Q34 798 32 821T30 864Q30 884 32 905T38 947L308 943ZM210 1013Q210 1138 265 1223T419 1353T645 1397Q780 1397 879 1348T1032 1211T1086 1005Q1086 965 1079 925T1056 844L834 828Q857
866 867 908T877 994Q877 1060 852 1115T775 1204T642 1238Q527 1238 474 1171T420 990V0Q397 -4 368 -6T314 -8Q290 -8 262 -6T210 0V1013ZM568 45Q570 79 588 123T635 192Q677 164 726 149T816 134Q886 134 927 168T968 254Q968 294 945 329T887 393L807 461Q777
486 747 519T696 593T675 685Q675 766 734 833T887 934L1056 843Q967 821 930 778T893 695Q893 657 919 628T965 582L1040 519Q1109 462 1148 395T1188 256Q1188 173 1145 110T1023 10T838 -26Q771 -26 698 -9T568 45Z" />
<glyph unicode="&#xe0;" horiz-adv-x="1014" d="M87 268Q87 383 137 456T274 565T470 600Q525 600 596 595T728 576V437Q674 450 608 453T483 457Q392 457 342 411T292 283Q292 222 327 180T427 137Q500 137 581 188T718 338L750 180Q714 138 661 90T539 8T381
-26Q282 -26 217 18T119 129T87 268ZM921 92Q914 64 892 33T844 -15Q781 -2 742 32T684 113T661 214V665Q661 759 619 800T498 842Q423 842 343 819T183 765Q159 790 143 833T124 917Q180 941 250 962T396 995T539 1008Q638 1008 711 972T824 862T865 673V263Q865
207 876 165T921 92ZM369 1478Q324 1463 282 1425T224 1342L566 1076Q594 1084 619 1107T656 1160L369 1478Z" />
<glyph unicode="&#xe1;" horiz-adv-x="1014" d="M87 268Q87 383 137 456T274 565T470 600Q525 600 596 595T728 576V437Q674 450 608 453T483 457Q392 457 342 411T292 283Q292 222 327 180T427 137Q500 137 581 188T718 338L750 180Q714 138 661 90T539 8T381
-26Q282 -26 217 18T119 129T87 268ZM921 92Q914 64 892 33T844 -15Q781 -2 742 32T684 113T661 214V665Q661 759 619 800T498 842Q423 842 343 819T183 765Q159 790 143 833T124 917Q180 941 250 962T396 995T539 1008Q638 1008 711 972T824 862T865 673V263Q865
207 876 165T921 92ZM627 1478Q672 1463 713 1425T772 1342L430 1076Q402 1084 377 1107T339 1160L627 1478Z" />
<glyph unicode="&#xe2;" horiz-adv-x="1014" d="M87 268Q87 383 137 456T274 565T470 600Q525 600 596 595T728 576V437Q674 450 608 453T483 457Q392 457 342 411T292 283Q292 222 327 180T427 137Q500 137 581 188T718 338L750 180Q714 138 661 90T539 8T381
-26Q282 -26 217 18T119 129T87 268ZM921 92Q914 64 892 33T844 -15Q781 -2 742 32T684 113T661 214V665Q661 759 619 800T498 842Q423 842 343 819T183 765Q159 790 143 833T124 917Q180 941 250 962T396 995T539 1008Q638 1008 711 972T824 862T865 673V263Q865
207 876 165T921 92ZM584 1435L779 1183Q764 1150 735 1125T680 1093L493 1275L306 1093Q280 1100 251 1125T207 1183L401 1435Q420 1440 443 1443T493 1446Q518 1446 542 1443T584 1435Z" />
<glyph unicode="&#xe3;" horiz-adv-x="1014" d="M87 268Q87 383 137 456T274 565T470 600Q525 600 596 595T728 576V437Q674 450 608 453T483 457Q392 457 342 411T292 283Q292 222 327 180T427 137Q500 137 581 188T718 338L750 180Q714 138 661 90T539 8T381
-26Q282 -26 217 18T119 129T87 268ZM921 92Q914 64 892 33T844 -15Q781 -2 742 32T684 113T661 214V665Q661 759 619 800T498 842Q423 842 343 819T183 765Q159 790 143 833T124 917Q180 941 250 962T396 995T539 1008Q638 1008 711 972T824 862T865 673V263Q865
207 876 165T921 92ZM416 1192Q406 1198 388 1205T351 1212Q320 1212 301 1195T271 1163L248 1134Q218 1135 189 1153T148 1198L166 1237Q195 1303 247 1343T364 1383Q399 1383 428 1373T476 1353L563 1307Q574 1301 592 1293T630 1285Q659 1285 676 1301T708 1335L731
1364Q760 1363 789 1345T830 1299L813 1260Q782 1190 730 1153T614 1115Q582 1115 554 1124T502 1145L416 1192Z" />
<glyph unicode="&#xe4;" horiz-adv-x="1014" d="M87 268Q87 383 137 456T274 565T470 600Q525 600 596 595T728 576V437Q674 450 608 453T483 457Q392 457 342 411T292 283Q292 222 327 180T427 137Q500 137 581 188T718 338L750 180Q714 138 661 90T539 8T381
-26Q282 -26 217 18T119 129T87 268ZM921 92Q914 64 892 33T844 -15Q781 -2 742 32T684 113T661 214V665Q661 759 619 800T498 842Q423 842 343 819T183 765Q159 790 143 833T124 917Q180 941 250 962T396 995T539 1008Q638 1008 711 972T824 862T865 673V263Q865
207 876 165T921 92ZM191 1229Q191 1248 194 1270T206 1310Q223 1320 251 1326T303 1333Q327 1333 355 1327T400 1310Q408 1293 411 1271T415 1229Q415 1211 412 1189T400 1149Q383 1139 355 1133T303 1126Q279 1126 251 1132T206 1149Q198 1166 195 1188T191 1229ZM563
1229Q563 1248 566 1270T578 1310Q595 1320 623 1326T675 1333Q700 1333 727 1327T772 1310Q780 1293 784 1271T788 1229Q788 1211 784 1189T772 1149Q755 1139 728 1133T675 1126Q651 1126 623 1132T578 1149Q570 1166 567 1188T563 1229Z" />
<glyph unicode="&#xe5;" horiz-adv-x="1014" d="M87 268Q87 383 137 456T274 565T470 600Q525 600 596 595T728 576V437Q674 450 608 453T483 457Q392 457 342 411T292 283Q292 222 327 180T427 137Q500 137 581 188T718 338L750 180Q714 138 661 90T539 8T381
-26Q282 -26 217 18T119 129T87 268ZM921 92Q914 64 892 33T844 -15Q781 -2 742 32T684 113T661 214V665Q661 759 619 800T498 842Q423 842 343 819T183 765Q159 790 143 833T124 917Q180 941 250 962T396 995T539 1008Q638 1008 711 972T824 862T865 673V263Q865
207 876 165T921 92ZM247 1304Q247 1211 314 1144T489 1077Q596 1077 663 1144T731 1304Q731 1398 664 1464T489 1531Q382 1531 315 1465T247 1304ZM388 1304Q388 1352 416 1383T489 1414Q533 1414 561 1383T590 1304Q590 1258 562 1227T489 1195Q445 1195 417
1226T388 1304Z" />
<glyph unicode="&#xe6;" horiz-adv-x="1562" d="M87 270Q87 384 137 457T274 565T470 600Q532 600 599 595T728 576V434Q673 445 607 451T483 457Q392 457 342 411T292 284Q292 223 327 180T427 137Q504 137 590 189T732 353L777 185Q740 135 682 87T548 6T381
-26Q282 -26 217 17T119 129T87 270ZM661 494V665Q661 759 619 800T499 842Q424 842 344 820T183 765Q159 790 143 833T124 917Q208 953 319 980T529 1008Q630 1008 701 970T810 856T848 669V494H661ZM786 428V578H1268V602Q1268 672 1249 730T1187 825T1072 861Q969
861 919 774T869 532V475Q869 381 888 306T957 187T1099 143Q1174 143 1243 165T1376 219Q1402 195 1419 157T1441 87Q1369 35 1271 5T1068 -26Q872 -26 767 103T661 494Q660 582 684 673T758 842T886 966T1072 1013Q1202 1013 1290 956T1423 803T1468 587Q1468
539 1465 505T1453 428H786Z" />
<glyph unicode="&#xe7;" horiz-adv-x="943" d="M678 606Q681 671 667 727T614 819T502 855Q407 855 355 764T302 488Q302 308 361 226T528 143Q596 143 657 174T771 245Q798 228 824 192T858 121Q790 55 697 15T496 -26Q389 -26 312 15T186 127T112 292T88 488Q88
627 123 726T218 889T352 983T507 1013Q598 1013 666 986T779 915T847 817T869 712Q869 659 844 628T764 597Q739 597 719 599T678 606ZM372 -149Q384 -115 405 -67T443 12H570Q560 -2 547 -29T527 -73Q602 -80 654 -127T706 -249Q706 -336 638 -391T466 -447Q419
-447 377 -435T309 -407Q311 -378 322 -351T350 -302Q369 -313 396 -321T450 -329Q497 -329 518 -306T539 -252Q539 -220 518 -198T454 -175Q442 -175 430 -177T408 -184Q396 -179 386 -169T372 -149Z" />
<glyph unicode="&#xe8;" horiz-adv-x="1001" d="M218 428V578H703V604Q703 674 684 732T621 826T505 861Q403 861 352 775T301 538V475Q301 381 320 306T390 187T532 143Q607 143 677 164T810 219Q836 194 853 157T875 87Q804 35 705 5T500 -26Q381 -26 302 16T176
131T109 298T88 492Q88 641 134 759T274 945T505 1013Q635 1013 723 956T857 803T902 587Q902 539 899 505T887 428H218ZM390 1478Q345 1463 303 1425T245 1342L587 1076Q615 1084 640 1107T677 1160L390 1478Z" />
<glyph unicode="&#xe9;" horiz-adv-x="1001" d="M218 428V578H703V604Q703 674 684 732T621 826T505 861Q403 861 352 775T301 538V475Q301 381 320 306T390 187T532 143Q607 143 677 164T810 219Q836 194 853 157T875 87Q804 35 705 5T500 -26Q381 -26 302 16T176
131T109 298T88 492Q88 641 134 759T274 945T505 1013Q635 1013 723 956T857 803T902 587Q902 539 899 505T887 428H218ZM648 1478Q693 1463 734 1425T793 1342L451 1076Q423 1084 398 1107T360 1160L648 1478Z" />
<glyph unicode="&#xea;" horiz-adv-x="1001" d="M218 428V578H703V604Q703 674 684 732T621 826T505 861Q403 861 352 775T301 538V475Q301 381 320 306T390 187T532 143Q607 143 677 164T810 219Q836 194 853 157T875 87Q804 35 705 5T500 -26Q381 -26 302 16T176
131T109 298T88 492Q88 641 134 759T274 945T505 1013Q635 1013 723 956T857 803T902 587Q902 539 899 505T887 428H218ZM605 1435L800 1183Q785 1150 756 1125T701 1093L514 1275L327 1093Q301 1100 272 1125T228 1183L422 1435Q441 1440 464 1443T514 1446Q539
1446 563 1443T605 1435Z" />
<glyph unicode="&#xeb;" horiz-adv-x="1001" d="M218 428V578H703V604Q703 674 684 732T621 826T505 861Q403 861 352 775T301 538V475Q301 381 320 306T390 187T532 143Q607 143 677 164T810 219Q836 194 853 157T875 87Q804 35 705 5T500 -26Q381 -26 302 16T176
131T109 298T88 492Q88 641 134 759T274 945T505 1013Q635 1013 723 956T857 803T902 587Q902 539 899 505T887 428H218ZM212 1229Q212 1248 215 1270T227 1310Q244 1320 272 1326T324 1333Q348 1333 376 1327T421 1310Q429 1293 432 1271T436 1229Q436 1211 433
1189T421 1149Q404 1139 376 1133T324 1126Q300 1126 272 1132T227 1149Q219 1166 216 1188T212 1229ZM584 1229Q584 1248 587 1270T599 1310Q616 1320 644 1326T696 1333Q721 1333 748 1327T793 1310Q801 1293 805 1271T809 1229Q809 1211 805 1189T793 1149Q776
1139 749 1133T696 1126Q672 1126 644 1132T599 1149Q591 1166 588 1188T584 1229Z" />
<glyph unicode="&#xec;" horiz-adv-x="543" d="M390 0Q369 -4 342 -6T287 -8Q259 -8 232 -6T183 0V733Q183 786 165 811T96 837H74Q65 873 65 910Q65 928 67 946T74 985Q112 990 145 992T201 994H228Q303 994 346 947T390 817V0ZM130 1478Q85 1463 43 1425T-15
1342L327 1076Q355 1084 380 1107T417 1160L130 1478Z" />
<glyph unicode="&#xed;" horiz-adv-x="543" d="M390 0Q369 -4 342 -6T287 -8Q259 -8 232 -6T183 0V733Q183 786 165 811T96 837H74Q65 873 65 910Q65 928 67 946T74 985Q112 990 145 992T201 994H228Q303 994 346 947T390 817V0ZM388 1478Q433 1463 474 1425T533
1342L191 1076Q163 1084 138 1107T100 1160L388 1478Z" />
<glyph unicode="&#xee;" horiz-adv-x="543" d="M390 0Q369 -4 342 -6T287 -8Q259 -8 232 -6T183 0V733Q183 786 165 811T96 837H74Q65 873 65 910Q65 928 67 946T74 985Q112 990 145 992T201 994H228Q303 994 346 947T390 817V0ZM345 1435L540 1183Q525 1150 496
1125T441 1093L254 1275L67 1093Q41 1100 12 1125T-32 1183L162 1435Q181 1440 204 1443T254 1446Q279 1446 303 1443T345 1435Z" />
<glyph unicode="&#xef;" horiz-adv-x="543" d="M390 0Q369 -4 342 -6T287 -8Q259 -8 232 -6T183 0V733Q183 786 165 811T96 837H74Q65 873 65 910Q65 928 67 946T74 985Q112 990 145 992T201 994H228Q303 994 346 947T390 817V0ZM-48 1229Q-48 1248 -45 1270T-33
1310Q-16 1320 12 1326T64 1333Q88 1333 116 1327T161 1310Q169 1293 172 1271T176 1229Q176 1211 173 1189T161 1149Q144 1139 116 1133T64 1126Q40 1126 12 1132T-33 1149Q-41 1166 -44 1188T-48 1229ZM324 1229Q324 1248 327 1270T339 1310Q356 1320 384 1326T436
1333Q461 1333 488 1327T533 1310Q541 1293 545 1271T549 1229Q549 1211 545 1189T533 1149Q516 1139 489 1133T436 1126Q412 1126 384 1132T339 1149Q331 1166 328 1188T324 1229Z" />
<glyph unicode="&#xf0;" horiz-adv-x="1037" d="M950 490Q950 339 901 223T756 40T517 -26Q377 -26 281 40T136 221T87 482Q87 626 137 736T281 910T508 974Q592 974 669 935T792 846V682Q748 739 677 779T520 819Q437 819 389 774T320 651T299 480Q299 392 318
312T385 181T519 130Q605 130 652 182T719 316T738 490Q738 619 721 703T674 857Q662 956 597 1053T437 1231T236 1364Q243 1403 266 1441T319 1495Q521 1409 662 1263T876 920T950 490ZM719 1484Q742 1468 766 1437T794 1376L300 1035Q276 1051 253 1083T225 1143L719
1484Z" />
<glyph unicode="&#xf1;" horiz-adv-x="1091" d="M246 996Q311 996 336 957T362 849V0Q342 -4 315 -6T260 -8Q232 -8 205 -6T156 0V983L169 996H246ZM944 211Q944 159 951 113T978 31Q955 12 920 0T848 -13Q787 -13 763 20T738 118V627Q738 728 712 773T613 819Q563
819 505 795T394 727T310 623V821Q377 898 474 951T679 1005Q773 1005 831 962T916 844T944 677V211ZM483 1192Q473 1198 455 1205T418 1212Q387 1212 368 1195T338 1163L315 1134Q285 1135 256 1153T215 1198L233 1237Q262 1303 314 1343T431 1383Q466 1383 495
1373T543 1353L630 1307Q641 1301 659 1293T697 1285Q726 1285 743 1301T775 1335L798 1364Q827 1363 856 1345T897 1299L880 1260Q849 1190 797 1153T681 1115Q649 1115 621 1124T569 1145L483 1192Z" />
<glyph unicode="&#xf2;" horiz-adv-x="1040" d="M952 494Q952 341 903 224T758 40T519 -26Q377 -26 281 41T137 225T88 494Q88 646 137 763T282 946T519 1013Q663 1013 759 947T904 763T952 494ZM301 494Q301 401 320 318T387 184T521 132Q607 132 654 183T720
318T739 494Q739 587 720 670T654 805T521 857Q435 857 387 805T320 670T301 494ZM399 1478Q354 1463 312 1425T254 1342L596 1076Q624 1084 649 1107T686 1160L399 1478Z" />
<glyph unicode="&#xf3;" horiz-adv-x="1040" d="M952 494Q952 341 903 224T758 40T519 -26Q377 -26 281 41T137 225T88 494Q88 646 137 763T282 946T519 1013Q663 1013 759 947T904 763T952 494ZM301 494Q301 401 320 318T387 184T521 132Q607 132 654 183T720
318T739 494Q739 587 720 670T654 805T521 857Q435 857 387 805T320 670T301 494ZM657 1478Q702 1463 743 1425T802 1342L460 1076Q432 1084 407 1107T369 1160L657 1478Z" />
<glyph unicode="&#xf4;" horiz-adv-x="1040" d="M952 494Q952 341 903 224T758 40T519 -26Q377 -26 281 41T137 225T88 494Q88 646 137 763T282 946T519 1013Q663 1013 759 947T904 763T952 494ZM301 494Q301 401 320 318T387 184T521 132Q607 132 654 183T720
318T739 494Q739 587 720 670T654 805T521 857Q435 857 387 805T320 670T301 494ZM614 1435L809 1183Q794 1150 765 1125T710 1093L523 1275L336 1093Q310 1100 281 1125T237 1183L431 1435Q450 1440 473 1443T523 1446Q548 1446 572 1443T614 1435Z" />
<glyph unicode="&#xf5;" horiz-adv-x="1040" d="M952 494Q952 341 903 224T758 40T519 -26Q377 -26 281 41T137 225T88 494Q88 646 137 763T282 946T519 1013Q663 1013 759 947T904 763T952 494ZM301 494Q301 401 320 318T387 184T521 132Q607 132 654 183T720
318T739 494Q739 587 720 670T654 805T521 857Q435 857 387 805T320 670T301 494ZM446 1192Q436 1198 418 1205T381 1212Q350 1212 331 1195T301 1163L278 1134Q248 1135 219 1153T178 1198L196 1237Q225 1303 277 1343T394 1383Q429 1383 458 1373T506 1353L593
1307Q604 1301 622 1293T660 1285Q689 1285 706 1301T738 1335L761 1364Q790 1363 819 1345T860 1299L843 1260Q812 1190 760 1153T644 1115Q612 1115 584 1124T532 1145L446 1192Z" />
<glyph unicode="&#xf6;" horiz-adv-x="1040" d="M952 494Q952 341 903 224T758 40T519 -26Q377 -26 281 41T137 225T88 494Q88 646 137 763T282 946T519 1013Q663 1013 759 947T904 763T952 494ZM301 494Q301 401 320 318T387 184T521 132Q607 132 654 183T720
318T739 494Q739 587 720 670T654 805T521 857Q435 857 387 805T320 670T301 494ZM221 1229Q221 1248 224 1270T236 1310Q253 1320 281 1326T333 1333Q357 1333 385 1327T430 1310Q438 1293 441 1271T445 1229Q445 1211 442 1189T430 1149Q413 1139 385 1133T333
1126Q309 1126 281 1132T236 1149Q228 1166 225 1188T221 1229ZM593 1229Q593 1248 596 1270T608 1310Q625 1320 653 1326T705 1333Q730 1333 757 1327T802 1310Q810 1293 814 1271T818 1229Q818 1211 814 1189T802 1149Q785 1139 758 1133T705 1126Q681 1126 653
1132T608 1149Q600 1166 597 1188T593 1229Z" />
<glyph unicode="&#xf7;" horiz-adv-x="1080" d="M418 982Q418 1031 435 1068Q453 1078 482 1084T540 1091Q566 1091 597 1085T644 1068Q652 1051 657 1028T662 982Q662 962 657 938T644 897Q629 887 598 881T540 874Q512 874 482 880T435 897Q418 933 418 982ZM418
269Q418 318 435 354Q453 365 482 371T540 378Q566 378 597 372T644 354Q652 338 657 315T662 269Q662 248 657 224T644 184Q629 174 598 168T540 161Q512 161 482 167T435 184Q418 220 418 269ZM123 540Q118 560 116 584T114 627Q114 648 116 672T123 717H957Q962
696 964 672T966 627Q966 608 964 584T957 540H123Z" />
<glyph unicode="&#xf8;" horiz-adv-x="1043" d="M954 495Q954 377 923 270T813 84Q757 29 684 2T520 -26Q433 -26 360 1T230 84Q151 162 121 269T90 495Q90 613 120 719T230 903Q287 959 360 986T520 1013Q610 1013 683 986T813 903Q892 825 923 719T954 495ZM287
495Q287 403 307 319T379 180T522 126Q614 126 664 180T736 318T757 495Q757 586 736 670T665 809T522 863Q430 863 379 809T308 671T287 495ZM658 904L771 1101Q802 1096 836 1078T890 1035L756 800L383 88L267 -112Q236 -107 202 -89T148 -45L283 190L658 904Z"
/>
<glyph unicode="&#xf9;" horiz-adv-x="1094" d="M935 280Q935 222 947 171T991 91Q983 62 961 32T914 -15Q816 5 773 79T729 250V987Q749 991 776 993T832 995Q860 995 887 993T935 987V280ZM147 776Q147 828 140 874T115 956Q137 975 172 987T244 1000Q304 1000
329 967T354 869V360Q354 260 379 214T478 168Q529 168 587 192T697 261T781 364V167Q715 89 618 36T412 -18Q319 -18 261 25T175 144T147 310V776ZM416 1478Q371 1463 329 1425T271 1342L613 1076Q641 1084 666 1107T703 1160L416 1478Z" />
<glyph unicode="&#xfa;" horiz-adv-x="1094" d="M935 280Q935 222 947 171T991 91Q983 62 961 32T914 -15Q816 5 773 79T729 250V987Q749 991 776 993T832 995Q860 995 887 993T935 987V280ZM147 776Q147 828 140 874T115 956Q137 975 172 987T244 1000Q304 1000
329 967T354 869V360Q354 260 379 214T478 168Q529 168 587 192T697 261T781 364V167Q715 89 618 36T412 -18Q319 -18 261 25T175 144T147 310V776ZM674 1478Q719 1463 760 1425T819 1342L477 1076Q449 1084 424 1107T386 1160L674 1478Z" />
<glyph unicode="&#xfb;" horiz-adv-x="1094" d="M935 280Q935 222 947 171T991 91Q983 62 961 32T914 -15Q816 5 773 79T729 250V987Q749 991 776 993T832 995Q860 995 887 993T935 987V280ZM147 776Q147 828 140 874T115 956Q137 975 172 987T244 1000Q304 1000
329 967T354 869V360Q354 260 379 214T478 168Q529 168 587 192T697 261T781 364V167Q715 89 618 36T412 -18Q319 -18 261 25T175 144T147 310V776ZM631 1435L826 1183Q811 1150 782 1125T727 1093L540 1275L353 1093Q327 1100 298 1125T254 1183L448 1435Q467
1440 490 1443T540 1446Q565 1446 589 1443T631 1435Z" />
<glyph unicode="&#xfc;" horiz-adv-x="1094" d="M935 280Q935 222 947 171T991 91Q983 62 961 32T914 -15Q816 5 773 79T729 250V987Q749 991 776 993T832 995Q860 995 887 993T935 987V280ZM147 776Q147 828 140 874T115 956Q137 975 172 987T244 1000Q304 1000
329 967T354 869V360Q354 260 379 214T478 168Q529 168 587 192T697 261T781 364V167Q715 89 618 36T412 -18Q319 -18 261 25T175 144T147 310V776ZM238 1229Q238 1248 241 1270T253 1310Q270 1320 298 1326T350 1333Q374 1333 402 1327T447 1310Q455 1293 458
1271T462 1229Q462 1211 459 1189T447 1149Q430 1139 402 1133T350 1126Q326 1126 298 1132T253 1149Q245 1166 242 1188T238 1229ZM610 1229Q610 1248 613 1270T625 1310Q642 1320 670 1326T722 1333Q747 1333 774 1327T819 1310Q827 1293 831 1271T835 1229Q835
1211 831 1189T819 1149Q802 1139 775 1133T722 1126Q698 1126 670 1132T625 1149Q617 1166 614 1188T610 1229Z" />
<glyph unicode="&#xfd;" horiz-adv-x="935" d="M648 32Q604 -121 552 -225T417 -383T202 -437Q155 -437 99 -427T11 -405Q8 -368 21 -325T55 -257Q79 -265 121 -273T204 -281Q271 -281 315 -251T390 -165T443 -34L450 -10Q388 -8 351 14T295 97L33 971Q68 988
100 995T158 1002Q195 1002 221 984T262 910L397 450Q412 404 425 350T451 246T472 156Q476 142 491 142L710 988Q729 992 753 994T799 996Q826 996 853 993T905 982L912 970L648 32ZM604 1478Q649 1463 690 1425T749 1342L407 1076Q379 1084 354 1107T316 1160L604
1478Z" />
<glyph unicode="&#xfe;" horiz-adv-x="1056" d="M356 -299Q356 -367 333 -399T245 -431H169L156 -418V1458L169 1471H245Q310 1471 333 1440T356 1339V-299ZM968 512Q968 326 911 209T767 38T588 -17Q495 -17 412 21T258 113L282 276Q340 230 412 189T555 147Q612
147 657 185T730 303T758 504Q758 622 733 694T666 799T576 833Q526 833 471 806T369 722T296 575L254 727Q273 795 325 858T453 963T624 1004Q734 1004 810 941T927 767T968 512Z" />
<glyph unicode="&#xff;" horiz-adv-x="935" d="M648 32Q604 -121 552 -225T417 -383T202 -437Q155 -437 99 -427T11 -405Q8 -368 21 -325T55 -257Q79 -265 121 -273T204 -281Q271 -281 315 -251T390 -165T443 -34L450 -10Q388 -8 351 14T295 97L33 971Q68 988
100 995T158 1002Q195 1002 221 984T262 910L397 450Q412 404 425 350T451 246T472 156Q476 142 491 142L710 988Q729 992 753 994T799 996Q826 996 853 993T905 982L912 970L648 32ZM168 1229Q168 1248 171 1270T183 1310Q200 1320 228 1326T280 1333Q304 1333
332 1327T377 1310Q385 1293 388 1271T392 1229Q392 1211 389 1189T377 1149Q360 1139 332 1133T280 1126Q256 1126 228 1132T183 1149Q175 1166 172 1188T168 1229ZM540 1229Q540 1248 543 1270T555 1310Q572 1320 600 1326T652 1333Q677 1333 704 1327T749 1310Q757
1293 761 1271T765 1229Q765 1211 761 1189T749 1149Q732 1139 705 1133T652 1126Q628 1126 600 1132T555 1149Q547 1166 544 1188T540 1229Z" />
<glyph unicode="&#x2013;" horiz-adv-x="1061" d="M131 445Q125 466 123 487T121 528Q121 549 123 570T131 614H932Q937 592 938 571T940 528Q940 508 939 487T932 445H131Z" />
<glyph unicode="&#x2014;" horiz-adv-x="1579" d="M140 445Q134 466 133 487T131 528Q131 549 132 570T140 614H1420Q1425 592 1427 571T1429 528Q1429 508 1427 487T1420 445H140Z" />
<glyph unicode="&#x2018;" horiz-adv-x="456" d="M108 1036Q96 1063 91 1098T85 1169Q85 1288 151 1384T350 1529Q379 1515 393 1486T405 1427Q372 1412 340 1387T287 1329T265 1257Q284 1255 310 1250T348 1233Q357 1220 362 1192T368 1137Q368 1113 363 1082T348
1036Q331 1026 295 1018T227 1010Q197 1010 161 1017T108 1036Z" />
<glyph unicode="&#x2019;" horiz-adv-x="456" d="M349 1499Q360 1473 365 1438T371 1367Q371 1247 305 1151T105 1007Q78 1021 64 1050T52 1109Q85 1124 116 1149T169 1206T191 1279Q172 1282 146 1287T107 1302Q100 1316 94 1344T88 1398Q88 1423 93 1454T107
1499Q125 1509 162 1517T230 1526Q259 1526 295 1519T349 1499Z" />
<glyph unicode="&#x201a;" horiz-adv-x="457" d="M357 203Q368 176 373 141T379 70Q379 -49 313 -145T113 -290Q86 -276 72 -247T59 -188Q93 -172 124 -147T177 -90T199 -18Q180 -15 154 -10T115 6Q107 20 102 48T96 101Q96 126 101 158T115 203Q133 213 170 221T237
229Q268 229 304 222T357 203Z" />
<glyph unicode="&#x201c;" horiz-adv-x="845" d="M362 1036Q350 1063 345 1098T339 1169Q339 1288 405 1384T604 1529Q633 1515 647 1486T659 1427Q626 1412 594 1387T541 1329T519 1257Q538 1255 564 1250T602 1233Q611 1220 616 1192T622 1137Q622 1113 617
1082T602 1036Q585 1026 549 1018T481 1010Q451 1010 415 1017T362 1036ZM494 1036Q482 1063 477 1098T471 1169Q471 1288 537 1384T736 1529Q765 1515 779 1486T791 1427Q758 1412 726 1387T673 1329T651 1257Q670 1255 696 1250T734 1233Q743 1220 748 1192T754
1137Q754 1113 749 1082T734 1036Q717 1026 681 1018T613 1010Q583 1010 547 1017T494 1036Z" />
<glyph unicode="&#x201d;" horiz-adv-x="845" d="M353 1499Q364 1473 369 1438T375 1367Q375 1247 309 1151T109 1007Q82 1021 68 1050T56 1109Q89 1124 120 1149T173 1206T195 1279Q176 1282 150 1287T111 1302Q104 1316 98 1344T92 1398Q92 1423 97 1454T111
1499Q129 1509 166 1517T234 1526Q263 1526 299 1519T353 1499ZM741 1499Q752 1473 757 1438T763 1367Q763 1247 697 1151T497 1007Q470 1021 456 1050T444 1109Q477 1124 508 1149T561 1206T583 1279Q564 1282 538 1287T499 1302Q492 1316 486 1344T480 1398Q480
1423 485 1454T499 1499Q517 1509 554 1517T622 1526Q651 1526 687 1519T741 1499Z" />
<glyph unicode="&#x201e;" horiz-adv-x="845" d="M357 203Q368 176 373 141T379 70Q379 -49 313 -145T113 -290Q86 -276 72 -247T59 -188Q93 -172 124 -147T177 -90T199 -18Q180 -15 154 -10T115 6Q107 20 102 48T96 101Q96 126 101 158T115 203Q133 213 170 221T237
229Q268 229 304 222T357 203ZM745 203Q756 176 761 141T767 70Q767 -49 701 -145T501 -290Q474 -276 460 -247T447 -188Q481 -172 512 -147T565 -90T587 -18Q568 -15 542 -10T503 6Q495 20 490 48T484 101Q484 126 489 158T503 203Q521 213 558 221T625 229Q656
229 692 222T745 203Z" />
<glyph unicode="&#x2022;" horiz-adv-x="894" d="M221 541Q221 572 228 627T251 712Q284 732 340 745T449 758Q496 758 555 745T645 712Q661 682 668 627T676 541Q676 510 669 455T645 371Q617 350 557 338T449 325Q397 325 341 337T251 371Q236 400 229 455T221 541Z" />
<glyph unicode="&#x2039;" horiz-adv-x="663" d="M302 513L590 182Q582 161 564 138T521 98T473 74L77 445Q67 471 67 510T77 575L465 945Q500 934 534 902T579 835L302 513Z" />
<glyph unicode="&#x203a;" horiz-adv-x="663" d="M361 505L73 836Q81 859 99 881T142 920T190 945L586 574Q597 548 597 509T586 444L198 74Q163 85 130 117T84 183L361 505Z" />
</font>
</defs>
</svg>
