<?xml version="1.0" standalone="no"?>
<!DOCTYPE svg PUBLIC "-//W3C//DTD SVG 1.1//EN" "http://www.w3.org/Graphics/SVG/1.1/DTD/svg11.dtd">
<svg xmlns="http://www.w3.org/2000/svg">
<defs >
<font id="SourceSansPro" horiz-adv-x="501" ><font-face
    font-family="Source Sans Pro Light"
    units-per-em="1000"
    panose-1="2 11 4 3 3 4 3 2 2 4"
    ascent="984"
    descent="-273"
    alphabetic="0" />
<glyph unicode=" " glyph-name="space" horiz-adv-x="200" />
<glyph unicode="!" glyph-name="exclam" horiz-adv-x="259" d="M113 179L107 599V670H153L152 599L146 179H113ZM130 -12Q114 -12 101 0T87 33Q87 55 100 67T130 79Q147 79 159 67T172 33Q172 12 160 0T130 -12Z" />
<glyph unicode="&quot;" glyph-name="quotedbl" horiz-adv-x="360" d="M92 477L84 624L83 693H134V624L125 477H92ZM233 477L225 624L224 693H275V624L266 477H233Z" />
<glyph unicode="#" glyph-name="numbersign" horiz-adv-x="479" d="M93 0L119 214H36V250H123L144 420H56V456H148L173 650H208L183 456H332L358 650H392L367 456H449V420H364L343 250H429V214H338L313 0H278L303 214H154L128 0H93ZM158 250H308L329 420H179L158 250Z" />
<glyph unicode="$" glyph-name="dollar" horiz-adv-x="479" d="M226 -110V-11Q174 -7 131 15T59 66L83 97Q112 72 152 50T244 27Q307 27 340 61T374 150Q374 199 353 230T299 282T230 320T160 359T106 412T85 495Q85 558 125 600T226 650V749H265V650Q314 647
345 627T402 580L376 552Q348 580 321 596T246 612Q194 612 162 580T130 497Q130 453 151 426T205 381T274 345T344 305T398 246T419 153Q419 82 376 39T265 -11V-110H226Z" />
<glyph unicode="%" glyph-name="percent" horiz-adv-x="805" d="M181 257Q116 257 78 311T40 465Q40 564 78 617T181 671Q246 671 284 618T322 465Q322 365 284 311T181 257ZM181 290Q228 290 255 336T283 465Q283 548 256 593T181 638Q135 638 107 593T79 465Q79
382 107 336T181 290ZM198 -12L566 671H604L237 -12H198ZM624 -12Q559 -12 521 42T483 196Q483 295 521 348T624 402Q689 402 727 349T765 196Q765 96 727 42T624 -12ZM624 21Q671 21 698 67T726 196Q726 279 699 324T624 369Q578 369 550 324T522 196Q522 113
550 67T624 21Z" />
<glyph unicode="&amp;" glyph-name="ampersand" horiz-adv-x="575" d="M168 526Q168 493 178 458T205 386Q239 410 268 434T315 487T333 549Q333 581 317 608T261 635Q218 635 193 603T168 526ZM226 -12Q174 -12 131 10T62 72T36 167Q36 211 55 245T106 307T171
361Q151 403 139 444T127 524Q127 588 165 629T263 671Q316 671 344 637T373 551Q373 508 351 474T294 411T221 354Q256 291 304 232T404 128Q439 172 465 227T508 345H551Q532 278 503 216T434 103Q469 75 501 57T562 27L547 -12Q516 -1 481 19T406 71Q370 34
326 11T226 -12ZM81 170Q81 127 101 95T156 44T230 26Q271 26 308 46T376 97Q324 145 274 205T189 329Q145 295 113 257T81 170Z" />
<glyph unicode="&apos;" glyph-name="quotesingle" horiz-adv-x="219" d="M92 477L84 624L83 693H134V624L125 477H92Z" />
<glyph unicode="(" glyph-name="parenleft" horiz-adv-x="279" d="M220 -175Q159 -75 124 35T88 278Q88 410 123 520T220 731L247 715Q188 621 158 509T127 278Q127 160 157 48T247 -159L220 -175Z" />
<glyph unicode=")" glyph-name="parenright" horiz-adv-x="279" d="M59 -175L32 -159Q91 -64 121 48T152 278Q152 397 122 509T32 715L59 731Q121 631 156 521T191 278Q191 146 156 36T59 -175Z" />
<glyph unicode="*" glyph-name="asterisk" horiz-adv-x="395" d="M132 462L105 482L160 570L70 606L80 636L174 610L181 712H213L220 612L315 636L325 606L234 570L289 482L262 462L198 545L132 462Z" />
<glyph unicode="+" glyph-name="plus" horiz-adv-x="479" d="M219 110V311H34V349H219V550H260V349H445V311H260V110H219Z" />
<glyph unicode="," glyph-name="comma" horiz-adv-x="219" d="M62 -155L48 -125Q83 -107 104 -76T125 -4Q122 -5 119 -5T113 -5Q96 -5 84 6T71 37Q71 57 84 68T114 79Q137 79 151 60T165 8Q165 -47 136 -89T62 -155Z" />
<glyph unicode="-" glyph-name="hyphen" horiz-adv-x="299" d="M40 230V269H260V230H40Z" />
<glyph unicode="." glyph-name="period" horiz-adv-x="219" d="M110 -12Q94 -12 81 0T67 33Q67 55 80 67T110 79Q127 79 139 67T152 33Q152 12 140 0T110 -12Z" />
<glyph unicode="/" glyph-name="slash" horiz-adv-x="357" d="M9 -160L314 710H352L47 -160H9Z" />
<glyph unicode="0" glyph-name="zero" horiz-adv-x="479" d="M239 -12Q148 -12 98 75T48 322Q48 481 98 566T239 651Q331 651 380 566T430 322Q430 162 381 75T239 -12ZM239 26Q306 26 345 101T385 322Q385 468 346 540T239 613Q173 613 133 541T93 322Q93 176
133 101T239 26Z" />
<glyph unicode="1" glyph-name="one" horiz-adv-x="479" d="M84 0V39H234V569H120V599Q159 606 190 616T243 639H279V39H418V0H84Z" />
<glyph unicode="2" glyph-name="two" horiz-adv-x="479" d="M41 0V28Q146 135 216 213T321 354T356 471Q356 531 323 572T217 613Q174 613 136 589T68 529L39 557Q75 597 119 624T221 651Q307 651 354 602T401 472Q401 409 365 344T263 204T108 35Q134 37 161
38T215 40H433V0H41Z" />
<glyph unicode="3" glyph-name="three" horiz-adv-x="479" d="M232 -12Q181 -12 143 1T78 36T29 78L55 109Q84 78 125 53T232 27Q297 27 339 65T381 168Q381 234 330 275T158 316V355Q232 355 276 373T339 424T358 494Q358 548 323 580T229 613Q185 613 148 593T82
543L56 573Q89 605 131 628T229 651Q279 651 318 633T381 581T404 497Q404 434 370 396T282 339V335Q322 327 354 305T407 248T427 169Q427 114 401 73T331 10T232 -12Z" />
<glyph unicode="4" glyph-name="four" horiz-adv-x="479" d="M70 229H310V463Q310 485 311 518T314 573H310Q298 553 285 534T258 493L70 229ZM310 0V191H16V217L313 639H353V229H448V191H353V0H310Z" />
<glyph unicode="5" glyph-name="five" horiz-adv-x="479" d="M227 -12Q176 -12 139 1T74 34T26 74L51 105Q80 76 120 52T226 27Q269 27 305 48T363 109T385 199Q385 276 343 320T229 364Q192 364 166 353T110 321L79 340L102 639H397V600H142L122 369Q147 384
174 393T236 403Q290 403 334 382T405 316T431 201Q431 133 402 86T326 13T227 -12Z" />
<glyph unicode="6" glyph-name="six" horiz-adv-x="479" d="M253 348Q219 348 178 327T98 252Q104 151 144 89T262 26Q299 26 328 47T374 105T391 188Q391 257 359 302T253 348ZM261 -12Q165 -12 109 66T52 290Q52 391 71 460T123 571T198 632T287 651Q332 651
364 634T422 589L395 559Q374 585 346 598T287 612Q236 612 193 582T123 483T97 297Q130 338 172 362T258 386Q342 386 389 336T436 188Q436 130 412 85T349 14T261 -12Z" />
<glyph unicode="7" glyph-name="seven" horiz-adv-x="479" d="M188 0Q193 129 214 231T276 421T381 600H44V639H437V613Q380 537 343 467T283 324T251 173T236 0H188Z" />
<glyph unicode="8" glyph-name="eight" horiz-adv-x="479" d="M243 -12Q185 -12 139 11T67 74T40 164Q40 207 59 242T108 302T168 344V348Q133 371 105 407T76 495Q76 541 98 576T159 631T243 651Q325 651 370 604T416 484Q416 449 401 418T365 362T325 322V318Q353
301 378 280T420 228T437 155Q437 109 413 71T345 11T243 -12ZM290 335Q331 368 352 405T374 483Q374 536 340 575T243 614Q190 614 155 581T120 495Q120 450 145 421T209 372T290 335ZM243 25Q311 25 351 63T392 156Q392 205 364 235T292 287T197 327Q148 299
116 259T84 166Q84 126 104 95T161 44T243 25Z" />
<glyph unicode="9" glyph-name="nine" horiz-adv-x="479" d="M87 452Q87 382 120 337T226 291Q261 291 302 314T381 388Q375 489 335 551T216 613Q180 613 151 592T104 534T87 452ZM191 -12Q147 -12 114 5T56 50L83 80Q104 54 132 41T192 27Q243 27 286 57T355
156T382 342Q349 302 307 278T220 254Q137 254 90 304T43 452Q43 510 67 555T131 625T218 651Q313 651 369 574T426 350Q426 216 393 137T307 23T191 -12Z" />
<glyph unicode=":" glyph-name="colon" horiz-adv-x="219" d="M110 370Q94 370 81 382T67 415Q67 437 80 449T110 461Q127 461 139 449T152 415Q152 394 140 382T110 370ZM110 -12Q94 -12 81 0T67 33Q67 55 80 67T110 79Q127 79 139 67T152 33Q152 12 140 0T110 -12Z" />
<glyph unicode=";" glyph-name="semicolon" horiz-adv-x="219" d="M110 370Q94 370 81 382T67 415Q67 437 80 449T110 461Q127 461 139 449T152 415Q152 394 140 382T110 370ZM62 -155L48 -125Q83 -107 104 -76T125 -4Q122 -5 119 -5T113 -5Q96 -5 84 6T71 37Q71
57 84 68T114 79Q137 79 151 60T165 8Q165 -47 136 -89T62 -155Z" />
<glyph unicode="&lt;" glyph-name="less" horiz-adv-x="479" d="M445 146L34 310V354L445 518V475L213 385L80 334V330L213 279L445 189V146Z" />
<glyph unicode="=" glyph-name="equal" horiz-adv-x="479" d="M34 413V451H445V413H34ZM34 465V503H445V465H34Z" />
<glyph unicode="&gt;" glyph-name="greater" horiz-adv-x="479" d="M34 146V189L266 279L399 330V334L266 385L34 475V518L445 354V310L34 146Z" />
<glyph unicode="?" glyph-name="question" horiz-adv-x="402" d="M163 179Q156 229 168 267T203 337T249 398T289 458T306 526Q306 573 279 608T193 643Q116 643 64 579L37 604Q66 637 105 659T197 682Q270 682 311 638T352 529Q352 488 335 455T294 391T247 330T211
262T203 179H163ZM186 -12Q170 -12 157 0T144 33Q144 55 157 67T186 79Q203 79 216 67T229 33Q229 12 216 0T186 -12Z" />
<glyph unicode="@" glyph-name="at" horiz-adv-x="814" d="M388 -146Q292 -146 216 -105T96 14T52 202Q52 300 84 379T171 515T298 602T449 633Q546 633 616 594T724 483T763 316Q763 231 735 173T664 86T579 56Q539 56 513 74T482 132H480Q454 103 424 83T358
62Q312 62 278 96T244 198Q244 234 256 273T293 347T351 402T430 423Q483 423 513 375H515L524 415H558L522 226Q488 91 582 91Q614 91 647 117T702 193T725 313Q725 399 692 463T596 562T446 598Q377 598 314 571T200 491T120 367T90 205Q90 108 128 37T234 -72T391
-110Q441 -110 482 -97T559 -62L575 -92Q490 -146 388 -146ZM364 98Q388 98 415 114T472 165L503 338Q485 366 469 376T429 387Q384 387 352 358T302 286T284 201Q284 144 307 121T364 98Z" />
<glyph unicode="A" glyph-name="A" horiz-adv-x="526" d="M188 388L146 265H380L338 388Q318 447 300 501T265 616H261Q244 555 226 501T188 388ZM8 0L240 659H286L518 0H470L393 226H132L54 0H8Z" />
<glyph unicode="B" glyph-name="B" horiz-adv-x="578" d="M97 0V659H275Q375 659 434 621T493 499Q493 447 467 409T391 355V351Q455 341 494 301T533 192Q533 97 467 49T288 0H97ZM143 369H257Q358 369 402 402T447 494Q447 564 400 592T262 621H143V369ZM143
38H276Q374 38 431 75T488 191Q488 262 433 296T276 331H143V38Z" />
<glyph unicode="C" glyph-name="C" horiz-adv-x="564" d="M331 -12Q250 -12 188 30T90 149T55 331Q55 436 90 512T189 629T336 671Q394 671 438 647T508 592L481 561Q454 592 418 610T337 629Q265 629 213 593T132 490T103 331Q103 240 131 172T210 67T333 30Q384
30 424 50T500 111L527 82Q489 39 442 14T331 -12Z" />
<glyph unicode="D" glyph-name="D" horiz-adv-x="604" d="M97 0V659H250Q352 659 418 619T516 505T549 332Q549 232 517 158T418 42T251 0H97ZM143 39H245Q335 39 391 76T474 180T501 332Q501 418 475 482T392 583T245 620H143V39Z" />
<glyph unicode="E" glyph-name="E" horiz-adv-x="515" d="M97 0V659H458V619H143V370H407V330H143V40H468V0H97Z" />
<glyph unicode="F" glyph-name="F" horiz-adv-x="477" d="M97 0V659H456V619H143V357H408V317H143V0H97Z" />
<glyph unicode="G" glyph-name="G" horiz-adv-x="605" d="M338 -12Q253 -12 190 30T91 149T55 331Q55 436 91 512T193 629T346 671Q413 671 456 646T526 592L499 561Q474 589 438 609T347 629Q272 629 217 593T133 490T103 331Q103 240 131 172T212 67T341 30Q386
30 425 43T489 80V285H331V324H533V63Q502 30 453 9T338 -12Z" />
<glyph unicode="H" glyph-name="H" horiz-adv-x="639" d="M97 0V659H143V370H496V659H542V0H496V330H143V0H97Z" />
<glyph unicode="I" glyph-name="I" horiz-adv-x="240" d="M97 0V659H143V0H97Z" />
<glyph unicode="J" glyph-name="J" horiz-adv-x="462" d="M203 -12Q148 -12 107 13T41 85L76 108Q100 66 131 48T203 30Q263 30 292 67T321 184V659H367V179Q367 126 351 83T299 14T203 -12Z" />
<glyph unicode="K" glyph-name="K" horiz-adv-x="558" d="M97 0V659H143V293H145L464 659H519L309 415L548 0H495L277 380L143 227V0H97Z" />
<glyph unicode="L" glyph-name="L" horiz-adv-x="467" d="M97 0V659H143V40H447V0H97Z" />
<glyph unicode="M" glyph-name="M" horiz-adv-x="706" d="M97 0V659H162L300 272Q313 236 326 200T352 126H356Q369 163 381 199T406 272L543 659H609V0H564V433Q564 474 566 522T570 611H566L515 464L373 72H333L190 464L138 611H134Q136 570 138 522T140 433V0H97Z" />
<glyph unicode="N" glyph-name="N" horiz-adv-x="636" d="M97 0V659H145L423 194L497 63H501Q500 111 498 159T495 255V659H539V0H491L213 465L139 596H135Q137 549 139 503T141 409V0H97Z" />
<glyph unicode="O" glyph-name="O" horiz-adv-x="652" d="M326 -12Q247 -12 186 30T90 150T55 332Q55 436 90 512T186 629T326 671Q406 671 467 630T563 512T598 332Q598 227 563 150T467 31T326 -12ZM326 30Q393 30 443 67T521 173T549 332Q549 423 521 489T443
592T326 629Q259 629 209 593T131 490T103 332Q103 241 131 173T209 68T326 30Z" />
<glyph unicode="P" glyph-name="P" horiz-adv-x="549" d="M97 0V659H263Q375 659 438 618T502 475Q502 378 440 331T267 283H143V0H97ZM143 322H256Q357 322 406 358T455 475Q455 558 405 589T252 620H143V322Z" />
<glyph unicode="Q" glyph-name="Q" horiz-adv-x="652" d="M326 27Q393 27 443 65T521 171T549 332Q549 423 521 489T443 592T326 629Q259 629 209 593T131 490T103 332Q103 240 131 172T209 65T326 27ZM519 -156Q436 -156 381 -115T300 -11Q228 -4 173 40T86 158T55
332Q55 436 90 512T186 629T326 671Q406 671 467 630T563 512T598 332Q598 233 567 159T480 40T351 -11Q397 -113 523 -113Q546 -113 561 -111T590 -105L600 -144Q587 -148 566 -152T519 -156Z" />
<glyph unicode="R" glyph-name="R" horiz-adv-x="544" d="M97 0V659H286Q384 659 443 620T502 485Q502 406 457 361T333 306L515 0H462L283 303H143V0H97ZM143 341H274Q361 341 408 376T455 485Q455 559 408 589T274 620H143V341Z" />
<glyph unicode="S" glyph-name="S" horiz-adv-x="521" d="M269 -12Q197 -12 141 16T46 87L76 119Q112 79 162 55T269 30Q345 30 389 67T433 162Q433 203 417 228T375 269T315 300L215 345Q187 358 156 377T103 428T81 509Q81 557 106 593T174 650T273 671Q332
671 379 648T456 592L430 562Q401 592 362 610T273 629Q208 629 168 597T127 511Q127 473 145 449T190 410T241 384L341 340Q378 324 409 303T460 249T480 165Q480 115 454 75T381 11T269 -12Z" />
<glyph unicode="T" glyph-name="T" horiz-adv-x="524" d="M239 0V619H29V659H495V619H285V0H239Z" />
<glyph unicode="U" glyph-name="U" horiz-adv-x="634" d="M316 -12Q274 -12 235 0T164 43T114 124T95 253V659H141V258Q141 171 165 121T230 51T316 30Q364 30 405 50T471 121T496 258V659H539V253Q539 176 521 125T471 43T399 1T316 -12Z" />
<glyph unicode="V" glyph-name="V" horiz-adv-x="491" d="M222 0L4 659H53L175 274Q194 214 209 164T245 53H249Q269 113 284 163T318 274L440 659H487L271 0H222Z" />
<glyph unicode="W" glyph-name="W" horiz-adv-x="770" d="M178 0L28 659H76L159 271Q170 217 181 163T204 56H208Q220 109 233 163T259 271L362 659H409L512 271Q526 217 539 164T565 56H569Q580 110 590 163T612 271L695 659H740L593 0H542L422 452Q413 491 404
526T387 601H383Q375 562 365 527T346 452L228 0H178Z" />
<glyph unicode="X" glyph-name="X" horiz-adv-x="482" d="M17 0L215 341L31 659H81L189 465Q203 443 215 423T243 375H247Q261 402 272 422T296 465L404 659H451L267 339L465 0H415L300 202Q287 227 272 252T239 307H235Q219 277 206 252T179 202L64 0H17Z" />
<glyph unicode="Y" glyph-name="Y" horiz-adv-x="447" d="M200 0V267L3 659H52L152 453Q169 417 186 382T222 310H226Q245 347 263 382T297 453L397 659H444L246 267V0H200Z" />
<glyph unicode="Z" glyph-name="Z" horiz-adv-x="538" d="M50 0V27L429 619H83V659H487V632L107 40H490V0H50Z" />
<glyph unicode="[" glyph-name="bracketleft" horiz-adv-x="279" d="M98 -152V708H258V679H133V-123H258V-152H98Z" />
<glyph unicode="\" glyph-name="backslash" horiz-adv-x="357" d="M311 -160L5 710H43L349 -160H311Z" />
<glyph unicode="]" glyph-name="bracketright" horiz-adv-x="279" d="M21 -152V-123H146V679H21V708H181V-152H21Z" />
<glyph unicode="^" glyph-name="asciicircum" horiz-adv-x="479" d="M66 290L216 670H262L413 290H370L293 493L241 626H237L186 493L109 290H66Z" />
<glyph unicode="_" glyph-name="underscore" horiz-adv-x="500" d="M12 -117V-79H488V-117H12Z" />
<glyph unicode="`" glyph-name="grave" horiz-adv-x="535" d="M296 574L152 725L186 754L320 597L296 574Z" />
<glyph unicode="a" glyph-name="a" horiz-adv-x="491" d="M197 -12Q140 -12 99 20T58 120Q58 200 133 241T368 301Q369 338 360 372T327 430T254 453Q206 453 166 434T101 397L81 430Q98 442 125 456T186 481T260 492Q317 492 350 467T397 401T412 307V0H374L370
62H367Q330 33 287 11T197 -12ZM205 26Q246 26 284 46T368 104V267Q269 255 211 236T128 189T103 122Q103 70 133 48T205 26Z" />
<glyph unicode="b" glyph-name="b" horiz-adv-x="542" d="M280 -12Q246 -12 208 4T136 49H134L129 0H92V719H136V511L134 417Q171 448 213 470T300 492Q396 492 444 426T492 247Q492 166 463 108T385 19T280 -12ZM278 27Q327 27 364 55T423 132T445 247Q445 306
430 352T382 426T293 453Q257 453 218 433T136 374V89Q176 55 213 41T278 27Z" />
<glyph unicode="c" glyph-name="c" horiz-adv-x="449" d="M270 -12Q208 -12 159 17T81 103T52 239Q52 320 82 376T163 462T271 492Q321 492 354 474T412 433L386 402Q363 424 335 438T272 453Q223 453 184 426T121 351T98 239Q98 176 119 129T180 54T272 27Q310
27 342 43T400 82L423 51Q392 24 354 6T270 -12Z" />
<glyph unicode="d" glyph-name="d" horiz-adv-x="544" d="M251 -12Q160 -12 106 53T52 239Q52 317 81 373T159 461T265 492Q309 492 341 477T410 433L408 521V719H452V0H414L410 62H407Q378 33 339 11T251 -12ZM257 27Q297 27 333 47T408 106V391Q370 425 337
439T268 453Q220 453 182 425T122 348T99 239Q99 144 140 86T257 27Z" />
<glyph unicode="e" glyph-name="e" horiz-adv-x="483" d="M274 -12Q213 -12 163 18T82 104T52 239Q52 318 82 374T160 461T261 492Q347 492 396 434T445 270Q445 261 445 252T442 234H97Q98 174 120 127T183 53T278 26Q317 26 348 38T407 69L425 35Q397 18 362
3T274 -12ZM97 270H403Q403 362 365 408T262 454Q221 454 186 432T126 369T97 270Z" />
<glyph unicode="f" glyph-name="f" horiz-adv-x="263" d="M99 0V442H33V476L99 480V587Q99 658 130 694T218 731Q253 731 288 715L276 679Q261 687 247 690T218 693Q180 693 162 665T143 584V480H254V442H143V0H99Z" />
<glyph unicode="g" glyph-name="g" horiz-adv-x="487" d="M249 -231Q158 -231 105 -195T52 -98Q52 -66 71 -36T123 18V22Q105 33 93 52T81 99Q81 131 99 153T133 187V191Q111 211 92 245T73 323Q73 373 95 411T156 470T242 492Q262 492 278 489T305 480H468V443H356Q379
423 394 392T409 322Q409 273 387 235T327 175T242 153Q222 153 201 158T162 173Q146 160 135 144T123 104Q123 78 142 60T215 41H318Q399 41 437 15T476 -69Q476 -110 448 -147T369 -208T249 -231ZM242 188Q275 188 303 205T349 252T366 323Q366 384 330 420T242
456Q191 456 154 421T117 323Q117 283 134 253T180 205T242 188ZM254 -195Q308 -195 347 -177T409 -132T431 -74Q431 -34 403 -18T320 -1H217Q210 -1 193 1T157 7Q124 -15 109 -41T94 -94Q94 -139 136 -167T254 -195Z" />
<glyph unicode="h" glyph-name="h" horiz-adv-x="528" d="M92 0V719H136V405Q174 443 213 467T302 492Q376 492 411 447T447 308V0H403V302Q403 379 378 415T293 452Q250 452 215 430T136 362V0H92Z" />
<glyph unicode="i" glyph-name="i" horiz-adv-x="229" d="M92 0V480H136V0H92ZM115 596Q99 596 88 607T77 637Q77 654 88 665T115 676Q132 676 142 665T153 637Q153 618 143 607T115 596Z" />
<glyph unicode="j" glyph-name="j" horiz-adv-x="229" d="M29 -229Q12 -229 -5 -225T-33 -217L-22 -181Q-13 -184 0 -187T28 -191Q69 -191 80 -162T92 -86V480H137V-89Q137 -229 29 -229ZM114 596Q98 596 87 607T76 637Q76 654 87 665T114 676Q131 676 141 665T152
637Q152 618 142 607T114 596Z" />
<glyph unicode="k" glyph-name="k" horiz-adv-x="464" d="M92 0V719H136V189H138L375 480H426L270 290L452 0H403L244 257L136 131V0H92Z" />
<glyph unicode="l" glyph-name="l" horiz-adv-x="237" d="M151 -12Q92 -12 92 64V719H136V58Q136 27 157 27Q160 27 164 27T175 29L183 -7Q176 -9 169 -10T151 -12Z" />
<glyph unicode="m" glyph-name="m" horiz-adv-x="812" d="M92 0V480H130L134 406H137Q169 443 208 467T288 492Q346 492 377 465T421 394Q462 439 502 465T584 492Q728 492 728 308V0H683V302Q683 452 576 452Q512 452 432 362V0H388V302Q388 379 362 415T280
452Q216 452 136 362V0H92Z" />
<glyph unicode="n" glyph-name="n" horiz-adv-x="532" d="M92 0V480H130L134 406H137Q174 443 213 467T302 492Q376 492 411 447T447 308V0H403V302Q403 379 378 415T293 452Q250 452 215 430T136 362V0H92Z" />
<glyph unicode="o" glyph-name="o" horiz-adv-x="535" d="M267 -12Q210 -12 161 17T82 103T52 239Q52 320 82 376T161 462T267 492Q325 492 374 463T453 377T483 239Q483 160 453 104T374 18T267 -12ZM267 27Q316 27 354 54T414 128T437 239Q437 303 415 351T354
426T267 453Q219 453 181 426T120 351T98 239Q98 176 120 129T180 54T267 27Z" />
<glyph unicode="p" glyph-name="p" horiz-adv-x="544" d="M92 -217V480H130L134 420H137Q172 448 214 470T300 492Q396 492 444 426T492 247Q492 166 463 108T385 19T280 -12Q246 -12 210 3T136 47V-217H92ZM278 27Q327 27 364 55T423 132T445 247Q445 306 430
352T382 426T293 453Q257 453 219 433T136 374V89Q177 55 213 41T278 27Z" />
<glyph unicode="q" glyph-name="q" horiz-adv-x="544" d="M408 -217V-32L410 63Q378 32 338 10T251 -12Q160 -12 106 53T52 239Q52 317 81 373T159 461T265 492Q309 492 341 477T408 436H410L415 480H452V-217H408ZM257 27Q297 27 333 47T408 106V391Q370 425
337 439T268 453Q220 453 182 425T122 348T99 239Q99 144 140 86T257 27Z" />
<glyph unicode="r" glyph-name="r" horiz-adv-x="317" d="M92 0V480H130L134 391H137Q161 435 195 463T273 492Q287 492 298 490T321 482L311 442Q299 447 290 448T267 450Q235 450 200 423T136 327V0H92Z" />
<glyph unicode="s" glyph-name="s" horiz-adv-x="405" d="M208 -12Q155 -12 110 7T32 54L58 87Q89 62 124 44T211 26Q267 26 296 54T325 121Q325 151 307 171T263 204T208 227Q172 240 138 256T81 297T59 364Q59 417 98 454T213 492Q252 492 288 478T351 442L327
411Q302 429 275 441T212 454Q156 454 130 427T103 367Q103 340 118 322T159 293T213 270Q251 256 287 240T346 197T370 123Q370 87 351 57T296 7T208 -12Z" />
<glyph unicode="t" glyph-name="t" horiz-adv-x="312" d="M223 -12Q153 -12 128 28T103 133V442H28V476L104 480L110 619H148V480H287V442H148V129Q148 83 164 55T229 27Q243 27 259 31T289 42L301 6Q280 -1 259 -6T223 -12Z" />
<glyph unicode="u" glyph-name="u" horiz-adv-x="529" d="M230 -12Q156 -12 121 33T85 172V480H129V178Q129 102 154 65T238 28Q281 28 316 51T393 126V480H437V0H400L395 80H393Q358 39 319 14T230 -12Z" />
<glyph unicode="v" glyph-name="v" horiz-adv-x="434" d="M192 0L12 480H60L168 179Q179 145 192 110T216 41H220Q232 74 244 109T269 179L377 480H422L244 0H192Z" />
<glyph unicode="w" glyph-name="w" horiz-adv-x="685" d="M166 0L24 480H72L158 169Q167 136 175 105T191 41H195Q203 73 212 104T230 169L317 480H370L457 169Q466 136 475 105T493 41H497Q505 73 514 104T531 169L616 480H661L523 0H465L381 298Q371 333 363
366T344 435H340Q332 400 323 366T302 296L219 0H166Z" />
<glyph unicode="x" glyph-name="x" horiz-adv-x="407" d="M14 0L177 251L27 480H76L154 358Q166 339 179 319T205 279H209Q222 299 233 319T258 358L333 480H379L230 247L393 0H344L259 131Q246 154 232 176T202 219H198Q184 198 171 176T143 131L61 0H14Z" />
<glyph unicode="y" glyph-name="y" horiz-adv-x="436" d="M73 -219Q46 -219 24 -209L34 -170Q42 -173 52 -175T73 -178Q117 -178 147 -142T196 -51L209 -9L12 480H60L176 178Q187 148 201 112T228 44H232Q243 76 254 112T276 178L379 480H424L234 -60Q221 -100
200 -136T147 -196T73 -219Z" />
<glyph unicode="z" glyph-name="z" horiz-adv-x="404" d="M27 0V24L311 442H58V480H368V457L85 39H378V0H27Z" />
<glyph unicode="{" glyph-name="braceleft" horiz-adv-x="279" d="M224 -152Q169 -152 141 -126T113 -24Q113 32 117 80T121 181Q121 202 114 220T89 250T35 262V294Q70 294 88 305T114 335T121 373Q121 426 117 475T113 580Q113 656 141 682T224 708H258V679H227Q181
679 166 654T150 576Q150 527 153 483T156 384Q156 340 145 315T105 280V276Q134 267 145 241T156 172Q156 118 153 74T150 -20Q150 -72 165 -97T227 -123H258V-152H224Z" />
<glyph unicode="|" glyph-name="bar" horiz-adv-x="226" d="M95 -250V750H131V-250H95Z" />
<glyph unicode="}" glyph-name="braceright" horiz-adv-x="279" d="M21 -152V-123H52Q98 -123 113 -98T129 -20Q129 29 126 73T123 172Q123 215 133 241T174 276V280Q144 289 134 314T123 384Q123 438 126 482T129 576Q129 629 114 654T52 679H21V708H55Q111 708
138 682T166 580Q166 525 162 476T158 373Q158 354 165 336T190 306T244 294V262Q209 262 191 251T165 221T158 181Q158 129 162 81T166 -24Q166 -100 139 -126T55 -152H21Z" />
<glyph unicode="~" glyph-name="asciitilde" horiz-adv-x="479" d="M329 266Q300 266 276 279T231 311T190 342T148 356Q126 356 107 342T69 293L40 311Q62 353 91 373T150 394Q179 394 203 381T248 349T289 318T331 304Q353 304 372 318T410 367L438 347Q417
307 388 287T329 266Z" />
<glyph unicode="&#xa0;" glyph-name="space" horiz-adv-x="200" />
<glyph unicode="&#xa1;" glyph-name="exclamdown" horiz-adv-x="259" d="M107 -190V-119L113 301H146L152 -119L153 -190H107ZM130 401Q114 401 101 413T87 448Q87 468 100 480T130 492Q147 492 159 480T172 448Q172 426 160 414T130 401Z" />
<glyph unicode="&#xa2;" glyph-name="cent" horiz-adv-x="479" d="M255 -28V81Q170 89 116 148T62 311Q62 380 88 429T158 507T255 541V652H289V543Q336 542 368 524T424 483L400 455Q377 476 349 490T289 504V119Q326 121 357 136T412 173L435 144Q406 117 370
100T289 80V-28H255ZM107 311Q107 233 147 182T255 121V502Q191 492 149 441T107 311Z" />
<glyph unicode="&#xa3;" glyph-name="sterling" horiz-adv-x="479" d="M57 0V27Q113 59 138 111T163 221Q163 240 161 258T154 293H54V326L120 329H144Q134 367 123 404T112 481Q112 560 157 605T282 651Q334 651 369 630T426 580L397 553Q376 578 349 595T282
612Q221 612 189 574T157 481Q157 441 168 405T189 329H354V293H197Q201 276 203 259T205 221Q205 159 187 118T133 44V40H428V0H57Z" />
<glyph unicode="&#xa4;" glyph-name="currency" horiz-adv-x="479" d="M57 114L30 142L96 209Q78 233 68 263T58 328Q58 364 68 395T96 450L30 518L57 546L123 477Q172 521 239 521Q306 521 355 477L422 546L448 518L382 450Q400 426 410 395T420 328Q420 294
410 264T383 209L448 142L422 114L355 182Q307 137 239 137Q171 137 123 182L57 114ZM239 174Q277 174 308 193T357 248T376 328Q376 374 358 409T308 464T239 484Q202 484 171 464T121 409T102 328Q102 283 121 248T171 194T239 174Z" />
<glyph unicode="&#xa5;" glyph-name="yen" horiz-adv-x="479" d="M216 0V165H50V199H216V270H50V303H202L30 639H78L172 446Q188 413 204 380T238 309H242Q260 346 276 379T309 446L403 639H449L275 303H429V270H261V199H429V165H261V0H216Z" />
<glyph unicode="&#xa6;" glyph-name="brokenbar" horiz-adv-x="226" d="M95 279V750H131V279H95ZM95 -250V220H131V-250H95Z" />
<glyph unicode="&#xa7;" glyph-name="section" horiz-adv-x="479" d="M233 -52Q181 -52 141 -35T72 11L102 39Q128 15 157 0T233 -15Q279 -15 306 10T333 70Q333 104 313 126T260 163T192 194T123 228T71 277T50 352Q50 400 76 431T139 483Q124 498 115 518T106
564Q106 593 120 619T165 663T241 681Q282 681 317 666T381 628L357 597Q333 617 307 630T242 643Q192 643 170 620T148 567Q148 534 168 513T221 477T288 446T356 411T408 361T429 284Q429 234 405 206T342 156Q358 140 367 120T376 72Q376 36 357 8T305 -36T233
-52ZM92 355Q92 316 114 291T170 249T243 217T312 181Q348 198 367 219T387 281Q387 322 365 347T309 390T237 423T168 459Q134 440 113 417T92 355Z" />
<glyph unicode="&#xa8;" glyph-name="dieresis" horiz-adv-x="535" d="M178 598Q162 598 152 608T141 635Q141 651 151 661T178 672Q194 672 204 662T215 635Q215 619 205 609T178 598ZM356 598Q340 598 330 608T319 635Q319 651 329 661T356 672Q372 672 382
662T393 635Q393 619 383 609T356 598Z" />
<glyph unicode="&#xa9;" glyph-name="copyright" horiz-adv-x="741" d="M371 -12Q306 -12 249 11T147 79T77 184T51 322Q51 397 76 458T146 562T248 629T371 652Q436 652 493 629T595 563T664 458T690 322Q690 246 665 185T595 79T494 12T371 -12ZM371 19Q448
19 512 57T616 163T655 322Q655 412 616 479T513 584T371 622Q294 622 229 585T125 480T86 322Q86 232 125 164T229 57T371 19ZM376 124Q329 124 289 147T225 215T201 322Q201 380 226 422T292 486T381 509Q421 509 449 494T501 454L478 428Q455 450 433 461T380
472Q320 472 282 431T244 322Q244 248 280 205T378 161Q414 161 442 175T493 211L513 183Q486 159 455 142T376 124Z" />
<glyph unicode="&#xaa;" glyph-name="ordfeminine" horiz-adv-x="337" d="M139 398Q96 398 69 422T42 489Q42 542 91 569T248 607Q247 645 233 672T178 699Q148 699 118 687T71 662L56 689Q76 702 109 716T182 731Q240 731 262 697T285 606V406H255L249 445H245Q224
427 198 413T139 398ZM148 430Q171 430 196 442T248 479V581Q155 571 118 549T81 492Q81 460 99 445T148 430Z" />
<glyph unicode="&#xab;" glyph-name="guillemotleft" horiz-adv-x="399" d="M180 72L43 233V271L180 432L205 411L82 252L205 91L180 72ZM321 72L184 233V271L321 432L346 411L223 252L346 91L321 72Z" />
<glyph unicode="&#xac;" glyph-name="logicalnot" horiz-adv-x="479" d="M404 110V311H34V349H445V110H404Z" />
<glyph unicode="&#xad;" glyph-name="hyphen" horiz-adv-x="299" d="M40 230V269H260V230H40Z" />
<glyph unicode="&#xae;" glyph-name="registered" horiz-adv-x="400" d="M200 324Q151 324 110 348T43 415T18 517Q18 576 43 619T109 687T200 712Q250 712 291 688T357 620T382 517Q382 459 358 416T292 348T200 324ZM200 353Q242 353 276 374T331 432T351 517Q351
565 331 603T277 662T200 684Q158 684 124 663T70 603T49 517Q49 470 69 433T124 374T200 353ZM132 418V624H201Q230 624 254 611T278 560Q278 541 267 525T238 504L287 418H250L211 494H164V418H132ZM164 521H193Q216 521 230 530T244 558Q244 575 234 585T196
596H164V521Z" />
<glyph unicode="&#xaf;" glyph-name="overscore" horiz-adv-x="535" d="M144 606V642H390V606H144Z" />
<glyph unicode="&#xb0;" glyph-name="degree" horiz-adv-x="311" d="M156 447Q112 447 77 478T42 565Q42 621 77 652T156 684Q200 684 235 653T270 565Q270 510 235 479T156 447ZM156 479Q191 479 213 503T236 565Q236 603 214 628T156 653Q121 653 99 628T76
565Q76 528 98 504T156 479Z" />
<glyph unicode="&#xb1;" glyph-name="plusminus" horiz-adv-x="479" d="M219 109V310H34V347H219V550H260V347H445V310H260V109H219ZM34 0V37H445V0H34Z" />
<glyph unicode="&#xb2;" glyph-name="two.sups" horiz-adv-x="362" d="M56 406V431Q123 493 165 536T228 614T249 681Q249 724 226 749T163 774Q136 774 113 756T72 712L47 735Q65 765 97 786T167 808Q221 808 254 778T288 685Q288 644 267 607T207 530T119 440H311V406H56Z"
/>
<glyph unicode="&#xb3;" glyph-name="three.sups" horiz-adv-x="362" d="M177 394Q131 394 96 416T40 469L69 491Q87 463 115 445T178 427Q215 427 242 448T269 510Q269 548 232 569T131 590V618Q190 618 221 643T253 702Q253 734 231 754T170 775Q147 775 124
761T81 723L56 745Q77 772 107 790T174 808Q223 808 257 781T292 705Q292 668 271 644T217 606Q252 599 280 575T308 509Q308 455 270 425T177 394Z" />
<glyph unicode="&#xb4;" glyph-name="acute" horiz-adv-x="535" d="M238 574L214 597L348 754L382 725L238 574Z" />
<glyph unicode="&#xb5;" glyph-name="mu" horiz-adv-x="543" d="M92 -180V480H136V178Q136 107 161 68T242 28Q267 28 292 35T343 66T397 139V480H441Q440 375 439 271T438 64Q438 45 446 36T468 27Q480 27 496 33L504 -3Q496 -7 486 -9T462 -12Q427 -12 413 12T399
89H396Q365 37 327 13T245 -11Q208 -11 180 0T132 49Q132 -5 132 -41T133 -108T137 -180H92Z" />
<glyph unicode="&#xb6;" glyph-name="paragraph" horiz-adv-x="515" d="M373 -80V659H419V-80H373ZM291 244Q218 244 162 264T74 331T42 451Q42 526 71 572T154 638T275 659H319V244H291Z" />
<glyph unicode="&#xb7;" glyph-name="middot" horiz-adv-x="219" d="M110 277Q94 277 81 289T67 322Q67 344 80 356T110 368Q127 368 139 356T152 322Q152 301 140 289T110 277Z" />
<glyph unicode="&#xb8;" glyph-name="cedilla" horiz-adv-x="535" d="M199 -219L192 -189Q257 -184 281 -171T305 -136Q305 -114 287 -103T227 -85L268 2H303L273 -65Q305 -73 324 -88T344 -134Q344 -173 307 -193T199 -219Z" />
<glyph unicode="&#xb9;" glyph-name="one.sups" horiz-adv-x="362" d="M176 406V730H94V757Q147 768 181 796H214V406H176Z" />
<glyph unicode="&#xba;" glyph-name="ordmasculine" horiz-adv-x="360" d="M179 398Q118 398 76 442T33 564Q33 644 75 687T179 731Q240 731 282 688T325 564Q325 486 283 442T179 398ZM179 431Q228 431 257 468T286 564Q286 625 257 662T179 699Q130 699 101
662T72 564Q72 506 101 469T179 431Z" />
<glyph unicode="&#xbb;" glyph-name="guillemotright" horiz-adv-x="399" d="M78 72L54 91L176 252L54 411L78 432L216 271V233L78 72ZM219 72L195 91L317 252L195 411L219 432L357 271V233L219 72Z" />
<glyph unicode="&#xbc;" glyph-name="onequarter" horiz-adv-x="764" d="M155 269V593H73V620Q126 631 160 659H193V269H155ZM177 -12L545 671H583L216 -12H177ZM496 146H625V233L629 337H625L569 254L496 146ZM625 0V114H448V135L625 390H661V146H719V114H661V0H625Z" />
<glyph unicode="&#xbd;" glyph-name="onehalf" horiz-adv-x="786" d="M155 269V593H73V620Q126 631 160 659H193V269H155ZM154 -12L522 671H560L193 -12H154ZM480 0V25Q547 87 589 130T652 208T673 275Q673 318 650 343T587 368Q560 368 537 350T496 306L471 329Q489
359 521 380T591 402Q645 402 678 372T712 279Q712 238 691 201T631 124T543 34H735V0H480Z" />
<glyph unicode="&#xbe;" glyph-name="threequarters" horiz-adv-x="783" d="M177 257Q131 257 96 279T40 332L69 354Q87 326 115 308T178 290Q215 290 242 311T269 373Q269 411 232 432T131 453V481Q190 481 221 506T253 565Q253 597 231 617T170 638Q147 638
124 624T81 586L56 608Q77 635 107 653T174 671Q223 671 257 644T292 568Q292 531 271 507T217 469Q252 462 280 438T308 372Q308 318 270 288T177 257ZM224 -12L592 671H630L263 -12H224ZM515 146H644V233L648 337H644L588 254L515 146ZM644 0V114H467V135L644
390H680V146H738V114H680V0H644Z" />
<glyph unicode="&#xbf;" glyph-name="questiondown" horiz-adv-x="402" d="M206 -202Q133 -202 92 -158T51 -49Q51 -8 67 25T108 89T155 151T191 219T199 301H240Q246 251 234 213T199 143T153 82T113 22T96 -46Q96 -92 123 -127T210 -163Q246 -163 279 -146T338
-99L366 -124Q337 -156 298 -179T206 -202ZM216 401Q200 401 187 413T174 448Q174 468 187 480T216 492Q233 492 245 480T258 448Q258 426 246 414T216 401Z" />
<glyph unicode="&#xc0;" glyph-name="Agrave" horiz-adv-x="526" d="M188 388L146 265H380L338 388Q318 447 300 501T265 616H261Q244 555 226 501T188 388ZM8 0L240 659H286L518 0H470L393 226H132L54 0H8ZM284 706L151 819L179 852L304 729L284 706Z" />
<glyph unicode="&#xc1;" glyph-name="Aacute" horiz-adv-x="526" d="M188 388L146 265H380L338 388Q318 447 300 501T265 616H261Q244 555 226 501T188 388ZM8 0L240 659H286L518 0H470L393 226H132L54 0H8ZM242 706L222 729L347 852L375 819L242 706Z" />
<glyph unicode="&#xc2;" glyph-name="Acircumflex" horiz-adv-x="526" d="M188 388L146 265H380L338 388Q318 447 300 501T265 616H261Q244 555 226 501T188 388ZM8 0L240 659H286L518 0H470L393 226H132L54 0H8ZM148 707L128 726L241 839H285L398 726L378 707L265
805H261L148 707Z" />
<glyph unicode="&#xc3;" glyph-name="Atilde" horiz-adv-x="526" d="M188 388L146 265H380L338 388Q318 447 300 501T265 616H261Q244 555 226 501T188 388ZM8 0L240 659H286L518 0H470L393 226H132L54 0H8ZM340 718Q311 718 291 730T255 757T223 785T186 797Q164
797 149 777T131 721L98 724Q100 771 123 802T186 834Q215 834 235 822T271 795T303 767T340 755Q362 755 376 776T395 832L428 829Q426 783 404 751T340 718Z" />
<glyph unicode="&#xc4;" glyph-name="Adieresis" horiz-adv-x="526" d="M188 388L146 265H380L338 388Q318 447 300 501T265 616H261Q244 555 226 501T188 388ZM8 0L240 659H286L518 0H470L393 226H132L54 0H8ZM165 725Q149 725 139 735T129 761Q129 778 139 788T165
798Q181 798 191 788T202 761Q202 745 192 735T165 725ZM361 725Q345 725 335 735T324 761Q324 778 334 788T361 798Q377 798 387 788T397 761Q397 745 387 735T361 725Z" />
<glyph unicode="&#xc5;" glyph-name="Aring" horiz-adv-x="526" d="M188 388L146 265H380L338 388Q318 447 300 501T265 616H261Q244 555 226 501T188 388ZM8 0L240 659H286L518 0H470L393 226H132L54 0H8ZM263 700Q226 700 201 723T175 785Q175 825 200 848T263
871Q299 871 325 848T351 785Q351 747 325 724T263 700ZM263 726Q286 726 302 741T319 785Q319 814 303 829T263 845Q239 845 222 830T205 785Q205 756 222 741T263 726Z" />
<glyph unicode="&#xc6;" glyph-name="AE" horiz-adv-x="809" d="M283 388L210 255H411V619H407Q376 564 346 506T283 388ZM21 0L386 659H752V619H457V370H702V330H457V40H762V0H411V217H189L70 0H21Z" />
<glyph unicode="&#xc7;" glyph-name="Ccedilla" horiz-adv-x="564" d="M331 -12Q250 -12 188 30T90 149T55 331Q55 436 90 512T189 629T336 671Q394 671 438 647T508 592L481 561Q454 592 418 610T337 629Q265 629 213 593T132 490T103 331Q103 240 131 172T210
67T333 30Q384 30 424 50T500 111L527 82Q489 39 442 14T331 -12ZM262 -219L255 -189Q320 -184 344 -171T368 -136Q368 -114 350 -103T290 -85L331 2H366L336 -65Q368 -73 387 -88T407 -134Q407 -173 370 -193T262 -219Z" />
<glyph unicode="&#xc8;" glyph-name="Egrave" horiz-adv-x="515" d="M97 0V659H458V619H143V370H407V330H143V40H468V0H97ZM311 706L178 819L206 852L331 729L311 706Z" />
<glyph unicode="&#xc9;" glyph-name="Eacute" horiz-adv-x="515" d="M97 0V659H458V619H143V370H407V330H143V40H468V0H97ZM269 706L249 729L374 852L402 819L269 706Z" />
<glyph unicode="&#xca;" glyph-name="Ecircumflex" horiz-adv-x="515" d="M97 0V659H458V619H143V370H407V330H143V40H468V0H97ZM175 707L155 726L268 839H312L425 726L405 707L292 805H288L175 707Z" />
<glyph unicode="&#xcb;" glyph-name="Edieresis" horiz-adv-x="515" d="M97 0V659H458V619H143V370H407V330H143V40H468V0H97ZM192 725Q176 725 166 735T156 761Q156 778 166 788T192 798Q208 798 218 788T229 761Q229 745 219 735T192 725ZM388 725Q372 725 362
735T351 761Q351 778 361 788T388 798Q404 798 414 788T424 761Q424 745 414 735T388 725Z" />
<glyph unicode="&#xcc;" glyph-name="Igrave" horiz-adv-x="240" d="M97 0V659H143V0H97ZM141 706L8 819L36 852L161 729L141 706Z" />
<glyph unicode="&#xcd;" glyph-name="Iacute" horiz-adv-x="240" d="M97 0V659H143V0H97ZM99 706L79 729L204 852L232 819L99 706Z" />
<glyph unicode="&#xce;" glyph-name="Icircumflex" horiz-adv-x="240" d="M97 0V659H143V0H97ZM5 707L-15 726L98 839H142L255 726L235 707L122 805H118L5 707Z" />
<glyph unicode="&#xcf;" glyph-name="Idieresis" horiz-adv-x="240" d="M97 0V659H143V0H97ZM22 725Q6 725 -4 735T-14 761Q-14 778 -4 788T22 798Q38 798 48 788T59 761Q59 745 49 735T22 725ZM218 725Q202 725 192 735T181 761Q181 778 191 788T218 798Q234
798 244 788T254 761Q254 745 244 735T218 725Z" />
<glyph unicode="&#xd0;" glyph-name="Eth" horiz-adv-x="625" d="M118 0V332H37V363L118 365V659H271Q373 659 439 619T537 505T570 332Q570 232 538 158T439 42T272 0H118ZM164 39H266Q356 39 412 76T495 180T522 332Q522 418 496 482T413 583T266 620H164V365H327V332H164V39Z"
/>
<glyph unicode="&#xd1;" glyph-name="Ntilde" horiz-adv-x="636" d="M97 0V659H145L423 194L497 63H501Q500 111 498 159T495 255V659H539V0H491L213 465L139 596H135Q137 549 139 503T141 409V0H97ZM408 718Q379 718 359 730T323 757T291 785T254 797Q232 797
217 777T199 721L166 724Q168 771 191 802T254 834Q283 834 303 822T339 795T371 767T408 755Q430 755 444 776T463 832L496 829Q494 783 472 751T408 718Z" />
<glyph unicode="&#xd2;" glyph-name="Ograve" horiz-adv-x="652" d="M326 -12Q247 -12 186 30T90 150T55 332Q55 436 90 512T186 629T326 671Q406 671 467 630T563 512T598 332Q598 227 563 150T467 31T326 -12ZM326 30Q393 30 443 67T521 173T549 332Q549 423
521 489T443 592T326 629Q259 629 209 593T131 490T103 332Q103 241 131 173T209 68T326 30ZM347 706L214 819L242 852L367 729L347 706Z" />
<glyph unicode="&#xd3;" glyph-name="Oacute" horiz-adv-x="652" d="M326 -12Q247 -12 186 30T90 150T55 332Q55 436 90 512T186 629T326 671Q406 671 467 630T563 512T598 332Q598 227 563 150T467 31T326 -12ZM326 30Q393 30 443 67T521 173T549 332Q549 423
521 489T443 592T326 629Q259 629 209 593T131 490T103 332Q103 241 131 173T209 68T326 30ZM305 706L285 729L410 852L438 819L305 706Z" />
<glyph unicode="&#xd4;" glyph-name="Ocircumflex" horiz-adv-x="652" d="M326 -12Q247 -12 186 30T90 150T55 332Q55 436 90 512T186 629T326 671Q406 671 467 630T563 512T598 332Q598 227 563 150T467 31T326 -12ZM326 30Q393 30 443 67T521 173T549 332Q549
423 521 489T443 592T326 629Q259 629 209 593T131 490T103 332Q103 241 131 173T209 68T326 30ZM211 707L191 726L304 839H348L461 726L441 707L328 805H324L211 707Z" />
<glyph unicode="&#xd5;" glyph-name="Otilde" horiz-adv-x="652" d="M326 -12Q247 -12 186 30T90 150T55 332Q55 436 90 512T186 629T326 671Q406 671 467 630T563 512T598 332Q598 227 563 150T467 31T326 -12ZM326 30Q393 30 443 67T521 173T549 332Q549 423
521 489T443 592T326 629Q259 629 209 593T131 490T103 332Q103 241 131 173T209 68T326 30ZM403 718Q374 718 354 730T318 757T286 785T249 797Q227 797 212 777T194 721L161 724Q163 771 186 802T249 834Q278 834 298 822T334 795T366 767T403 755Q425 755 439
776T458 832L491 829Q489 783 467 751T403 718Z" />
<glyph unicode="&#xd6;" glyph-name="Odieresis" horiz-adv-x="652" d="M326 -12Q247 -12 186 30T90 150T55 332Q55 436 90 512T186 629T326 671Q406 671 467 630T563 512T598 332Q598 227 563 150T467 31T326 -12ZM326 30Q393 30 443 67T521 173T549 332Q549
423 521 489T443 592T326 629Q259 629 209 593T131 490T103 332Q103 241 131 173T209 68T326 30ZM228 725Q212 725 202 735T192 761Q192 778 202 788T228 798Q244 798 254 788T265 761Q265 745 255 735T228 725ZM424 725Q408 725 398 735T387 761Q387 778 397 788T424
798Q440 798 450 788T460 761Q460 745 450 735T424 725Z" />
<glyph unicode="&#xd7;" glyph-name="multiply" horiz-adv-x="479" d="M78 135L52 163L213 330L52 497L78 525L239 356L401 525L427 497L266 330L427 163L401 135L239 303L78 135Z" />
<glyph unicode="&#xd8;" glyph-name="Oslash" horiz-adv-x="652" d="M84 -23L56 -1L126 93Q95 137 77 198T59 332Q59 436 94 512T190 629T330 671Q382 671 426 653T506 601L566 682L595 660L530 574Q565 530 583 469T602 332Q602 227 567 150T471 31T330 -12Q277
-12 231 8T150 65L84 -23ZM107 332Q107 211 155 132L478 565Q450 596 413 612T330 629Q263 629 213 593T135 490T107 332ZM330 30Q397 30 447 67T525 173T553 332Q553 394 540 445T501 535L177 101Q206 67 245 49T330 30Z" />
<glyph unicode="&#xd9;" glyph-name="Ugrave" horiz-adv-x="634" d="M316 -12Q274 -12 235 0T164 43T114 124T95 253V659H141V258Q141 171 165 121T230 51T316 30Q364 30 405 50T471 121T496 258V659H539V253Q539 176 521 125T471 43T399 1T316 -12ZM337 706L204
819L232 852L357 729L337 706Z" />
<glyph unicode="&#xda;" glyph-name="Uacute" horiz-adv-x="634" d="M316 -12Q274 -12 235 0T164 43T114 124T95 253V659H141V258Q141 171 165 121T230 51T316 30Q364 30 405 50T471 121T496 258V659H539V253Q539 176 521 125T471 43T399 1T316 -12ZM295 706L275
729L400 852L428 819L295 706Z" />
<glyph unicode="&#xdb;" glyph-name="Ucircumflex" horiz-adv-x="634" d="M316 -12Q274 -12 235 0T164 43T114 124T95 253V659H141V258Q141 171 165 121T230 51T316 30Q364 30 405 50T471 121T496 258V659H539V253Q539 176 521 125T471 43T399 1T316 -12ZM201
707L181 726L294 839H338L451 726L431 707L318 805H314L201 707Z" />
<glyph unicode="&#xdc;" glyph-name="Udieresis" horiz-adv-x="634" d="M316 -12Q274 -12 235 0T164 43T114 124T95 253V659H141V258Q141 171 165 121T230 51T316 30Q364 30 405 50T471 121T496 258V659H539V253Q539 176 521 125T471 43T399 1T316 -12ZM218 725Q202
725 192 735T182 761Q182 778 192 788T218 798Q234 798 244 788T255 761Q255 745 245 735T218 725ZM414 725Q398 725 388 735T377 761Q377 778 387 788T414 798Q430 798 440 788T450 761Q450 745 440 735T414 725Z" />
<glyph unicode="&#xdd;" glyph-name="Yacute" horiz-adv-x="447" d="M200 0V267L3 659H52L152 453Q169 417 186 382T222 310H226Q245 347 263 382T297 453L397 659H444L246 267V0H200ZM202 706L182 729L307 852L335 819L202 706Z" />
<glyph unicode="&#xde;" glyph-name="Thorn" horiz-adv-x="563" d="M97 0V659H143V542H277Q387 542 449 501T512 358Q512 261 450 214T277 166H143V0H97ZM143 205H266Q367 205 416 241T465 358Q465 441 416 472T266 503H143V205Z" />
<glyph unicode="&#xdf;" glyph-name="germandbls" horiz-adv-x="542" d="M367 -12Q328 -12 294 2T231 39L253 72Q282 49 308 38T367 26Q417 26 442 56T468 125Q468 160 453 182T414 219T364 247T313 275T274 314T259 373Q259 409 274 435T308 484T342 532T357
591Q357 635 333 663T262 691Q205 691 171 649T136 517V0H92V532Q92 624 139 676T263 729Q328 729 365 690T402 595Q402 556 387 529T353 478T318 431T303 377Q303 348 318 330T357 299T408 272T459 241T498 196T513 127Q513 88 494 57T443 7T367 -12Z" />
<glyph unicode="&#xe0;" glyph-name="agrave" horiz-adv-x="491" d="M197 -12Q140 -12 99 20T58 120Q58 200 133 241T368 301Q369 338 360 372T327 430T254 453Q206 453 166 434T101 397L81 430Q98 442 125 456T186 481T260 492Q317 492 350 467T397 401T412 307V0H374L370
62H367Q330 33 287 11T197 -12ZM205 26Q246 26 284 46T368 104V267Q269 255 211 236T128 189T103 122Q103 70 133 48T205 26ZM291 574L147 725L181 754L315 597L291 574Z" />
<glyph unicode="&#xe1;" glyph-name="aacute" horiz-adv-x="491" d="M197 -12Q140 -12 99 20T58 120Q58 200 133 241T368 301Q369 338 360 372T327 430T254 453Q206 453 166 434T101 397L81 430Q98 442 125 456T186 481T260 492Q317 492 350 467T397 401T412 307V0H374L370
62H367Q330 33 287 11T197 -12ZM205 26Q246 26 284 46T368 104V267Q269 255 211 236T128 189T103 122Q103 70 133 48T205 26ZM233 574L209 597L343 754L377 725L233 574Z" />
<glyph unicode="&#xe2;" glyph-name="acircumflex" horiz-adv-x="491" d="M197 -12Q140 -12 99 20T58 120Q58 200 133 241T368 301Q369 338 360 372T327 430T254 453Q206 453 166 434T101 397L81 430Q98 442 125 456T186 481T260 492Q317 492 350 467T397 401T412
307V0H374L370 62H367Q330 33 287 11T197 -12ZM205 26Q246 26 284 46T368 104V267Q269 255 211 236T128 189T103 122Q103 70 133 48T205 26ZM124 593L241 737H283L400 593L378 572L264 698H260L146 572L124 593Z" />
<glyph unicode="&#xe3;" glyph-name="atilde" horiz-adv-x="491" d="M197 -12Q140 -12 99 20T58 120Q58 200 133 241T368 301Q369 338 360 372T327 430T254 453Q206 453 166 434T101 397L81 430Q98 442 125 456T186 481T260 492Q317 492 350 467T397 401T412 307V0H374L370
62H367Q330 33 287 11T197 -12ZM205 26Q246 26 284 46T368 104V267Q269 255 211 236T128 189T103 122Q103 70 133 48T205 26ZM338 579Q310 579 290 593T254 627T223 660T186 675Q159 675 147 648T132 582L98 584Q100 616 108 644T136 691T187 710Q215 710 234 696T270
662T302 629T339 614Q365 614 377 642T392 707L426 705Q424 674 416 645T389 598T338 579Z" />
<glyph unicode="&#xe4;" glyph-name="adieresis" horiz-adv-x="491" d="M197 -12Q140 -12 99 20T58 120Q58 200 133 241T368 301Q369 338 360 372T327 430T254 453Q206 453 166 434T101 397L81 430Q98 442 125 456T186 481T260 492Q317 492 350 467T397 401T412
307V0H374L370 62H367Q330 33 287 11T197 -12ZM205 26Q246 26 284 46T368 104V267Q269 255 211 236T128 189T103 122Q103 70 133 48T205 26ZM173 598Q157 598 147 608T136 635Q136 651 146 661T173 672Q189 672 199 662T210 635Q210 619 200 609T173 598ZM351 598Q335
598 325 608T314 635Q314 651 324 661T351 672Q367 672 377 662T388 635Q388 619 378 609T351 598Z" />
<glyph unicode="&#xe5;" glyph-name="aring" horiz-adv-x="491" d="M197 -12Q140 -12 99 20T58 120Q58 200 133 241T368 301Q369 338 360 372T327 430T254 453Q206 453 166 434T101 397L81 430Q98 442 125 456T186 481T260 492Q317 492 350 467T397 401T412 307V0H374L370
62H367Q330 33 287 11T197 -12ZM205 26Q246 26 284 46T368 104V267Q269 255 211 236T128 189T103 122Q103 70 133 48T205 26ZM262 548Q220 548 193 574T165 643Q165 686 192 712T262 739Q304 739 331 713T359 643Q359 601 332 575T262 548ZM262 574Q289 574 308
593T327 643Q327 675 308 694T262 713Q235 713 216 694T197 643Q197 612 216 593T262 574Z" />
<glyph unicode="&#xe6;" glyph-name="ae" horiz-adv-x="784" d="M205 -12Q148 -12 107 20T65 119Q65 199 140 241T370 301Q371 338 362 372T329 430T257 453Q212 453 173 434T109 397L89 430Q106 442 132 456T192 481T261 492Q320 492 354 460T401 372Q427 427
471 459T568 492Q652 492 699 434T746 270Q746 261 746 252T744 234H412Q412 174 434 127T496 54T583 27Q622 27 651 39T708 70L727 35Q699 18 666 3T579 -12Q536 -12 504 2T449 40T407 87Q360 41 305 15T205 -12ZM212 26Q251 26 300 50T391 119Q381 141 376 173T370
240L369 267Q229 250 170 215T111 122Q111 70 141 48T212 26ZM412 268H705Q705 360 669 407T567 454Q528 454 495 431T439 365T412 268Z" />
<glyph unicode="&#xe7;" glyph-name="ccedilla" horiz-adv-x="449" d="M270 -12Q208 -12 159 17T81 103T52 239Q52 320 82 376T163 462T271 492Q321 492 354 474T412 433L386 402Q363 424 335 438T272 453Q223 453 184 426T121 351T98 239Q98 176 119 129T180
54T272 27Q310 27 342 43T400 82L423 51Q392 24 354 6T270 -12ZM192 -219L185 -189Q250 -184 274 -171T298 -136Q298 -114 280 -103T220 -85L261 2H296L266 -65Q298 -73 317 -88T337 -134Q337 -173 300 -193T192 -219Z" />
<glyph unicode="&#xe8;" glyph-name="egrave" horiz-adv-x="483" d="M274 -12Q213 -12 163 18T82 104T52 239Q52 318 82 374T160 461T261 492Q347 492 396 434T445 270Q445 261 445 252T442 234H97Q98 174 120 127T183 53T278 26Q317 26 348 38T407 69L425 35Q397
18 362 3T274 -12ZM97 270H403Q403 362 365 408T262 454Q221 454 186 432T126 369T97 270ZM290 574L146 725L180 754L314 597L290 574Z" />
<glyph unicode="&#xe9;" glyph-name="eacute" horiz-adv-x="483" d="M274 -12Q213 -12 163 18T82 104T52 239Q52 318 82 374T160 461T261 492Q347 492 396 434T445 270Q445 261 445 252T442 234H97Q98 174 120 127T183 53T278 26Q317 26 348 38T407 69L425 35Q397
18 362 3T274 -12ZM97 270H403Q403 362 365 408T262 454Q221 454 186 432T126 369T97 270ZM232 574L208 597L342 754L376 725L232 574Z" />
<glyph unicode="&#xea;" glyph-name="ecircumflex" horiz-adv-x="483" d="M274 -12Q213 -12 163 18T82 104T52 239Q52 318 82 374T160 461T261 492Q347 492 396 434T445 270Q445 261 445 252T442 234H97Q98 174 120 127T183 53T278 26Q317 26 348 38T407 69L425
35Q397 18 362 3T274 -12ZM97 270H403Q403 362 365 408T262 454Q221 454 186 432T126 369T97 270ZM123 593L240 737H282L399 593L377 572L263 698H259L145 572L123 593Z" />
<glyph unicode="&#xeb;" glyph-name="edieresis" horiz-adv-x="483" d="M274 -12Q213 -12 163 18T82 104T52 239Q52 318 82 374T160 461T261 492Q347 492 396 434T445 270Q445 261 445 252T442 234H97Q98 174 120 127T183 53T278 26Q317 26 348 38T407 69L425
35Q397 18 362 3T274 -12ZM97 270H403Q403 362 365 408T262 454Q221 454 186 432T126 369T97 270ZM172 598Q156 598 146 608T135 635Q135 651 145 661T172 672Q188 672 198 662T209 635Q209 619 199 609T172 598ZM350 598Q334 598 324 608T313 635Q313 651 323
661T350 672Q366 672 376 662T387 635Q387 619 377 609T350 598Z" />
<glyph unicode="&#xec;" glyph-name="igrave" horiz-adv-x="229" d="M92 0V480H136V0H92ZM144 574L0 725L34 754L168 597L144 574Z" />
<glyph unicode="&#xed;" glyph-name="iacute" horiz-adv-x="229" d="M92 0V480H136V0H92ZM86 574L62 597L196 754L230 725L86 574Z" />
<glyph unicode="&#xee;" glyph-name="icircumflex" horiz-adv-x="229" d="M92 0V480H136V0H92ZM-23 593L94 737H136L253 593L231 572L117 698H113L-1 572L-23 593Z" />
<glyph unicode="&#xef;" glyph-name="idieresis" horiz-adv-x="229" d="M92 0V480H136V0H92ZM26 598Q10 598 0 608T-11 635Q-11 651 -1 661T26 672Q42 672 52 662T63 635Q63 619 53 609T26 598ZM204 598Q188 598 178 608T167 635Q167 651 177 661T204 672Q220
672 230 662T241 635Q241 619 231 609T204 598Z" />
<glyph unicode="&#xf0;" glyph-name="eth" horiz-adv-x="535" d="M104 219Q104 163 126 120T185 52T267 27Q322 27 356 57T408 138T425 251Q425 283 422 313Q384 369 346 386T269 404Q215 404 179 379T123 311T104 219ZM267 -12Q214 -12 167 16T90 95T60 219Q60
285 86 335T159 413T267 442Q310 442 348 423T415 366Q402 440 372 493T299 588L157 514L142 542L274 610Q246 634 215 654T151 694L172 724Q209 705 244 682T311 629L453 703L468 676L335 607Q394 546 432 460T470 252Q470 172 444 113T373 21T267 -12Z" />
<glyph unicode="&#xf1;" glyph-name="ntilde" horiz-adv-x="532" d="M92 0V480H130L134 406H137Q174 443 213 467T302 492Q376 492 411 447T447 308V0H403V302Q403 379 378 415T293 452Q250 452 215 430T136 362V0H92ZM360 579Q332 579 312 593T276 627T245 660T208
675Q181 675 169 648T154 582L120 584Q122 616 130 644T158 691T209 710Q237 710 256 696T292 662T324 629T361 614Q387 614 399 642T414 707L448 705Q446 674 438 645T411 598T360 579Z" />
<glyph unicode="&#xf2;" glyph-name="ograve" horiz-adv-x="535" d="M267 -12Q210 -12 161 17T82 103T52 239Q52 320 82 376T161 462T267 492Q325 492 374 463T453 377T483 239Q483 160 453 104T374 18T267 -12ZM267 27Q316 27 354 54T414 128T437 239Q437 303
415 351T354 426T267 453Q219 453 181 426T120 351T98 239Q98 176 120 129T180 54T267 27ZM296 574L152 725L186 754L320 597L296 574Z" />
<glyph unicode="&#xf3;" glyph-name="oacute" horiz-adv-x="535" d="M267 -12Q210 -12 161 17T82 103T52 239Q52 320 82 376T161 462T267 492Q325 492 374 463T453 377T483 239Q483 160 453 104T374 18T267 -12ZM267 27Q316 27 354 54T414 128T437 239Q437 303
415 351T354 426T267 453Q219 453 181 426T120 351T98 239Q98 176 120 129T180 54T267 27ZM238 574L214 597L348 754L382 725L238 574Z" />
<glyph unicode="&#xf4;" glyph-name="ocircumflex" horiz-adv-x="535" d="M267 -12Q210 -12 161 17T82 103T52 239Q52 320 82 376T161 462T267 492Q325 492 374 463T453 377T483 239Q483 160 453 104T374 18T267 -12ZM267 27Q316 27 354 54T414 128T437 239Q437
303 415 351T354 426T267 453Q219 453 181 426T120 351T98 239Q98 176 120 129T180 54T267 27ZM129 593L246 737H288L405 593L383 572L269 698H265L151 572L129 593Z" />
<glyph unicode="&#xf5;" glyph-name="otilde" horiz-adv-x="535" d="M267 -12Q210 -12 161 17T82 103T52 239Q52 320 82 376T161 462T267 492Q325 492 374 463T453 377T483 239Q483 160 453 104T374 18T267 -12ZM267 27Q316 27 354 54T414 128T437 239Q437 303
415 351T354 426T267 453Q219 453 181 426T120 351T98 239Q98 176 120 129T180 54T267 27ZM343 579Q315 579 295 593T259 627T228 660T191 675Q164 675 152 648T137 582L103 584Q105 616 113 644T141 691T192 710Q220 710 239 696T275 662T307 629T344 614Q370
614 382 642T397 707L431 705Q429 674 421 645T394 598T343 579Z" />
<glyph unicode="&#xf6;" glyph-name="odieresis" horiz-adv-x="535" d="M267 -12Q210 -12 161 17T82 103T52 239Q52 320 82 376T161 462T267 492Q325 492 374 463T453 377T483 239Q483 160 453 104T374 18T267 -12ZM267 27Q316 27 354 54T414 128T437 239Q437
303 415 351T354 426T267 453Q219 453 181 426T120 351T98 239Q98 176 120 129T180 54T267 27ZM178 598Q162 598 152 608T141 635Q141 651 151 661T178 672Q194 672 204 662T215 635Q215 619 205 609T178 598ZM356 598Q340 598 330 608T319 635Q319 651 329 661T356
672Q372 672 382 662T393 635Q393 619 383 609T356 598Z" />
<glyph unicode="&#xf7;" glyph-name="divide" horiz-adv-x="479" d="M34 311V349H445V311H34ZM239 109Q223 109 212 120T201 150Q201 167 212 178T239 189Q256 189 266 178T277 150Q277 131 267 120T239 109ZM239 469Q223 469 212 480T201 510Q201 527 212 538T239
549Q256 549 266 538T277 510Q277 491 267 480T239 469Z" />
<glyph unicode="&#xf8;" glyph-name="oslash" horiz-adv-x="535" d="M97 240Q97 159 133 103L382 403Q336 454 267 454Q219 454 181 427T120 352T97 240ZM72 -22L46 -1L104 69Q80 101 66 143T52 239Q52 320 82 376T161 462T267 492Q350 492 409 436L463 501L489
480L431 411Q455 379 469 336T483 239Q483 160 453 104T374 18T267 -12Q185 -12 126 44L72 -22ZM267 26Q316 26 354 53T415 127T438 238Q438 320 402 376L153 76Q200 26 267 26Z" />
<glyph unicode="&#xf9;" glyph-name="ugrave" horiz-adv-x="529" d="M230 -12Q156 -12 121 33T85 172V480H129V178Q129 102 154 65T238 28Q281 28 316 51T393 126V480H437V0H400L395 80H393Q358 39 319 14T230 -12ZM292 574L148 725L182 754L316 597L292 574Z" />
<glyph unicode="&#xfa;" glyph-name="uacute" horiz-adv-x="529" d="M230 -12Q156 -12 121 33T85 172V480H129V178Q129 102 154 65T238 28Q281 28 316 51T393 126V480H437V0H400L395 80H393Q358 39 319 14T230 -12ZM234 574L210 597L344 754L378 725L234 574Z" />
<glyph unicode="&#xfb;" glyph-name="ucircumflex" horiz-adv-x="529" d="M230 -12Q156 -12 121 33T85 172V480H129V178Q129 102 154 65T238 28Q281 28 316 51T393 126V480H437V0H400L395 80H393Q358 39 319 14T230 -12ZM125 593L242 737H284L401 593L379 572L265
698H261L147 572L125 593Z" />
<glyph unicode="&#xfc;" glyph-name="udieresis" horiz-adv-x="529" d="M230 -12Q156 -12 121 33T85 172V480H129V178Q129 102 154 65T238 28Q281 28 316 51T393 126V480H437V0H400L395 80H393Q358 39 319 14T230 -12ZM174 598Q158 598 148 608T137 635Q137 651
147 661T174 672Q190 672 200 662T211 635Q211 619 201 609T174 598ZM352 598Q336 598 326 608T315 635Q315 651 325 661T352 672Q368 672 378 662T389 635Q389 619 379 609T352 598Z" />
<glyph unicode="&#xfd;" glyph-name="yacute" horiz-adv-x="436" d="M73 -219Q46 -219 24 -209L34 -170Q42 -173 52 -175T73 -178Q117 -178 147 -142T196 -51L209 -9L12 480H60L176 178Q187 148 201 112T228 44H232Q243 76 254 112T276 178L379 480H424L234 -60Q221
-100 200 -136T147 -196T73 -219ZM200 574L176 597L310 754L344 725L200 574Z" />
<glyph unicode="&#xfe;" glyph-name="thorn" horiz-adv-x="544" d="M92 -217V719H136V421Q172 449 213 470T299 492Q396 492 444 426T492 247Q492 166 463 108T385 19T280 -12Q246 -12 210 3T136 46V-217H92ZM278 27Q327 27 364 55T423 132T445 247Q445 306 430
352T382 426T293 453Q257 453 219 433T136 374V89Q177 55 213 41T278 27Z" />
<glyph unicode="&#xff;" glyph-name="ydieresis" horiz-adv-x="436" d="M73 -219Q46 -219 24 -209L34 -170Q42 -173 52 -175T73 -178Q117 -178 147 -142T196 -51L209 -9L12 480H60L176 178Q187 148 201 112T228 44H232Q243 76 254 112T276 178L379 480H424L234
-60Q221 -100 200 -136T147 -196T73 -219ZM140 598Q124 598 114 608T103 635Q103 651 113 661T140 672Q156 672 166 662T177 635Q177 619 167 609T140 598ZM318 598Q302 598 292 608T281 635Q281 651 291 661T318 672Q334 672 344 662T355 635Q355 619 345 609T318
598Z" />
<glyph unicode="&#x2013;" glyph-name="endash" horiz-adv-x="480" d="M40 232V268H440V232H40Z" />
<glyph unicode="&#x2014;" glyph-name="emdash" horiz-adv-x="800" d="M40 232V268H760V232H40Z" />
<glyph unicode="&#x2018;" glyph-name="quoteleft" horiz-adv-x="219" d="M102 480Q83 480 71 497T58 547Q58 600 80 638T143 703L161 680Q128 653 111 626T94 556Q96 557 102 557Q117 557 129 548T142 520Q142 501 131 491T102 480Z" />
<glyph unicode="&#x2019;" glyph-name="quoteright" horiz-adv-x="219" d="M76 477L58 500Q91 527 108 554T125 624Q123 623 117 623Q103 623 91 632T78 660Q78 679 89 689T117 700Q137 700 149 683T162 633Q162 580 140 542T76 477Z" />
<glyph unicode="&#x201a;" glyph-name="quotesinglbase" horiz-adv-x="219" d="M76 -131L58 -108Q91 -81 108 -54T125 16Q123 15 117 15Q103 15 91 24T78 52Q78 71 89 81T117 92Q137 92 149 75T162 25Q162 -28 140 -66T76 -131Z" />
<glyph unicode="&#x201c;" glyph-name="quotedblleft" horiz-adv-x="360" d="M102 480Q83 480 71 497T58 547Q58 600 80 638T143 703L161 680Q128 653 111 626T94 556Q96 557 102 557Q117 557 129 548T142 520Q142 501 131 491T102 480ZM243 480Q224 480 212 497T199
547Q199 600 221 638T284 703L302 680Q269 653 252 626T235 556Q237 557 243 557Q258 557 270 548T283 520Q283 501 272 491T243 480Z" />
<glyph unicode="&#x201d;" glyph-name="quotedblright" horiz-adv-x="360" d="M76 477L58 500Q91 527 108 554T125 624Q123 623 117 623Q103 623 91 632T78 660Q78 679 89 689T117 700Q137 700 149 683T162 633Q162 580 140 542T76 477ZM217 477L199 500Q232 527
249 554T266 624Q264 623 258 623Q244 623 232 632T219 660Q219 679 230 689T258 700Q278 700 290 683T303 633Q303 580 281 542T217 477Z" />
<glyph unicode="&#x201e;" glyph-name="quotedblbase" horiz-adv-x="360" d="M76 -131L58 -108Q91 -81 108 -54T125 16Q123 15 117 15Q103 15 91 24T78 52Q78 71 89 81T117 92Q137 92 149 75T162 25Q162 -28 140 -66T76 -131ZM217 -131L199 -108Q232 -81 249 -54T266
16Q264 15 258 15Q244 15 232 24T219 52Q219 71 230 81T258 92Q278 92 290 75T303 25Q303 -28 281 -66T217 -131Z" />
<glyph unicode="&#x2022;" glyph-name="bullet" horiz-adv-x="281" d="M140 154Q102 154 71 183T40 264Q40 314 71 344T140 374Q179 374 210 344T241 264Q241 213 210 184T140 154Z" />
<glyph unicode="&#x2039;" glyph-name="guilsinglleft" horiz-adv-x="259" d="M180 72L43 233V271L180 432L205 411L82 252L205 91L180 72Z" />
<glyph unicode="&#x203a;" glyph-name="guilsinglright" horiz-adv-x="259" d="M78 72L54 91L176 252L54 411L78 432L216 271V233L78 72Z" />
</font>
</defs>
</svg>
