<?xml version="1.0" standalone="no"?>
<!DOCTYPE svg PUBLIC "-//W3C//DTD SVG 1.1//EN" "http://www.w3.org/Graphics/SVG/1.1/DTD/svg11.dtd">
<svg xmlns="http://www.w3.org/2000/svg">
<defs >
<font id="SourceSansPro" horiz-adv-x="554" ><font-face
    font-family="Source Sans Pro"
    units-per-em="1000"
    panose-1="2 11 7 3 3 4 3 2 2 4"
    ascent="984"
    descent="-273"
    alphabetic="0" />
<glyph unicode=" " glyph-name="space" horiz-adv-x="200" />
<glyph unicode="!" glyph-name="exclam" horiz-adv-x="340" d="M122 231L101 537L96 670H244L239 537L218 231H122ZM170 -12Q132 -12 107 14T81 80Q81 120 106 146T170 173Q208 173 233 147T259 80Q259 41 234 15T170 -12Z" />
<glyph unicode="&quot;" glyph-name="quotedbl" horiz-adv-x="537" d="M110 354L81 553L76 686H224L219 553L190 354H110ZM347 354L318 553L313 686H461L456 553L427 354H347Z" />
<glyph unicode="#" glyph-name="numbersign" horiz-adv-x="528" d="M86 0L108 187H34V281H119L133 391H54V485H145L166 650H250L230 485H334L355 650H439L419 485H498V391H407L394 281H478V187H383L360 0H275L297 187H194L171 0H86ZM205 281H308L322 391H218L205 281Z" />
<glyph unicode="$" glyph-name="dollar" horiz-adv-x="528" d="M215 -110V-10Q171 -5 123 14T39 66L103 165Q141 137 175 122T246 107Q327 107 327 176Q327 202 308 220T259 255T195 288T131 327T82 380T63 457Q63 531 104 579T215 642V745H312V644Q360 637 396
615T461 562L387 478Q360 503 335 515T278 528Q242 528 223 513T204 464Q204 440 223 424T272 392T336 361T400 322T449 267T468 186Q468 114 429 63T312 -6V-110H215Z" />
<glyph unicode="%" glyph-name="percent" horiz-adv-x="857" d="M188 250Q118 250 72 305T26 458Q26 556 72 610T188 664Q259 664 305 610T351 458Q351 360 305 305T188 250ZM188 332Q213 332 230 360T248 458Q248 528 231 555T188 582Q163 582 146 555T128 458Q128
388 145 360T188 332ZM210 -12L562 664H647L295 -12H210ZM669 -12Q599 -12 553 43T507 196Q507 294 553 348T669 402Q740 402 786 348T832 196Q832 98 786 43T669 -12ZM669 70Q694 70 711 98T729 196Q729 266 712 293T669 320Q644 320 627 293T609 196Q609 126
626 98T669 70Z" />
<glyph unicode="&amp;" glyph-name="ampersand" horiz-adv-x="667" d="M225 494Q225 476 230 456T246 416Q281 437 305 460T329 516Q329 539 318 553T284 567Q259 567 242 548T225 494ZM242 -12Q171 -12 123 13T50 81T25 174Q25 242 60 284T144 358Q125 393 115
427T104 493Q104 540 125 578T187 640T281 664Q355 664 398 624T441 516Q441 474 421 441T370 381T305 331Q333 299 366 269T436 212Q461 244 480 283T511 368H645Q627 309 601 254T536 148Q567 132 595 122T649 107L614 -12Q574 -4 532 13T447 54Q406 23 355 6T242
-12ZM164 183Q164 146 191 123T261 100Q302 100 343 126Q306 157 272 191T208 261Q189 244 177 225T164 183Z" />
<glyph unicode="&apos;" glyph-name="quotesingle" horiz-adv-x="300" d="M110 354L81 553L76 686H224L219 553L190 354H110Z" />
<glyph unicode="(" glyph-name="parenleft" horiz-adv-x="344" d="M204 -179Q141 -76 107 35T72 278Q72 410 106 521T204 735L296 697Q241 600 216 493T191 278Q191 172 216 65T296 -141L204 -179Z" />
<glyph unicode=")" glyph-name="parenright" horiz-adv-x="344" d="M140 -179L48 -141Q104 -43 129 64T154 278Q154 385 129 492T48 697L140 735Q203 632 237 521T272 278Q272 146 238 35T140 -179Z" />
<glyph unicode="*" glyph-name="asterisk" horiz-adv-x="457" d="M148 349L87 393L146 497L38 546L61 618L177 594L190 712H267L280 593L395 618L419 546L311 497L370 393L309 349L229 438L148 349Z" />
<glyph unicode="+" glyph-name="plus" horiz-adv-x="528" d="M210 94V278H34V382H210V566H318V382H494V278H318V94H210Z" />
<glyph unicode="," glyph-name="comma" horiz-adv-x="300" d="M76 -194L46 -116Q102 -96 131 -64T159 6Q157 6 155 6T151 6Q116 6 89 27T62 89Q62 127 89 150T154 173Q204 173 230 136T256 34Q256 -48 210 -108T76 -194Z" />
<glyph unicode="-" glyph-name="hyphen" horiz-adv-x="332" d="M43 201V305H289V201H43Z" />
<glyph unicode="." glyph-name="period" horiz-adv-x="300" d="M150 -12Q112 -12 87 14T61 80Q61 120 86 146T150 173Q188 173 213 147T239 80Q239 41 214 15T150 -12Z" />
<glyph unicode="/" glyph-name="slash" horiz-adv-x="339" d="M13 -160L214 710H310L109 -160H13Z" />
<glyph unicode="0" glyph-name="zero" horiz-adv-x="528" d="M264 -12Q162 -12 100 73T37 320Q37 482 99 564T264 647Q366 647 428 565T491 320Q491 158 429 73T264 -12ZM264 102Q289 102 309 120T340 186T352 320Q352 407 341 453T309 516T264 533Q240 533 220
516T188 453T176 320Q176 233 188 186T220 121T264 102Z" />
<glyph unicode="1" glyph-name="one" horiz-adv-x="528" d="M70 0V119H208V486H89V577Q141 587 177 601T247 635H355V119H474V0H70Z" />
<glyph unicode="2" glyph-name="two" horiz-adv-x="528" d="M37 0V84Q118 161 180 223T278 338T313 436Q313 483 289 507T223 532Q189 532 162 513T110 467L30 546Q77 596 126 621T243 647Q306 647 353 622T426 552T453 445Q453 392 424 337T348 226T250 116Q274
119 304 121T356 124H484V0H37Z" />
<glyph unicode="3" glyph-name="three" horiz-adv-x="528" d="M243 -12Q166 -12 112 13T22 78L90 171Q119 143 154 125T229 107Q276 107 304 126T332 182Q332 210 318 230T267 262T161 273V377Q247 377 279 400T311 462Q311 495 291 513T233 532Q199 532 172 517T114
476L40 566Q84 604 133 625T240 647Q338 647 398 602T459 473Q459 424 432 389T353 332V328Q408 312 443 274T479 173Q479 114 447 73T361 10T243 -12Z" />
<glyph unicode="4" glyph-name="four" horiz-adv-x="528" d="M160 264H294V367Q294 398 296 438T300 509H296Q284 483 271 456T244 402L160 264ZM294 0V152H19V253L251 635H431V264H504V152H431V0H294Z" />
<glyph unicode="5" glyph-name="five" horiz-adv-x="528" d="M247 -12Q169 -12 115 14T23 77L89 170Q118 144 152 126T226 107Q275 107 304 132T333 206Q333 254 305 279T233 304Q205 304 187 297T139 272L73 314L91 635H451V511H218L207 392Q240 407 278 407Q333
407 378 386T452 322T480 210Q480 140 448 90T362 14T247 -12Z" />
<glyph unicode="6" glyph-name="six" horiz-adv-x="528" d="M275 293Q250 293 225 279T179 230Q189 155 217 127T278 98Q311 98 334 122T358 201Q358 251 335 272T275 293ZM281 -12Q220 -12 165 20T76 122T41 303Q41 422 77 498T172 610T298 647Q361 647 407 625T483
571L406 483Q390 501 363 514T307 528Q272 528 243 510T197 448T176 330Q201 362 237 379T303 397Q385 397 438 350T492 201Q492 135 463 88T387 14T281 -12Z" />
<glyph unicode="7" glyph-name="seven" horiz-adv-x="528" d="M159 0Q165 106 182 190T234 351T329 511H44V635H486V545Q431 478 398 419T346 299T319 165T307 0H159Z" />
<glyph unicode="8" glyph-name="eight" horiz-adv-x="528" d="M263 -12Q200 -12 150 10T71 71T42 162Q42 220 73 257T150 318V322Q113 350 89 386T65 472Q65 526 91 565T163 626T268 647Q355 647 408 600T461 473Q461 427 436 392T378 334V330Q424 305 456 266T488
164Q488 114 460 74T382 11T263 -12ZM303 370Q342 415 342 463Q342 500 322 522T265 545Q236 545 215 527T194 472Q194 433 224 411T303 370ZM266 90Q303 90 327 109T351 169Q351 197 334 215T287 248T217 280Q196 261 182 235T168 179Q168 137 197 114T266 90Z"
/>
<glyph unicode="9" glyph-name="nine" horiz-adv-x="528" d="M168 434Q168 384 192 363T252 342Q277 342 302 356T347 405Q337 480 310 508T248 537Q216 537 192 513T168 434ZM229 -12Q166 -12 120 11T43 64L121 152Q137 134 164 121T219 107Q255 107 283 125T330
187T350 305Q325 274 289 256T223 238Q169 238 127 259T59 323T34 434Q34 500 63 548T140 621T245 647Q307 647 362 615T451 513T486 332Q486 214 450 138T355 25T229 -12Z" />
<glyph unicode=":" glyph-name="colon" horiz-adv-x="300" d="M150 312Q112 312 87 338T61 404Q61 444 86 470T150 497Q188 497 213 471T239 404Q239 365 214 339T150 312ZM150 -12Q112 -12 87 14T61 80Q61 120 86 146T150 173Q188 173 213 147T239 80Q239 41
214 15T150 -12Z" />
<glyph unicode=";" glyph-name="semicolon" horiz-adv-x="300" d="M150 312Q112 312 87 338T61 404Q61 444 86 470T150 497Q188 497 213 471T239 404Q239 365 214 339T150 312ZM76 -194L46 -116Q102 -96 131 -64T159 6Q157 6 155 6T151 6Q116 6 89 27T62 89Q62
127 89 150T154 173Q204 173 230 136T256 34Q256 -48 210 -108T76 -194Z" />
<glyph unicode="&lt;" glyph-name="less" horiz-adv-x="528" d="M494 104L34 281V383L494 560V439L318 381L183 334V330L318 283L494 225V104Z" />
<glyph unicode="=" glyph-name="equal" horiz-adv-x="528" d="M34 394V498H494V394H34ZM34 418V522H494V418H34Z" />
<glyph unicode="&gt;" glyph-name="greater" horiz-adv-x="528" d="M34 104V225L210 283L345 330V334L210 381L34 439V560L494 383V281L34 104Z" />
<glyph unicode="?" glyph-name="question" horiz-adv-x="463" d="M154 231Q148 272 159 304T189 363T230 412T265 456T280 500Q280 531 262 547T213 563Q185 563 164 550T122 517L41 591Q76 632 125 657T232 682Q286 682 328 664T396 608T421 511Q421 474 406
446T369 393T326 346T292 295T283 231H154ZM218 -12Q180 -12 155 14T130 80Q130 120 155 146T218 173Q256 173 281 147T307 80Q307 41 282 15T218 -12Z" />
<glyph unicode="@" glyph-name="at" horiz-adv-x="903" d="M428 -172Q353 -172 285 -149T164 -79T80 38T49 205Q49 310 84 395T182 542T326 636T500 669Q608 669 687 624T810 498T854 313Q854 244 834 193T780 107T706 55T626 38Q583 38 551 58T511 114H509Q488
85 454 67T389 48Q330 48 294 88T257 198Q257 244 272 287T314 366T379 422T459 443Q484 443 503 432T535 393H537L551 435H642L596 215Q575 129 642 129Q672 129 699 151T744 213T761 309Q761 381 734 442T646 542T488 580Q424 580 363 554T254 479T177 362T148
209Q148 111 188 46T295 -51T440 -83Q479 -83 520 -72T592 -44L624 -124Q578 -149 530 -160T428 -172ZM420 140Q436 140 451 150T486 185L510 320Q495 349 464 349Q434 349 413 326T380 270T368 207Q368 140 420 140Z" />
<glyph unicode="A" glyph-name="A" horiz-adv-x="573" d="M230 330L214 270H353L338 330Q325 379 312 434T285 540H281Q269 488 257 434T230 330ZM-6 0L198 652H375L579 0H423L383 155H184L144 0H-6Z" />
<glyph unicode="B" glyph-name="B" horiz-adv-x="605" d="M77 0V652H300Q368 652 422 638T508 588T540 490Q540 447 518 406T455 349V345Q505 332 538 295T572 192Q572 125 538 83T447 21T319 0H77ZM224 391H293Q347 391 371 412T396 468Q396 506 371 522T294
538H224V391ZM224 114H307Q428 114 428 202Q428 245 398 263T307 282H224V114Z" />
<glyph unicode="C" glyph-name="C" horiz-adv-x="582" d="M349 -12Q267 -12 198 26T88 138T46 322Q46 430 88 506T201 623T354 664Q417 664 467 639T550 579L472 485Q447 508 420 522T357 537Q313 537 277 512T219 440T197 327Q197 227 240 171T355 115Q395 115
426 133T482 176L560 84Q478 -12 349 -12Z" />
<glyph unicode="D" glyph-name="D" horiz-adv-x="635" d="M77 0V652H261Q361 652 434 618T547 513T588 329Q588 217 548 144T437 36T269 0H77ZM224 119H252Q308 119 349 139T414 205T437 329Q437 407 414 451T350 514T252 533H224V119Z" />
<glyph unicode="E" glyph-name="E" horiz-adv-x="548" d="M77 0V652H485V528H224V397H446V274H224V124H495V0H77Z" />
<glyph unicode="F" glyph-name="F" horiz-adv-x="524" d="M77 0V652H488V528H224V377H450V253H224V0H77Z" />
<glyph unicode="G" glyph-name="G" horiz-adv-x="638" d="M365 -12Q276 -12 204 26T89 138T46 322Q46 430 89 506T205 623T364 664Q435 664 486 638T569 579L492 485Q467 507 439 522T369 537Q293 537 245 481T197 327Q197 227 243 171T380 115Q400 115 419 120T450
135V247H342V367H580V67Q546 34 490 11T365 -12Z" />
<glyph unicode="H" glyph-name="H" horiz-adv-x="674" d="M77 0V652H224V401H449V652H597V0H449V272H224V0H77Z" />
<glyph unicode="I" glyph-name="I" horiz-adv-x="301" d="M77 0V652H224V0H77Z" />
<glyph unicode="J" glyph-name="J" horiz-adv-x="509" d="M226 -12Q152 -12 101 17T16 106L116 180Q134 147 158 131T207 115Q247 115 267 139T288 229V652H435V217Q435 154 413 102T345 19T226 -12Z" />
<glyph unicode="K" glyph-name="K" horiz-adv-x="614" d="M77 0V652H224V385H228L422 652H584L387 392L620 0H459L300 275L224 175V0H77Z" />
<glyph unicode="L" glyph-name="L" horiz-adv-x="518" d="M77 0V652H224V124H482V0H77Z" />
<glyph unicode="M" glyph-name="M" horiz-adv-x="762" d="M77 0V652H238L343 362Q353 334 362 303T381 242H385Q395 272 403 303T422 362L525 652H685V0H551V239Q551 271 554 310T562 390T570 461H566L513 306L420 57H339L246 306L194 461H190Q194 430 198 390T205
311T209 239V0H77Z" />
<glyph unicode="N" glyph-name="N" horiz-adv-x="665" d="M77 0V652H228L398 328L462 184H466Q462 236 455 300T448 422V652H588V0H437L267 325L203 467H199Q204 413 210 351T217 231V0H77Z" />
<glyph unicode="O" glyph-name="O" horiz-adv-x="684" d="M342 -12Q254 -12 188 29T84 146T46 329Q46 436 83 510T187 624T342 664Q430 664 496 625T600 510T638 329Q638 223 601 147T497 29T342 -12ZM342 115Q409 115 448 173T487 329Q487 427 448 482T342 537Q275
537 236 482T197 329Q197 231 236 173T342 115Z" />
<glyph unicode="P" glyph-name="P" horiz-adv-x="596" d="M77 0V652H301Q373 652 431 633T525 567T560 442Q560 366 525 317T432 245T305 221H224V0H77ZM224 338H296Q416 338 416 442Q416 493 384 514T292 535H224V338Z" />
<glyph unicode="Q" glyph-name="Q" horiz-adv-x="684" d="M342 108Q409 108 448 166T487 329Q487 427 448 482T342 537Q275 537 236 482T197 329Q197 225 236 167T342 108ZM557 -182Q454 -182 382 -132T275 -5Q171 17 109 104T46 329Q46 436 83 510T187 624T342
664Q430 664 496 625T600 510T638 329Q638 198 582 113T431 0Q454 -34 493 -49T574 -64Q595 -64 613 -61T646 -53L672 -160Q654 -169 625 -175T557 -182Z" />
<glyph unicode="R" glyph-name="R" horiz-adv-x="613" d="M77 0V652H312Q381 652 438 634T529 571T563 449Q563 377 532 331T447 261L595 0H430L305 235H224V0H77ZM224 352H300Q358 352 388 376T419 449Q419 497 389 516T300 535H224V352Z" />
<glyph unicode="S" glyph-name="S" horiz-adv-x="556" d="M276 -12Q212 -12 149 12T35 82L119 183Q154 153 197 134T280 115Q326 115 348 132T371 178Q371 209 346 223T277 256L192 292Q159 306 129 329T80 388T61 470Q61 524 90 568T172 638T293 664Q349 664
405 642T503 578L428 485Q396 510 364 523T293 537Q255 537 233 522T210 478Q210 448 238 433T309 401L393 367Q452 343 487 301T522 190Q522 136 493 90T409 16T276 -12Z" />
<glyph unicode="T" glyph-name="T" horiz-adv-x="556" d="M204 0V528H25V652H531V528H352V0H204Z" />
<glyph unicode="U" glyph-name="U" horiz-adv-x="665" d="M334 -12Q207 -12 140 63T73 302V652H221V287Q221 191 250 153T334 115Q389 115 419 153T449 287V652H591V302Q591 138 526 63T334 -12Z" />
<glyph unicode="V" glyph-name="V" horiz-adv-x="556" d="M190 0L-7 652H149L227 348Q242 295 253 244T280 139H284Q298 193 310 244T336 348L413 652H563L367 0H190Z" />
<glyph unicode="W" glyph-name="W" horiz-adv-x="813" d="M135 0L14 652H165L210 347Q216 296 223 245T236 141H240Q250 193 259 244T279 347L349 652H474L544 347Q554 298 563 246T583 141H587Q594 194 600 245T614 347L659 652H800L684 0H499L435 296Q427 334
421 372T409 447H405Q399 411 393 373T378 296L317 0H135Z" />
<glyph unicode="X" glyph-name="X" horiz-adv-x="567" d="M11 0L192 335L22 652H186L243 529Q254 507 265 481T290 424H294Q305 455 315 481T336 529L388 652H545L376 328L556 0H392L327 133Q315 159 304 184T278 240H274Q263 210 252 185T230 133L169 0H11Z" />
<glyph unicode="Y" glyph-name="Y" horiz-adv-x="525" d="M189 0V232L-8 652H150L208 502Q222 465 235 431T261 358H265Q279 396 293 430T320 502L379 652H533L336 232V0H189Z" />
<glyph unicode="Z" glyph-name="Z" horiz-adv-x="541" d="M36 0V89L324 528H63V652H505V563L217 124H508V0H36Z" />
<glyph unicode="[" glyph-name="bracketleft" horiz-adv-x="344" d="M87 -152V708H298V630H197V-74H298V-152H87Z" />
<glyph unicode="\" glyph-name="backslash" horiz-adv-x="339" d="M230 -160L28 710H124L326 -160H230Z" />
<glyph unicode="]" glyph-name="bracketright" horiz-adv-x="344" d="M46 -152V-74H148V630H46V708H257V-152H46Z" />
<glyph unicode="^" glyph-name="asciicircum" horiz-adv-x="528" d="M50 274L205 670H323L478 274H357L311 402L266 537H262L217 402L171 274H50Z" />
<glyph unicode="_" glyph-name="underscore" horiz-adv-x="500" d="M12 -140V-57H488V-140H12Z" />
<glyph unicode="`" glyph-name="grave" horiz-adv-x="555" d="M268 572L87 729L186 826L340 644L268 572Z" />
<glyph unicode="a" glyph-name="a" horiz-adv-x="527" d="M190 -12Q122 -12 82 31T42 138Q42 216 108 260T321 319Q319 352 302 371T243 391Q212 391 180 379T112 346L59 443Q106 472 159 490T271 508Q366 508 417 453T468 284V0H348L338 51H334Q303 23 268 6T190
-12ZM240 102Q265 102 283 113T321 144V231Q243 221 213 200T183 149Q183 125 198 114T240 102Z" />
<glyph unicode="b" glyph-name="b" horiz-adv-x="573" d="M325 -12Q292 -12 259 4T196 53H192L180 0H65V701H212V529L208 453Q237 479 271 493T339 508Q399 508 443 477T510 390T534 257Q534 172 504 112T427 20T325 -12ZM291 108Q329 108 356 143T383 254Q383
388 297 388Q253 388 212 343V140Q232 122 252 115T291 108Z" />
<glyph unicode="c" glyph-name="c" horiz-adv-x="467" d="M281 -12Q212 -12 157 18T69 107T36 248Q36 331 72 389T167 477T294 508Q340 508 375 493T439 455L370 360Q335 389 303 389Q250 389 219 351T187 248Q187 184 218 146T298 107Q322 107 345 117T387 143L445
47Q408 15 365 2T281 -12Z" />
<glyph unicode="d" glyph-name="d" horiz-adv-x="573" d="M242 -12Q150 -12 95 57T39 248Q39 329 68 387T145 477T245 508Q286 508 314 494T367 456L361 532V701H508V0H388L378 49H374Q348 23 313 6T242 -12ZM280 108Q304 108 323 118T361 153V356Q342 374 321
381T279 388Q244 388 217 355T190 250Q190 177 213 143T280 108Z" />
<glyph unicode="e" glyph-name="e" horiz-adv-x="518" d="M287 -12Q216 -12 159 19T69 108T36 248Q36 329 69 387T157 476T270 508Q341 508 387 477T457 392T481 270Q481 251 479 233T475 205H178Q188 151 223 126T307 100Q360 100 414 133L463 44Q425 18 378
3T287 -12ZM177 302H356Q356 343 337 369T273 396Q239 396 212 373T177 302Z" />
<glyph unicode="f" glyph-name="f" horiz-adv-x="341" d="M90 0V381H24V490L90 495V522Q90 575 108 618T166 687T273 713Q304 713 330 707T372 695L345 587Q332 592 319 594T294 597Q267 597 252 581T237 526V496H326V381H237V0H90Z" />
<glyph unicode="g" glyph-name="g" horiz-adv-x="534" d="M242 -211Q184 -211 137 -198T62 -157T34 -85Q34 -25 105 15V19Q86 32 73 52T59 103Q59 130 75 155T115 196V200Q89 218 69 252T48 329Q48 389 77 428T153 488T253 508Q297 508 330 496H511V389H432Q439
378 443 361T448 324Q448 267 422 230T352 175T253 157Q224 157 193 167Q175 152 175 130Q175 111 192 102T250 93H330Q422 93 470 64T519 -33Q519 -84 485 -124T389 -188T242 -211ZM253 246Q282 246 301 267T321 329Q321 368 302 388T253 409Q224 409 205 389T185
329Q185 288 204 267T253 246ZM265 -119Q315 -119 347 -101T379 -58Q379 -35 360 -27T303 -19H252Q227 -19 211 -18T182 -13Q155 -37 155 -62Q155 -90 185 -104T265 -119Z" />
<glyph unicode="h" glyph-name="h" horiz-adv-x="571" d="M65 0V701H212V529L205 440Q233 465 270 486T358 508Q439 508 475 455T512 308V0H365V289Q365 343 351 363T304 383Q276 383 256 371T212 335V0H65Z" />
<glyph unicode="i" glyph-name="i" horiz-adv-x="276" d="M65 0V496H212V0H65ZM138 569Q101 569 78 590T55 646Q55 681 78 702T138 723Q175 723 198 702T221 646Q221 611 198 590T138 569Z" />
<glyph unicode="j" glyph-name="j" horiz-adv-x="278" d="M36 -196Q5 -196 -15 -192T-51 -182L-25 -74Q-15 -77 -6 -79T14 -81Q43 -81 54 -62T66 -1V496H213V3Q213 -51 197 -96T143 -168T36 -196ZM140 569Q103 569 80 590T57 646Q57 681 80 702T140 723Q177 723
200 702T223 646Q223 611 200 590T140 569Z" />
<glyph unicode="k" glyph-name="k" horiz-adv-x="548" d="M65 0V701H208V299H212L369 496H529L355 292L542 0H383L271 193L208 122V0H65Z" />
<glyph unicode="l" glyph-name="l" horiz-adv-x="286" d="M200 -12Q124 -12 95 33T65 154V701H212V148Q212 125 220 116T238 107Q243 107 246 107T256 109L274 0Q262 -5 244 -8T200 -12Z" />
<glyph unicode="m" glyph-name="m" horiz-adv-x="857" d="M65 0V496H185L195 432H199Q230 463 265 485T349 508Q402 508 434 487T486 425Q519 459 556 483T642 508Q722 508 759 455T797 308V0H650V289Q650 343 636 363T589 383Q552 383 504 335V0H357V289Q357
343 343 363T296 383Q259 383 212 335V0H65Z" />
<glyph unicode="n" glyph-name="n" horiz-adv-x="572" d="M65 0V496H185L195 433H199Q231 463 269 485T358 508Q439 508 475 455T512 308V0H365V289Q365 343 351 363T304 383Q276 383 256 371T212 335V0H65Z" />
<glyph unicode="o" glyph-name="o" horiz-adv-x="555" d="M278 -12Q215 -12 160 18T70 107T36 248Q36 331 70 389T159 477T278 508Q341 508 396 478T485 389T519 248Q519 166 485 108T396 19T278 -12ZM278 107Q323 107 346 145T369 248Q369 313 346 351T278 389Q232
389 210 351T187 248Q187 184 209 146T278 107Z" />
<glyph unicode="p" glyph-name="p" horiz-adv-x="573" d="M65 -184V496H185L195 447H199Q228 473 264 490T340 508Q430 508 482 440T534 256Q534 171 504 111T427 20T325 -12Q293 -12 263 1T207 40L212 -39V-184H65ZM291 108Q329 108 356 143T383 254Q383 388
297 388Q254 388 212 343V140Q232 122 252 115T291 108Z" />
<glyph unicode="q" glyph-name="q" horiz-adv-x="573" d="M361 -184V-33L367 43Q342 19 309 4T242 -12Q150 -12 95 57T39 248Q39 329 68 387T145 477T245 508Q286 508 317 494T377 447H381L393 496H508V-184H361ZM280 108Q304 108 323 118T361 153V356Q342 374
321 381T279 388Q244 388 217 355T190 250Q190 177 213 143T280 108Z" />
<glyph unicode="r" glyph-name="r" horiz-adv-x="398" d="M65 0V496H185L195 409H199Q226 459 264 483T340 508Q361 508 375 506T399 498L375 371Q362 375 350 377T321 379Q293 379 263 359T212 288V0H65Z" />
<glyph unicode="s" glyph-name="s" horiz-adv-x="443" d="M211 -12Q162 -12 111 7T21 57L87 149Q121 124 152 111T215 97Q248 97 263 108T278 139Q278 156 264 167T226 187T177 207Q147 219 118 237T68 283T48 353Q48 422 100 465T238 508Q295 508 338 489T413
445L347 357Q321 377 295 388T243 399Q186 399 186 360Q186 336 214 324T281 297Q313 286 343 269T394 223T415 148Q415 81 363 35T211 -12Z" />
<glyph unicode="t" glyph-name="t" horiz-adv-x="383" d="M256 -12Q164 -12 125 41T85 180V381H17V490L93 496L110 628H232V496H351V381H232V182Q232 140 249 122T296 103Q308 103 320 106T343 113L366 6Q347 0 320 -6T256 -12Z" />
<glyph unicode="u" glyph-name="u" horiz-adv-x="568" d="M214 -12Q133 -12 97 41T60 188V496H207V207Q207 154 222 134T269 113Q297 113 316 126T357 168V496H504V0H384L373 69H370Q339 32 302 10T214 -12Z" />
<glyph unicode="v" glyph-name="v" horiz-adv-x="523" d="M179 0L12 496H160L224 262Q234 225 243 187T263 109H267Q276 148 285 186T305 262L370 496H511L349 0H179Z" />
<glyph unicode="w" glyph-name="w" horiz-adv-x="776" d="M148 0L24 496H170L218 266Q224 229 229 193T240 119H244Q251 157 257 194T273 266L328 496H455L511 266Q520 229 527 193T542 119H546Q553 157 557 193T569 266L616 496H752L633 0H461L416 198Q409 233
403 268T389 343H385Q378 303 373 268T360 198L316 0H148Z" />
<glyph unicode="x" glyph-name="x" horiz-adv-x="514" d="M14 0L166 258L23 496H181L225 416Q235 395 246 374T267 331H271Q279 352 288 373T305 416L339 496H491L347 241L500 0H342L294 82Q282 103 271 125T247 168H243Q234 147 224 126T205 82L166 0H14Z" />
<glyph unicode="y" glyph-name="y" horiz-adv-x="521" d="M120 -194Q98 -194 82 -191T50 -184L76 -72Q83 -73 92 -75T109 -78Q146 -78 166 -60T196 -13L203 13L12 496H160L231 283Q242 249 251 214T270 142H274Q282 177 290 212T308 283L368 496H509L337 -5Q314
-67 286 -109T219 -173T120 -194Z" />
<glyph unicode="z" glyph-name="z" horiz-adv-x="460" d="M38 0V79L246 381H61V496H429V418L221 115H436V0H38Z" />
<glyph unicode="{" glyph-name="braceleft" horiz-adv-x="344" d="M235 -152Q169 -152 138 -122T107 -10Q107 26 109 52T114 104T117 161Q117 187 99 210T31 235V321Q80 323 98 346T117 395Q117 427 115 452T110 504T107 566Q107 647 138 677T235 708H298V630H279Q248
630 237 616T226 560Q226 520 228 482T230 397Q230 340 212 315T156 280V276Q194 267 212 242T230 159Q230 113 228 75T226 -4Q226 -45 237 -59T279 -74H298V-152H235Z" />
<glyph unicode="|" glyph-name="bar" horiz-adv-x="268" d="M86 -250V750H182V-250H86Z" />
<glyph unicode="}" glyph-name="braceright" horiz-adv-x="344" d="M46 -152V-74H65Q97 -74 107 -60T118 -4Q118 37 116 75T114 159Q114 216 132 241T188 276V280Q151 289 133 314T114 397Q114 443 116 481T118 560Q118 601 108 615T65 630H46V708H109Q175 708
206 678T237 566Q237 531 235 504T230 452T227 395Q227 369 245 346T313 321V235Q264 234 246 211T227 161Q227 130 229 105T234 53T237 -10Q237 -91 206 -121T109 -152H46Z" />
<glyph unicode="~" glyph-name="asciitilde" horiz-adv-x="528" d="M349 240Q318 240 295 251T253 278T216 304T177 316Q138 316 105 258L29 317Q66 373 104 396T179 420Q210 420 233 409T275 382T312 356T351 344Q372 344 389 359T423 402L499 343Q462 287 425
264T349 240Z" />
<glyph unicode="&#xa0;" glyph-name="space" horiz-adv-x="200" />
<glyph unicode="&#xa1;" glyph-name="exclamdown" horiz-adv-x="340" d="M96 -174L101 -41L122 265H218L239 -41L244 -174H96ZM170 323Q132 323 107 349T81 416Q81 455 106 481T170 508Q208 508 233 482T259 416Q259 376 234 350T170 323Z" />
<glyph unicode="&#xa2;" glyph-name="cent" horiz-adv-x="528" d="M275 -41V54Q178 67 119 132T60 307Q60 378 88 430T164 515T275 558V655H356V562Q395 558 426 544T480 506L413 416Q383 440 356 443V171Q377 175 395 184T428 206L487 113Q459 88 425 74T356
54V-41H275ZM203 307Q203 262 221 230T275 182V432Q239 416 221 384T203 307Z" />
<glyph unicode="&#xa3;" glyph-name="sterling" horiz-adv-x="528" d="M48 0V91Q93 111 123 151T154 244Q154 251 154 257T152 271H52V357L120 362H126Q119 382 115 402T110 442Q110 505 137 551T213 622T324 647Q380 647 421 626T497 566L417 486Q400 507 381
517T338 528Q298 528 275 505T251 434Q251 416 254 398T262 362H410V271H281Q282 264 282 258T283 243Q283 207 273 181T238 128V124H497V0H48Z" />
<glyph unicode="&#xa4;" glyph-name="currency" horiz-adv-x="528" d="M93 83L20 157L81 219Q47 265 47 330Q47 393 80 439L20 501L93 575L162 505Q210 530 264 530Q316 530 366 505L435 575L508 501L447 439Q481 394 481 330Q481 297 472 270T447 219L508 157L435
83L365 154Q342 142 316 136T264 130Q210 130 163 154L93 83ZM264 232Q300 232 325 258T350 330Q350 374 325 401T264 428Q228 428 203 401T178 330Q178 285 203 259T264 232Z" />
<glyph unicode="&#xa5;" glyph-name="yen" horiz-adv-x="528" d="M190 0V147H37V217H190V272H37V342H159L12 635H163L214 502Q226 469 238 436T264 371H268Q281 404 293 437T318 502L368 635H516L369 342H491V272H337V217H491V147H337V0H190Z" />
<glyph unicode="&#xa6;" glyph-name="brokenbar" horiz-adv-x="268" d="M86 312V750H182V312H86ZM86 -250V204H182V-250H86Z" />
<glyph unicode="&#xa7;" glyph-name="section" horiz-adv-x="528" d="M240 -84Q185 -84 133 -64T46 0L131 75Q180 24 240 24Q271 24 285 36T300 67Q300 87 281 100T232 127T169 155T105 192T56 246T37 326Q37 364 58 398T117 454Q104 470 96 490T88 537Q88 605
135 647T266 690Q324 690 369 670T446 625L379 533Q356 553 328 567T274 581Q220 581 220 542Q220 524 239 511T290 484T355 454T421 416T471 361T491 284Q491 241 470 208T409 151Q420 135 426 116T432 74Q432 7 383 -38T240 -84ZM161 337Q161 313 177 297T218
267T274 241T333 213Q367 234 367 272Q367 304 341 323T275 359T196 395Q161 372 161 337Z" />
<glyph unicode="&#xa8;" glyph-name="dieresis" horiz-adv-x="555" d="M169 569Q138 569 118 589T97 641Q97 671 117 691T169 712Q201 712 220 692T240 641Q240 610 221 590T169 569ZM387 569Q356 569 336 589T316 641Q316 671 336 691T387 712Q419 712 439 692T459
641Q459 610 439 590T387 569Z" />
<glyph unicode="&#xa9;" glyph-name="copyright" horiz-adv-x="750" d="M375 -9Q309 -9 250 14T144 80T72 185T45 325Q45 403 71 464T144 567T249 632T375 655Q441 655 500 633T606 567T678 463T704 325Q704 247 678 186T606 81T501 14T375 -9ZM375 52Q449 52
508 86T602 181T637 325Q637 407 602 467T508 561T375 595Q302 595 243 562T148 468T113 325Q113 243 148 182T242 86T375 52ZM387 127Q331 127 288 151T219 219T194 324Q194 383 221 426T292 492T387 516Q433 516 464 499T519 457L464 396Q448 413 432 421T396
430Q349 430 324 399T299 324Q299 273 324 243T391 213Q416 213 434 222T471 247L519 179Q491 157 459 142T387 127Z" />
<glyph unicode="&#xaa;" glyph-name="ordfeminine" horiz-adv-x="359" d="M130 367Q84 367 57 397T29 467Q29 520 73 549T216 587Q214 608 203 619T167 631Q147 631 124 623T77 601L40 669Q73 689 109 701T185 713Q249 713 284 676T320 564V375H237L227 409H223Q205
391 182 379T130 367ZM165 446Q180 446 191 453T216 472V527Q167 522 148 508T128 476Q128 446 165 446Z" />
<glyph unicode="&#xab;" glyph-name="guillemotleft" horiz-adv-x="480" d="M183 56L49 200V304L183 448L238 404L127 252L238 100L183 56ZM371 56L237 200V304L371 448L426 404L315 252L426 100L371 56Z" />
<glyph unicode="&#xac;" glyph-name="logicalnot" horiz-adv-x="528" d="M386 94V278H34V382H494V94H386Z" />
<glyph unicode="&#xad;" glyph-name="hyphen" horiz-adv-x="332" d="M43 201V305H289V201H43Z" />
<glyph unicode="&#xae;" glyph-name="registered" horiz-adv-x="462" d="M231 311Q176 311 131 337T59 408T32 513Q32 572 59 617T131 689T231 715Q286 715 330 689T402 618T429 513Q429 454 402 409T331 337T231 311ZM231 360Q294 360 334 401T374 513Q374 583
334 624T231 666Q168 666 128 625T87 513Q87 443 127 402T231 360ZM150 416V613H239Q274 613 297 597T320 547Q320 510 285 493L326 416H266L236 476H207V416H150ZM207 516H228Q243 516 250 524T258 544Q258 555 251 562T228 570H207V516Z" />
<glyph unicode="&#xaf;" glyph-name="overscore" horiz-adv-x="555" d="M130 592V685H426V592H130Z" />
<glyph unicode="&#xb0;" glyph-name="degree" horiz-adv-x="365" d="M183 398Q143 398 111 416T59 467T39 542Q39 584 58 616T110 667T183 686Q224 686 256 668T308 617T328 542Q328 500 309 468T257 417T183 398ZM183 468Q213 468 231 488T250 542Q250 574 232
594T183 615Q154 615 135 595T116 542Q116 509 135 489T183 468Z" />
<glyph unicode="&#xb1;" glyph-name="plusminus" horiz-adv-x="528" d="M210 158V294H34V398H210V566H318V398H494V294H318V158H210ZM34 0V104H494V0H34Z" />
<glyph unicode="&#xb2;" glyph-name="two.sups" horiz-adv-x="376" d="M45 375V433Q120 495 168 542T216 627Q216 656 201 672T159 688Q140 688 123 676T88 641L27 697Q87 777 176 777Q241 777 280 743T320 645Q320 598 289 555T216 465H334V375H45Z" />
<glyph unicode="&#xb3;" glyph-name="three.sups" horiz-adv-x="376" d="M186 363Q135 363 94 383T27 442L92 493Q127 445 175 445Q198 445 214 457T231 492Q231 543 138 543V605Q174 605 195 616T217 653Q217 673 204 684T168 695Q149 695 134 684T104 656L43
710Q75 745 108 761T187 777Q223 777 254 764T304 727T323 668Q323 637 308 616T266 578Q296 566 316 543T337 484Q337 448 316 421T261 379T186 363Z" />
<glyph unicode="&#xb4;" glyph-name="acute" horiz-adv-x="555" d="M288 572L216 644L370 826L469 729L288 572Z" />
<glyph unicode="&#xb5;" glyph-name="mu" horiz-adv-x="594" d="M65 -177V496H212V207Q212 155 227 134T273 113Q298 113 318 127T358 178V496H506Q505 438 503 374T498 250T496 149Q496 125 508 116T540 107Q556 107 572 113L589 4Q573 -3 554 -7T502 -12Q398
-12 374 71H370Q333 -7 265 -7Q247 -7 231 -3T203 16Q204 -39 206 -82T213 -177H65Z" />
<glyph unicode="&#xb6;" glyph-name="paragraph" horiz-adv-x="636" d="M393 -80V652H540V-80H393ZM297 197Q226 197 168 223T74 301T39 429Q39 513 73 562T166 631T293 652H337V197H297Z" />
<glyph unicode="&#xb7;" glyph-name="middot" horiz-adv-x="300" d="M150 228Q112 228 87 254T61 320Q61 360 86 386T150 413Q188 413 213 387T239 320Q239 281 214 255T150 228Z" />
<glyph unicode="&#xb8;" glyph-name="cedilla" horiz-adv-x="555" d="M177 -239L166 -180Q225 -177 247 -167T269 -136Q269 -121 254 -111T192 -94L240 4H326L298 -61Q336 -70 355 -87T374 -136Q374 -187 323 -211T177 -239Z" />
<glyph unicode="&#xb9;" glyph-name="one.sups" horiz-adv-x="376" d="M165 375V656H76V722Q117 728 140 738T188 765H274V375H165Z" />
<glyph unicode="&#xba;" glyph-name="ordmasculine" horiz-adv-x="373" d="M186 367Q144 367 107 387T47 446T24 539Q24 594 47 632T107 692T186 713Q229 713 265 692T325 633T348 539Q348 485 325 447T266 388T186 367ZM186 449Q215 449 229 474T243 539Q243
580 229 605T186 631Q157 631 144 606T130 539Q130 499 143 474T186 449Z" />
<glyph unicode="&#xbb;" glyph-name="guillemotright" horiz-adv-x="480" d="M109 56L54 100L165 252L54 404L109 448L243 304V200L109 56ZM297 56L242 100L353 252L242 404L297 448L431 304V200L297 56Z" />
<glyph unicode="&#xbc;" glyph-name="onequarter" horiz-adv-x="809" d="M135 262V543H46V609Q87 615 110 625T158 652H244V262H135ZM185 -12L537 664H622L270 -12H185ZM567 157H647V198L653 315H649L609 238L567 157ZM647 0V87H468V141L609 390H743V157H801V87H743V0H647Z"
/>
<glyph unicode="&#xbd;" glyph-name="onehalf" horiz-adv-x="846" d="M135 262V543H46V609Q87 615 110 625T158 652H244V262H135ZM170 -12L522 664H607L255 -12H170ZM514 0V58Q589 120 637 167T685 252Q685 281 670 297T628 313Q609 313 592 301T557 266L496 322Q556
402 645 402Q710 402 749 368T789 270Q789 223 758 180T685 90H803V0H514Z" />
<glyph unicode="&#xbe;" glyph-name="threequarters" horiz-adv-x="818" d="M183 250Q132 250 91 270T24 329L89 380Q124 332 172 332Q195 332 211 344T228 379Q228 430 135 430V492Q171 492 192 503T214 540Q214 560 201 571T165 582Q146 582 131 571T101 543L40
597Q72 632 105 648T184 664Q220 664 251 651T301 614T320 555Q320 524 305 503T263 465Q293 453 313 430T334 371Q334 335 313 308T258 266T183 250ZM207 -12L559 664H644L292 -12H207ZM575 157H655V198L661 315H657L617 238L575 157ZM655 0V87H476V141L617 390H751V157H809V87H751V0H655Z"
/>
<glyph unicode="&#xbf;" glyph-name="questiondown" horiz-adv-x="463" d="M232 -186Q178 -186 135 -168T67 -112T42 -14Q42 23 57 51T94 103T137 151T171 202T181 265H309Q315 224 304 192T274 133T233 84T198 40T183 -4Q183 -35 202 -51T250 -67Q278 -67 299
-54T341 -21L422 -95Q386 -135 339 -160T232 -186ZM245 323Q207 323 182 349T156 416Q156 455 181 481T245 508Q283 508 308 482T334 416Q334 376 309 350T245 323Z" />
<glyph unicode="&#xc0;" glyph-name="Agrave" horiz-adv-x="573" d="M230 330L214 270H353L338 330Q325 379 312 434T285 540H281Q269 488 257 434T230 330ZM-6 0L198 652H375L579 0H423L383 155H184L144 0H-6ZM295 680L112 799L190 894L361 754L295 680Z" />
<glyph unicode="&#xc1;" glyph-name="Aacute" horiz-adv-x="573" d="M230 330L214 270H353L338 330Q325 379 312 434T285 540H281Q269 488 257 434T230 330ZM-6 0L198 652H375L579 0H423L383 155H184L144 0H-6ZM275 680L209 754L380 894L458 799L275 680Z" />
<glyph unicode="&#xc2;" glyph-name="Acircumflex" horiz-adv-x="573" d="M230 330L214 270H353L338 330Q325 379 312 434T285 540H281Q269 488 257 434T230 330ZM-6 0L198 652H375L579 0H423L383 155H184L144 0H-6ZM179 685L115 724L205 835H365L455 724L391
685L287 769H283L179 685Z" />
<glyph unicode="&#xc3;" glyph-name="Atilde" horiz-adv-x="573" d="M230 330L214 270H353L338 330Q325 379 312 434T285 540H281Q269 488 257 434T230 330ZM-6 0L198 652H375L579 0H423L383 155H184L144 0H-6ZM356 692Q321 692 297 706T254 735T219 750Q205 750
195 739T182 701L87 708Q91 784 126 818T214 852Q250 852 274 838T316 809T351 794Q365 794 375 805T388 843L483 836Q479 761 444 727T356 692Z" />
<glyph unicode="&#xc4;" glyph-name="Adieresis" horiz-adv-x="573" d="M230 330L214 270H353L338 330Q325 379 312 434T285 540H281Q269 488 257 434T230 330ZM-6 0L198 652H375L579 0H423L383 155H184L144 0H-6ZM174 700Q143 700 124 720T104 770Q104 800 123
820T174 840Q205 840 224 820T244 770Q244 740 225 720T174 700ZM396 700Q365 700 346 720T326 770Q326 800 345 820T396 840Q427 840 446 820T466 770Q466 740 447 720T396 700Z" />
<glyph unicode="&#xc5;" glyph-name="Aring" horiz-adv-x="573" d="M230 330L214 270H353L338 330Q325 379 312 434T285 540H281Q269 488 257 434T230 330ZM-6 0L198 652H375L579 0H423L383 155H184L144 0H-6ZM285 697Q234 697 203 724T171 796Q171 841 202 867T285
894Q335 894 367 868T399 796Q399 751 367 724T285 697ZM285 752Q302 752 314 764T327 796Q327 816 315 827T285 839Q268 839 256 828T243 796Q243 776 255 764T285 752Z" />
<glyph unicode="&#xc6;" glyph-name="AE" horiz-adv-x="845" d="M303 356L261 263H386V541H382Q362 493 343 446T303 356ZM-14 0L296 652H783V528H533V397H744V274H533V124H793V0H386V149H209L141 0H-14Z" />
<glyph unicode="&#xc7;" glyph-name="Ccedilla" horiz-adv-x="582" d="M349 -12Q267 -12 198 26T88 138T46 322Q46 430 88 506T201 623T354 664Q417 664 467 639T550 579L472 485Q447 508 420 522T357 537Q313 537 277 512T219 440T197 327Q197 227 240 171T355
115Q395 115 426 133T482 176L560 84Q478 -12 349 -12ZM248 -239L237 -180Q296 -177 318 -167T340 -136Q340 -121 325 -111T263 -94L311 4H397L369 -61Q407 -70 426 -87T445 -136Q445 -187 394 -211T248 -239Z" />
<glyph unicode="&#xc8;" glyph-name="Egrave" horiz-adv-x="548" d="M77 0V652H485V528H224V397H446V274H224V124H495V0H77ZM300 680L117 799L195 894L366 754L300 680Z" />
<glyph unicode="&#xc9;" glyph-name="Eacute" horiz-adv-x="548" d="M77 0V652H485V528H224V397H446V274H224V124H495V0H77ZM280 680L214 754L385 894L463 799L280 680Z" />
<glyph unicode="&#xca;" glyph-name="Ecircumflex" horiz-adv-x="548" d="M77 0V652H485V528H224V397H446V274H224V124H495V0H77ZM184 685L120 724L210 835H370L460 724L396 685L292 769H288L184 685Z" />
<glyph unicode="&#xcb;" glyph-name="Edieresis" horiz-adv-x="548" d="M77 0V652H485V528H224V397H446V274H224V124H495V0H77ZM179 700Q148 700 129 720T109 770Q109 800 128 820T179 840Q210 840 229 820T249 770Q249 740 230 720T179 700ZM401 700Q370 700
351 720T331 770Q331 800 350 820T401 840Q432 840 451 820T471 770Q471 740 452 720T401 700Z" />
<glyph unicode="&#xcc;" glyph-name="Igrave" horiz-adv-x="301" d="M77 0V652H224V0H77ZM162 680L-21 799L57 894L228 754L162 680Z" />
<glyph unicode="&#xcd;" glyph-name="Iacute" horiz-adv-x="301" d="M77 0V652H224V0H77ZM142 680L76 754L247 894L325 799L142 680Z" />
<glyph unicode="&#xce;" glyph-name="Icircumflex" horiz-adv-x="301" d="M77 0V652H224V0H77ZM46 685L-18 724L72 835H232L322 724L258 685L154 769H150L46 685Z" />
<glyph unicode="&#xcf;" glyph-name="Idieresis" horiz-adv-x="301" d="M77 0V652H224V0H77ZM41 700Q10 700 -9 720T-29 770Q-29 800 -10 820T41 840Q72 840 91 820T111 770Q111 740 92 720T41 700ZM263 700Q232 700 213 720T193 770Q193 800 212 820T263 840Q294
840 313 820T333 770Q333 740 314 720T263 700Z" />
<glyph unicode="&#xd0;" glyph-name="Eth" horiz-adv-x="660" d="M102 0V301H26V367L102 372V652H286Q386 652 459 618T572 513T613 329Q613 217 573 144T462 36T294 0H102ZM249 119H277Q333 119 374 139T439 205T462 329Q462 407 439 451T375 514T277 533H249V372H374V301H249V119Z"
/>
<glyph unicode="&#xd1;" glyph-name="Ntilde" horiz-adv-x="665" d="M77 0V652H228L398 328L462 184H466Q462 236 455 300T448 422V652H588V0H437L267 325L203 467H199Q204 413 210 351T217 231V0H77ZM409 692Q374 692 350 706T307 735T272 750Q258 750 248 739T235
701L140 708Q144 784 179 818T267 852Q303 852 327 838T369 809T404 794Q418 794 428 805T441 843L536 836Q532 761 497 727T409 692Z" />
<glyph unicode="&#xd2;" glyph-name="Ograve" horiz-adv-x="684" d="M342 -12Q254 -12 188 29T84 146T46 329Q46 436 83 510T187 624T342 664Q430 664 496 625T600 510T638 329Q638 223 601 147T497 29T342 -12ZM342 115Q409 115 448 173T487 329Q487 427 448
482T342 537Q275 537 236 482T197 329Q197 231 236 173T342 115ZM352 680L169 799L247 894L418 754L352 680Z" />
<glyph unicode="&#xd3;" glyph-name="Oacute" horiz-adv-x="684" d="M342 -12Q254 -12 188 29T84 146T46 329Q46 436 83 510T187 624T342 664Q430 664 496 625T600 510T638 329Q638 223 601 147T497 29T342 -12ZM342 115Q409 115 448 173T487 329Q487 427 448
482T342 537Q275 537 236 482T197 329Q197 231 236 173T342 115ZM332 680L266 754L437 894L515 799L332 680Z" />
<glyph unicode="&#xd4;" glyph-name="Ocircumflex" horiz-adv-x="684" d="M342 -12Q254 -12 188 29T84 146T46 329Q46 436 83 510T187 624T342 664Q430 664 496 625T600 510T638 329Q638 223 601 147T497 29T342 -12ZM342 115Q409 115 448 173T487 329Q487 427
448 482T342 537Q275 537 236 482T197 329Q197 231 236 173T342 115ZM236 685L172 724L262 835H422L512 724L448 685L344 769H340L236 685Z" />
<glyph unicode="&#xd5;" glyph-name="Otilde" horiz-adv-x="684" d="M342 -12Q254 -12 188 29T84 146T46 329Q46 436 83 510T187 624T342 664Q430 664 496 625T600 510T638 329Q638 223 601 147T497 29T342 -12ZM342 115Q409 115 448 173T487 329Q487 427 448
482T342 537Q275 537 236 482T197 329Q197 231 236 173T342 115ZM413 692Q378 692 354 706T311 735T276 750Q262 750 252 739T239 701L144 708Q148 784 183 818T271 852Q307 852 331 838T373 809T408 794Q422 794 432 805T445 843L540 836Q536 761 501 727T413
692Z" />
<glyph unicode="&#xd6;" glyph-name="Odieresis" horiz-adv-x="684" d="M342 -12Q254 -12 188 29T84 146T46 329Q46 436 83 510T187 624T342 664Q430 664 496 625T600 510T638 329Q638 223 601 147T497 29T342 -12ZM342 115Q409 115 448 173T487 329Q487 427 448
482T342 537Q275 537 236 482T197 329Q197 231 236 173T342 115ZM231 700Q200 700 181 720T161 770Q161 800 180 820T231 840Q262 840 281 820T301 770Q301 740 282 720T231 700ZM453 700Q422 700 403 720T383 770Q383 800 402 820T453 840Q484 840 503 820T523
770Q523 740 504 720T453 700Z" />
<glyph unicode="&#xd7;" glyph-name="multiply" horiz-adv-x="528" d="M121 112L48 186L190 329L48 473L121 547L264 403L407 547L480 473L338 329L480 186L407 112L264 256L121 112Z" />
<glyph unicode="&#xd8;" glyph-name="Oslash" horiz-adv-x="684" d="M116 -41L40 17L109 103Q80 146 64 203T47 329Q47 436 84 510T188 624T343 664Q445 664 518 611L584 693L660 634L584 540Q610 500 624 447T639 329Q639 223 602 147T498 29T343 -12Q249 -12
178 36L116 -41ZM198 329Q198 301 201 276T211 230L431 503Q395 537 343 537Q276 537 237 482T198 329ZM343 115Q410 115 449 173T488 329Q488 374 479 410L264 143Q298 115 343 115Z" />
<glyph unicode="&#xd9;" glyph-name="Ugrave" horiz-adv-x="665" d="M334 -12Q207 -12 140 63T73 302V652H221V287Q221 191 250 153T334 115Q389 115 419 153T449 287V652H591V302Q591 138 526 63T334 -12ZM342 680L159 799L237 894L408 754L342 680Z" />
<glyph unicode="&#xda;" glyph-name="Uacute" horiz-adv-x="665" d="M334 -12Q207 -12 140 63T73 302V652H221V287Q221 191 250 153T334 115Q389 115 419 153T449 287V652H591V302Q591 138 526 63T334 -12ZM322 680L256 754L427 894L505 799L322 680Z" />
<glyph unicode="&#xdb;" glyph-name="Ucircumflex" horiz-adv-x="665" d="M334 -12Q207 -12 140 63T73 302V652H221V287Q221 191 250 153T334 115Q389 115 419 153T449 287V652H591V302Q591 138 526 63T334 -12ZM226 685L162 724L252 835H412L502 724L438 685L334
769H330L226 685Z" />
<glyph unicode="&#xdc;" glyph-name="Udieresis" horiz-adv-x="665" d="M334 -12Q207 -12 140 63T73 302V652H221V287Q221 191 250 153T334 115Q389 115 419 153T449 287V652H591V302Q591 138 526 63T334 -12ZM221 700Q190 700 171 720T151 770Q151 800 170 820T221
840Q252 840 271 820T291 770Q291 740 272 720T221 700ZM443 700Q412 700 393 720T373 770Q373 800 392 820T443 840Q474 840 493 820T513 770Q513 740 494 720T443 700Z" />
<glyph unicode="&#xdd;" glyph-name="Yacute" horiz-adv-x="525" d="M189 0V232L-8 652H150L208 502Q222 465 235 431T261 358H265Q279 396 293 430T320 502L379 652H533L336 232V0H189ZM252 680L186 754L357 894L435 799L252 680Z" />
<glyph unicode="&#xde;" glyph-name="Thorn" horiz-adv-x="617" d="M77 0V652H224V553H315Q386 553 443 534T535 469T570 344Q570 267 535 218T442 146T315 123H224V0H77ZM224 240H306Q426 240 426 344Q426 395 396 415T306 436H224V240Z" />
<glyph unicode="&#xdf;" glyph-name="germandbls" horiz-adv-x="632" d="M421 -12Q377 -12 342 0T270 33L321 133Q370 97 416 97Q442 97 456 110T471 145Q471 168 453 183T409 212T357 243T313 285T295 350Q295 379 305 400T330 440T355 479T366 527Q366 556 350
575T302 595Q256 595 233 562T210 470V0H65V487Q65 552 90 602T169 682T302 711Q371 711 416 687T484 625T507 544Q507 508 495 483T468 440T441 404T429 368Q429 348 447 335T491 308T543 276T587 228T605 152Q605 107 584 70T523 10T421 -12Z" />
<glyph unicode="&#xe0;" glyph-name="agrave" horiz-adv-x="527" d="M190 -12Q122 -12 82 31T42 138Q42 216 108 260T321 319Q319 352 302 371T243 391Q212 391 180 379T112 346L59 443Q106 472 159 490T271 508Q366 508 417 453T468 284V0H348L338 51H334Q303
23 268 6T190 -12ZM240 102Q265 102 283 113T321 144V231Q243 221 213 200T183 149Q183 125 198 114T240 102ZM266 572L85 729L184 826L338 644L266 572Z" />
<glyph unicode="&#xe1;" glyph-name="aacute" horiz-adv-x="527" d="M190 -12Q122 -12 82 31T42 138Q42 216 108 260T321 319Q319 352 302 371T243 391Q212 391 180 379T112 346L59 443Q106 472 159 490T271 508Q366 508 417 453T468 284V0H348L338 51H334Q303
23 268 6T190 -12ZM240 102Q265 102 283 113T321 144V231Q243 221 213 200T183 149Q183 125 198 114T240 102ZM286 572L214 644L368 826L467 729L286 572Z" />
<glyph unicode="&#xe2;" glyph-name="acircumflex" horiz-adv-x="527" d="M190 -12Q122 -12 82 31T42 138Q42 216 108 260T321 319Q319 352 302 371T243 391Q212 391 180 379T112 346L59 443Q106 472 159 490T271 508Q366 508 417 453T468 284V0H348L338 51H334Q303
23 268 6T190 -12ZM240 102Q265 102 283 113T321 144V231Q243 221 213 200T183 149Q183 125 198 114T240 102ZM93 613L201 744H351L459 613L403 561L278 653H274L149 561L93 613Z" />
<glyph unicode="&#xe3;" glyph-name="atilde" horiz-adv-x="527" d="M190 -12Q122 -12 82 31T42 138Q42 216 108 260T321 319Q319 352 302 371T243 391Q212 391 180 379T112 346L59 443Q106 472 159 490T271 508Q366 508 417 453T468 284V0H348L338 51H334Q303
23 268 6T190 -12ZM240 102Q265 102 283 113T321 144V231Q243 221 213 200T183 149Q183 125 198 114T240 102ZM342 573Q318 573 300 582T266 605T238 627T213 637Q198 637 190 624T178 582L86 587Q88 664 120 701T210 739Q234 739 252 730T286 707T314 685T339
675Q368 675 374 730L466 725Q464 648 432 611T342 573Z" />
<glyph unicode="&#xe4;" glyph-name="adieresis" horiz-adv-x="527" d="M190 -12Q122 -12 82 31T42 138Q42 216 108 260T321 319Q319 352 302 371T243 391Q212 391 180 379T112 346L59 443Q106 472 159 490T271 508Q366 508 417 453T468 284V0H348L338 51H334Q303
23 268 6T190 -12ZM240 102Q265 102 283 113T321 144V231Q243 221 213 200T183 149Q183 125 198 114T240 102ZM167 569Q136 569 116 589T95 641Q95 671 115 691T167 712Q199 712 218 692T238 641Q238 610 219 590T167 569ZM385 569Q354 569 334 589T314 641Q314
671 334 691T385 712Q417 712 437 692T457 641Q457 610 437 590T385 569Z" />
<glyph unicode="&#xe5;" glyph-name="aring" horiz-adv-x="527" d="M190 -12Q122 -12 82 31T42 138Q42 216 108 260T321 319Q319 352 302 371T243 391Q212 391 180 379T112 346L59 443Q106 472 159 490T271 508Q366 508 417 453T468 284V0H348L338 51H334Q303
23 268 6T190 -12ZM240 102Q265 102 283 113T321 144V231Q243 221 213 200T183 149Q183 125 198 114T240 102ZM276 564Q211 564 178 594T144 668Q144 712 177 742T276 772Q341 772 374 742T408 668Q408 625 375 595T276 564ZM276 619Q294 619 306 632T319 668Q319
690 307 703T276 717Q258 717 246 704T233 668Q233 646 245 633T276 619Z" />
<glyph unicode="&#xe6;" glyph-name="ae" horiz-adv-x="786" d="M194 -12Q149 -12 116 8T65 62T47 137Q47 216 112 260T323 320Q321 352 304 371T246 391Q216 391 184 379T116 346L64 443Q111 472 162 490T267 508Q313 508 348 488T405 433Q437 469 472 488T552
508Q618 508 661 476T727 390T749 267Q749 247 747 231T743 205H457Q465 153 498 128T576 103Q604 103 629 113T681 139L731 44Q693 18 647 3T556 -12Q501 -12 459 9T385 65Q333 23 289 6T194 -12ZM244 102Q270 102 293 113T337 144Q326 175 323 210L322 231Q249
221 218 200T187 149Q187 125 202 114T244 102ZM457 295H624Q624 340 606 368T547 396Q513 396 488 372T457 295Z" />
<glyph unicode="&#xe7;" glyph-name="ccedilla" horiz-adv-x="467" d="M281 -12Q212 -12 157 18T69 107T36 248Q36 331 72 389T167 477T294 508Q340 508 375 493T439 455L370 360Q335 389 303 389Q250 389 219 351T187 248Q187 184 218 146T298 107Q322 107 345
117T387 143L445 47Q408 15 365 2T281 -12ZM160 -239L149 -180Q208 -177 230 -167T252 -136Q252 -121 237 -111T175 -94L223 4H309L281 -61Q319 -70 338 -87T357 -136Q357 -187 306 -211T160 -239Z" />
<glyph unicode="&#xe8;" glyph-name="egrave" horiz-adv-x="518" d="M287 -12Q216 -12 159 19T69 108T36 248Q36 329 69 387T157 476T270 508Q341 508 387 477T457 392T481 270Q481 251 479 233T475 205H178Q188 151 223 126T307 100Q360 100 414 133L463 44Q425
18 378 3T287 -12ZM177 302H356Q356 343 337 369T273 396Q239 396 212 373T177 302ZM258 572L77 729L176 826L330 644L258 572Z" />
<glyph unicode="&#xe9;" glyph-name="eacute" horiz-adv-x="518" d="M287 -12Q216 -12 159 19T69 108T36 248Q36 329 69 387T157 476T270 508Q341 508 387 477T457 392T481 270Q481 251 479 233T475 205H178Q188 151 223 126T307 100Q360 100 414 133L463 44Q425
18 378 3T287 -12ZM177 302H356Q356 343 337 369T273 396Q239 396 212 373T177 302ZM278 572L206 644L360 826L459 729L278 572Z" />
<glyph unicode="&#xea;" glyph-name="ecircumflex" horiz-adv-x="518" d="M287 -12Q216 -12 159 19T69 108T36 248Q36 329 69 387T157 476T270 508Q341 508 387 477T457 392T481 270Q481 251 479 233T475 205H178Q188 151 223 126T307 100Q360 100 414 133L463
44Q425 18 378 3T287 -12ZM177 302H356Q356 343 337 369T273 396Q239 396 212 373T177 302ZM85 613L193 744H343L451 613L395 561L270 653H266L141 561L85 613Z" />
<glyph unicode="&#xeb;" glyph-name="edieresis" horiz-adv-x="518" d="M287 -12Q216 -12 159 19T69 108T36 248Q36 329 69 387T157 476T270 508Q341 508 387 477T457 392T481 270Q481 251 479 233T475 205H178Q188 151 223 126T307 100Q360 100 414 133L463 44Q425
18 378 3T287 -12ZM177 302H356Q356 343 337 369T273 396Q239 396 212 373T177 302ZM159 569Q128 569 108 589T87 641Q87 671 107 691T159 712Q191 712 210 692T230 641Q230 610 211 590T159 569ZM377 569Q346 569 326 589T306 641Q306 671 326 691T377 712Q409
712 429 692T449 641Q449 610 429 590T377 569Z" />
<glyph unicode="&#xec;" glyph-name="igrave" horiz-adv-x="276" d="M65 0V496H212V0H65ZM128 572L-53 729L46 826L200 644L128 572Z" />
<glyph unicode="&#xed;" glyph-name="iacute" horiz-adv-x="276" d="M65 0V496H212V0H65ZM148 572L76 644L230 826L329 729L148 572Z" />
<glyph unicode="&#xee;" glyph-name="icircumflex" horiz-adv-x="276" d="M65 0V496H212V0H65ZM-45 613L63 744H213L321 613L265 561L140 653H136L11 561L-45 613Z" />
<glyph unicode="&#xef;" glyph-name="idieresis" horiz-adv-x="276" d="M65 0V496H212V0H65ZM29 569Q-2 569 -22 589T-43 641Q-43 671 -23 691T29 712Q61 712 80 692T100 641Q100 610 81 590T29 569ZM247 569Q216 569 196 589T176 641Q176 671 196 691T247 712Q279
712 299 692T319 641Q319 610 299 590T247 569Z" />
<glyph unicode="&#xf0;" glyph-name="eth" horiz-adv-x="560" d="M176 228Q176 169 206 138T278 107Q320 107 346 144T373 258Q373 270 373 281T372 303Q350 328 326 337T275 346Q232 346 204 317T176 228ZM273 -12Q211 -12 159 17T74 101T42 228Q42 300 71 350T146
428T245 455Q274 455 302 446T351 413Q325 490 266 546L124 475L86 540L202 598Q182 612 160 625T112 651L176 740Q211 722 246 701T314 655L457 727L495 662L375 601Q434 541 472 460T510 266Q510 186 482 123T400 24T273 -12Z" />
<glyph unicode="&#xf1;" glyph-name="ntilde" horiz-adv-x="572" d="M65 0V496H185L195 433H199Q231 463 269 485T358 508Q439 508 475 455T512 308V0H365V289Q365 343 351 363T304 383Q276 383 256 371T212 335V0H65ZM379 573Q355 573 337 582T303 605T275 627T250
637Q235 637 227 624T215 582L123 587Q125 664 157 701T247 739Q271 739 289 730T323 707T351 685T376 675Q405 675 411 730L503 725Q501 648 469 611T379 573Z" />
<glyph unicode="&#xf2;" glyph-name="ograve" horiz-adv-x="555" d="M278 -12Q215 -12 160 18T70 107T36 248Q36 331 70 389T159 477T278 508Q341 508 396 478T485 389T519 248Q519 166 485 108T396 19T278 -12ZM278 107Q323 107 346 145T369 248Q369 313 346
351T278 389Q232 389 210 351T187 248Q187 184 209 146T278 107ZM268 572L87 729L186 826L340 644L268 572Z" />
<glyph unicode="&#xf3;" glyph-name="oacute" horiz-adv-x="555" d="M278 -12Q215 -12 160 18T70 107T36 248Q36 331 70 389T159 477T278 508Q341 508 396 478T485 389T519 248Q519 166 485 108T396 19T278 -12ZM278 107Q323 107 346 145T369 248Q369 313 346
351T278 389Q232 389 210 351T187 248Q187 184 209 146T278 107ZM288 572L216 644L370 826L469 729L288 572Z" />
<glyph unicode="&#xf4;" glyph-name="ocircumflex" horiz-adv-x="555" d="M278 -12Q215 -12 160 18T70 107T36 248Q36 331 70 389T159 477T278 508Q341 508 396 478T485 389T519 248Q519 166 485 108T396 19T278 -12ZM278 107Q323 107 346 145T369 248Q369 313
346 351T278 389Q232 389 210 351T187 248Q187 184 209 146T278 107ZM95 613L203 744H353L461 613L405 561L280 653H276L151 561L95 613Z" />
<glyph unicode="&#xf5;" glyph-name="otilde" horiz-adv-x="555" d="M278 -12Q215 -12 160 18T70 107T36 248Q36 331 70 389T159 477T278 508Q341 508 396 478T485 389T519 248Q519 166 485 108T396 19T278 -12ZM278 107Q323 107 346 145T369 248Q369 313 346
351T278 389Q232 389 210 351T187 248Q187 184 209 146T278 107ZM344 573Q320 573 302 582T268 605T240 627T215 637Q200 637 192 624T180 582L88 587Q90 664 122 701T212 739Q236 739 254 730T288 707T316 685T341 675Q370 675 376 730L468 725Q466 648 434 611T344
573Z" />
<glyph unicode="&#xf6;" glyph-name="odieresis" horiz-adv-x="555" d="M278 -12Q215 -12 160 18T70 107T36 248Q36 331 70 389T159 477T278 508Q341 508 396 478T485 389T519 248Q519 166 485 108T396 19T278 -12ZM278 107Q323 107 346 145T369 248Q369 313 346
351T278 389Q232 389 210 351T187 248Q187 184 209 146T278 107ZM169 569Q138 569 118 589T97 641Q97 671 117 691T169 712Q201 712 220 692T240 641Q240 610 221 590T169 569ZM387 569Q356 569 336 589T316 641Q316 671 336 691T387 712Q419 712 439 692T459 641Q459
610 439 590T387 569Z" />
<glyph unicode="&#xf7;" glyph-name="divide" horiz-adv-x="528" d="M34 278V382H494V278H34ZM264 73Q230 73 207 94T183 150Q183 184 206 205T264 227Q299 227 322 206T345 150Q345 116 322 95T264 73ZM264 433Q230 433 207 454T183 510Q183 544 206 565T264
587Q299 587 322 566T345 510Q345 476 322 455T264 433Z" />
<glyph unicode="&#xf8;" glyph-name="oslash" horiz-adv-x="555" d="M178 256Q178 216 185 189L334 375Q312 394 278 394Q232 394 205 356T178 256ZM101 -25L46 17L93 75Q67 107 52 150T36 248Q36 331 70 389T159 477T278 508Q349 508 410 469L454 523L509 480L462
422Q488 389 503 346T519 248Q519 166 485 108T396 19T278 -12Q204 -12 144 28L101 -25ZM278 102Q323 102 350 140T377 240Q377 260 376 277T370 308L220 122Q243 102 278 102Z" />
<glyph unicode="&#xf9;" glyph-name="ugrave" horiz-adv-x="568" d="M214 -12Q133 -12 97 41T60 188V496H207V207Q207 154 222 134T269 113Q297 113 316 126T357 168V496H504V0H384L373 69H370Q339 32 302 10T214 -12ZM275 572L94 729L193 826L347 644L275 572Z" />
<glyph unicode="&#xfa;" glyph-name="uacute" horiz-adv-x="568" d="M214 -12Q133 -12 97 41T60 188V496H207V207Q207 154 222 134T269 113Q297 113 316 126T357 168V496H504V0H384L373 69H370Q339 32 302 10T214 -12ZM295 572L223 644L377 826L476 729L295 572Z" />
<glyph unicode="&#xfb;" glyph-name="ucircumflex" horiz-adv-x="568" d="M214 -12Q133 -12 97 41T60 188V496H207V207Q207 154 222 134T269 113Q297 113 316 126T357 168V496H504V0H384L373 69H370Q339 32 302 10T214 -12ZM102 613L210 744H360L468 613L412 561L287
653H283L158 561L102 613Z" />
<glyph unicode="&#xfc;" glyph-name="udieresis" horiz-adv-x="568" d="M214 -12Q133 -12 97 41T60 188V496H207V207Q207 154 222 134T269 113Q297 113 316 126T357 168V496H504V0H384L373 69H370Q339 32 302 10T214 -12ZM176 569Q145 569 125 589T104 641Q104
671 124 691T176 712Q208 712 227 692T247 641Q247 610 228 590T176 569ZM394 569Q363 569 343 589T323 641Q323 671 343 691T394 712Q426 712 446 692T466 641Q466 610 446 590T394 569Z" />
<glyph unicode="&#xfd;" glyph-name="yacute" horiz-adv-x="521" d="M120 -194Q98 -194 82 -191T50 -184L76 -72Q83 -73 92 -75T109 -78Q146 -78 166 -60T196 -13L203 13L12 496H160L231 283Q242 249 251 214T270 142H274Q282 177 290 212T308 283L368 496H509L337
-5Q314 -67 286 -109T219 -173T120 -194ZM277 572L205 644L359 826L458 729L277 572Z" />
<glyph unicode="&#xfe;" glyph-name="thorn" horiz-adv-x="573" d="M65 -184V701H212V530L208 459Q234 482 266 495T332 508Q426 508 480 440T534 256Q534 171 504 111T427 20T325 -12Q289 -12 262 0T208 35L212 -39V-184H65ZM291 108Q329 108 356 143T383 254Q383
388 297 388Q254 388 212 343V140Q232 122 252 115T291 108Z" />
<glyph unicode="&#xff;" glyph-name="ydieresis" horiz-adv-x="521" d="M120 -194Q98 -194 82 -191T50 -184L76 -72Q83 -73 92 -75T109 -78Q146 -78 166 -60T196 -13L203 13L12 496H160L231 283Q242 249 251 214T270 142H274Q282 177 290 212T308 283L368 496H509L337
-5Q314 -67 286 -109T219 -173T120 -194ZM158 569Q127 569 107 589T86 641Q86 671 106 691T158 712Q190 712 209 692T229 641Q229 610 210 590T158 569ZM376 569Q345 569 325 589T305 641Q305 671 325 691T376 712Q408 712 428 692T448 641Q448 610 428 590T376
569Z" />
<glyph unicode="&#x2013;" glyph-name="endash" horiz-adv-x="480" d="M43 206V300H437V206H43Z" />
<glyph unicode="&#x2014;" glyph-name="emdash" horiz-adv-x="800" d="M43 206V300H757V206H43Z" />
<glyph unicode="&#x2018;" glyph-name="quoteleft" horiz-adv-x="300" d="M149 338Q103 338 79 373T55 469Q55 540 90 594T197 683L229 619Q184 597 162 567T139 492Q141 493 144 493T149 493Q181 493 203 474T226 420Q226 383 204 361T149 338Z" />
<glyph unicode="&#x2019;" glyph-name="quoteright" horiz-adv-x="300" d="M103 352L71 416Q116 439 138 469T161 543Q158 542 152 542Q120 542 98 561T75 615Q75 653 96 675T152 697Q198 697 222 663T246 566Q246 422 103 352Z" />
<glyph unicode="&#x201a;" glyph-name="quotesinglbase" horiz-adv-x="300" d="M103 -169L71 -105Q116 -82 138 -52T161 22Q158 21 152 21Q120 21 98 40T75 94Q75 132 96 154T152 176Q198 176 222 142T246 45Q246 -99 103 -169Z" />
<glyph unicode="&#x201c;" glyph-name="quotedblleft" horiz-adv-x="537" d="M149 338Q103 338 79 373T55 469Q55 540 90 594T197 683L229 619Q184 597 162 567T139 492Q141 493 144 493T149 493Q181 493 203 474T226 420Q226 383 204 361T149 338ZM386 338Q340
338 316 373T292 469Q292 540 327 594T434 683L466 619Q421 597 399 567T376 492Q378 493 381 493T386 493Q418 493 440 474T463 420Q463 383 441 361T386 338Z" />
<glyph unicode="&#x201d;" glyph-name="quotedblright" horiz-adv-x="537" d="M103 352L71 416Q116 439 138 469T161 543Q158 542 152 542Q120 542 98 561T75 615Q75 653 96 675T152 697Q198 697 222 663T246 566Q246 422 103 352ZM340 352L308 416Q353 439 375
469T398 543Q395 542 389 542Q357 542 335 561T312 615Q312 653 333 675T389 697Q435 697 459 663T483 566Q483 422 340 352Z" />
<glyph unicode="&#x201e;" glyph-name="quotedblbase" horiz-adv-x="537" d="M103 -169L71 -105Q116 -82 138 -52T161 22Q158 21 152 21Q120 21 98 40T75 94Q75 132 96 154T152 176Q198 176 222 142T246 45Q246 -99 103 -169ZM340 -169L308 -105Q353 -82 375 -52T398
22Q395 21 389 21Q357 21 335 40T312 94Q312 132 333 154T389 176Q435 176 459 142T483 45Q483 -99 340 -169Z" />
<glyph unicode="&#x2022;" glyph-name="bullet" horiz-adv-x="345" d="M172 123Q135 123 105 141T58 191T40 262Q40 302 57 333T105 383T172 401Q210 401 240 383T287 334T305 262Q305 223 288 192T240 142T172 123Z" />
<glyph unicode="&#x2039;" glyph-name="guilsinglleft" horiz-adv-x="292" d="M183 56L49 200V304L183 448L238 404L127 252L238 100L183 56Z" />
<glyph unicode="&#x203a;" glyph-name="guilsinglright" horiz-adv-x="292" d="M109 56L54 100L165 252L54 404L109 448L243 304V200L109 56Z" />
</font>
</defs>
</svg>
