<?xml version="1.0" standalone="no"?>
<!DOCTYPE svg PUBLIC "-//W3C//DTD SVG 1.1//EN" "http://www.w3.org/Graphics/SVG/1.1/DTD/svg11.dtd">
<svg xmlns="http://www.w3.org/2000/svg">
<defs >
<font id="EBGaramond" horiz-adv-x="528" ><font-face
    font-family="EB Garamond"
    units-per-em="1000"
    panose-1="0 0 0 0 0 0 0 0 0 0"
    ascent="1007"
    descent="-298"
    alphabetic="0" />
<glyph unicode=" " horiz-adv-x="200" />
<glyph unicode="!" horiz-adv-x="250" d="M123 205Q116 205 112 213T105 244Q101 287 96 337T88 438T82 529T79 594Q79 616 92 632T126 649Q146 649 158 633T171 594Q171 570 168 529T161 438T151 337T141 244Q140 228 136 217T123 205ZM125 -14Q100 -14 83 3T65
46Q65 71 82 88T125 106Q150 106 167 89T185 46Q185 21 168 4T125 -14Z" />
<glyph unicode="&quot;" horiz-adv-x="330" d="M72 444Q68 444 67 452T65 467Q66 483 66 497T66 524Q66 542 65 564T63 603T62 620Q62 631 68 640T81 655Q93 665 102 670T124 676Q132 676 135 667T138 644Q138 618 130 584T110 519T91 469Q87 460 82 452T72 444ZM202
444Q198 444 197 452T195 467Q196 483 196 497T196 524Q196 542 195 564T193 603T192 620Q192 631 198 640T211 655Q223 665 232 670T254 676Q262 676 265 667T268 644Q268 618 260 584T240 519T221 469Q217 460 212 452T202 444Z" />
<glyph unicode="#" horiz-adv-x="468" d="M60 -79Q56 -79 53 -75T50 -67V-64L94 113L31 110Q26 110 22 113T17 122Q17 127 18 138T25 160T41 170L108 173L142 311L78 308Q73 308 69 311T64 320Q64 325 65 336T72 358T88 368L157 371L199 542Q201 553 211 556T232
559Q236 559 238 556T240 547Q240 546 240 545T239 542L198 373L311 379L354 553Q356 564 366 567T387 570Q391 570 393 567T395 558Q395 557 395 556T394 553L352 381L411 384Q416 384 420 381T424 373Q424 368 421 357T411 335T393 324L337 321L303 183L364 186Q369
186 373 183T377 174Q377 169 374 158T364 137T346 126L288 123L245 -53Q243 -63 234 -65T215 -68Q211 -68 208 -64T205 -56V-53L248 121L134 115L90 -64Q88 -74 79 -76T60 -79ZM149 175L263 181L296 319L183 313L149 175Z" />
<glyph unicode="$" horiz-adv-x="441" d="M171 -82Q165 -82 160 -77T156 -62L165 9Q166 14 163 16T158 18Q130 23 106 34T61 61Q58 65 55 69T49 79Q44 98 43 126T40 174Q40 186 58 186Q63 186 67 184T73 176Q87 127 110 99T161 60Q164 59 167 59T170 62L197 291Q198
295 196 299T185 308Q153 327 123 349T75 399T56 466Q56 509 75 545T134 605T232 632Q242 632 242 638L249 695Q251 705 259 708T278 712Q283 712 287 707T291 697Q291 692 289 680T286 655T284 637Q284 631 290 630Q310 626 326 621T353 610Q361 608 366 602T373
588Q378 569 385 545T392 499Q392 493 388 491T378 489Q369 489 361 492T351 501Q337 535 320 556T279 588Q275 588 275 583L251 385Q250 379 251 377T263 367Q296 348 327 325T378 271T398 194Q398 118 348 70T214 16Q206 16 205 9L196 -67Q195 -75 187 -78T171
-82ZM219 53Q263 56 291 83T319 158Q319 204 299 228T243 274Q236 278 236 269L211 63Q211 53 219 53ZM203 404Q212 400 212 405L234 587Q234 595 227 595Q188 592 161 571T134 497Q134 469 153 447T203 404Z" />
<glyph unicode="%" horiz-adv-x="650" d="M142 263Q100 263 72 289T30 356T15 438Q15 483 32 523T83 589T160 615Q201 615 228 591T270 528T285 449Q285 404 269 361T220 291T142 263ZM153 285Q186 285 201 309T221 368T225 437Q225 471 220 506T199 565T149 590Q118
590 102 568T81 513T75 449Q75 422 77 394T87 341T110 301T153 285ZM502 648Q509 659 518 662T541 665Q546 665 550 661T555 652Q555 649 554 648L116 -47Q110 -57 101 -59T80 -62Q74 -62 69 -58T63 -50Q63 -48 64 -47L502 648ZM492 -17Q450 -17 422 9T380 76T365
158Q365 203 382 243T433 309T510 335Q551 335 578 311T620 248T635 169Q635 124 619 81T570 11T492 -17ZM503 5Q536 5 551 29T571 88T575 157Q575 191 570 226T549 285T499 310Q468 310 452 288T431 233T425 169Q425 142 427 114T437 61T460 21T503 5Z" />
<glyph unicode="&amp;" horiz-adv-x="756" d="M212 -15Q161 -15 122 3T60 54T38 127Q38 207 85 258T205 342L225 351L210 367Q201 378 186 394T158 432T145 484Q145 519 165 545T218 585T284 599Q327 599 355 580T397 532T411 477Q412 439 384 411T306 365L292
360L305 346Q343 305 374 275T435 201L447 183L465 202Q489 228 514 260T557 318T575 352Q575 358 568 368T547 380Q545 381 540 385T535 391Q535 399 544 400T557 402Q560 402 574 401T605 399T628 397Q643 397 661 400T695 408T724 412Q726 412 731 409T736 403Q736
397 727 391T711 384Q688 383 669 374T638 353Q634 350 615 330T570 283T518 228T476 183T459 165L476 141Q508 95 539 68T608 40Q629 40 648 44T686 58Q690 60 694 61T703 63Q710 63 712 61T715 51Q715 43 694 27T644 -2T586 -15Q549 -15 524 -3T479 35T432 101L419
122L413 116Q382 82 354 52T292 4T212 -15ZM238 50Q288 50 324 71T398 131L407 140L395 159Q370 197 333 236T252 321L240 334L219 326Q173 308 151 281T122 222T115 160Q115 114 149 82T238 50ZM279 376L292 382Q320 395 333 423T347 482Q347 517 331 545T279
573Q249 573 226 555T203 509Q203 489 207 473T224 439T263 393L279 376Z" />
<glyph unicode="&apos;" horiz-adv-x="200" d="M72 444Q68 444 67 452T65 467Q66 483 66 497T66 524Q66 542 65 564T63 603T62 620Q62 631 68 640T81 655Q93 665 102 670T124 676Q132 676 135 667T138 644Q138 618 130 584T110 519T91 469Q87 460 82 452T72 444Z" />
<glyph unicode="(" horiz-adv-x="315" d="M237 -214Q227 -214 220 -207Q199 -186 175 -147T126 -58T83 48T52 161T40 269Q40 333 57 397T101 518T158 621T216 694Q221 699 228 702T243 705Q248 705 256 701T265 689Q265 688 262 684T256 676T252 670Q222 635 192
576T143 442T123 281Q123 217 134 149T163 17T203 -96T249 -173Q250 -174 253 -178T260 -186T264 -192Q264 -202 256 -208T237 -214Z" />
<glyph unicode=")" horiz-adv-x="315" d="M78 -214Q68 -214 60 -208T51 -192Q51 -191 54 -187T62 -178T66 -173Q89 -146 111 -97T152 16T181 148T192 281Q192 366 173 441T124 576T63 670Q62 671 59 675T53 684T50 689Q50 696 58 700T72 705Q80 705 87 702T99
694Q126 667 156 622T214 519T258 397T275 269Q275 218 264 162T233 49T189 -58T141 -147T95 -207Q88 -214 78 -214Z" />
<glyph unicode="*" horiz-adv-x="340" d="M184 372Q177 372 173 377T167 390L154 482Q137 470 118 458T75 432Q73 430 70 429T64 428Q58 428 52 431T46 442Q46 450 55 459L128 517Q109 526 89 536T46 559Q41 561 38 566T34 577Q34 588 43 590T59 590Q83 580 105
572T146 555Q144 576 143 599T140 648Q140 656 144 663T157 670Q164 670 168 665T174 652L187 560Q204 572 224 584T266 610Q268 612 271 613T277 614Q283 614 289 611T295 600Q295 592 286 583L213 525Q233 516 252 507T295 483Q300 481 303 476T307 465Q307 455
298 453T282 452Q258 463 237 471T195 487Q197 466 198 443T201 394Q201 386 197 379T184 372Z" />
<glyph unicode="+" horiz-adv-x="590" d="M282 -8Q278 -8 274 -4T270 6V217Q270 222 266 222H64Q59 222 55 226T50 234Q50 239 52 248T60 264T74 272H263Q268 272 269 274T270 280V451Q270 462 280 469T301 479T316 482Q321 482 325 478T330 469V278Q330 272 332
272H537Q542 272 546 270T550 262Q550 249 542 236T519 222H334Q330 222 330 218V16Q330 6 320 1T299 -6T282 -8Z" />
<glyph unicode="," horiz-adv-x="230" d="M38 -147Q20 -147 20 -136Q20 -132 23 -129T34 -124Q56 -119 78 -107T115 -73T130 -15Q130 -3 119 12T91 29Q69 31 57 43T44 71Q44 91 60 104T99 117Q135 117 158 90T182 20Q182 -18 167 -48T129 -101T82 -135T38 -147Z" />
<glyph unicode="-" horiz-adv-x="274" d="M35 170Q29 170 29 176Q29 193 33 211T45 230Q93 237 141 243T237 255Q240 255 242 254T245 249Q245 230 241 214T224 195Q179 188 133 182T35 170Z" />
<glyph unicode="." horiz-adv-x="230" d="M115 -14Q93 -14 77 2T60 41Q60 64 76 80T115 96Q138 96 154 80T170 41Q170 19 154 3T115 -14Z" />
<glyph unicode="/" horiz-adv-x="399" d="M37 -62Q27 -62 23 -58T21 -47L318 648Q323 659 333 662T357 665Q367 665 370 660T370 648L73 -47Q69 -57 59 -59T37 -62Z" />
<glyph unicode="0" horiz-adv-x="480" d="M501 -14Q450 -14 413 14T350 88T313 191T301 302Q301 359 313 417T350 523T416 600T511 630Q562 630 599 602T662 528T699 426T711 316Q711 260 699 202T662 95T597 16T501 -14ZM518 12Q558 12 582 52T618 158T629 298Q629
354 621 408T595 506T552 576T492 602Q452 602 429 563T395 460T384 320Q384 264 392 209T417 110T459 39T518 12Z" />
<glyph unicode="1" horiz-adv-x="480" d="M107 -3Q100 -3 96 1T92 9Q92 18 107 22Q145 32 169 40T205 64T217 109V491Q217 510 205 520T174 534T133 539Q123 540 115 544T107 556Q107 563 114 568T132 574Q177 581 212 591T282 636Q283 637 284 637T287 637Q292
637 296 635T299 628Q297 613 296 596T295 557V97Q295 72 304 59T337 39T401 21Q407 20 412 17T418 8Q418 -3 404 -3Q376 -3 353 -2T307 1T257 2Q230 2 206 1T158 -1T107 -3Z" />
<glyph unicode="2" horiz-adv-x="480" d="M675 -3Q668 -3 653 -2T619 0T580 2T540 3Q521 3 486 2T413 1T345 -1T308 -2Q304 -2 296 4T288 15Q288 20 290 22T296 28L467 205Q517 257 550 321T583 452Q583 505 551 535T476 566Q435 566 400 544T344 485Q341 479
337 475T327 471Q323 471 318 479T312 501Q312 513 326 534T367 577T429 614T507 630Q557 630 593 609T648 551T667 465Q667 438 658 407T632 346T594 290Q581 274 556 248T501 191T445 135T401 91T384 71Q384 66 398 64Q415 63 436 62T486 61Q515 61 544 62T600
64Q629 66 645 69T672 81T695 111Q699 117 705 125T720 134Q725 134 726 130T727 122Q727 117 722 103T709 67T697 21Q694 5 687 1T675 -3Z" />
<glyph unicode="3" horiz-adv-x="480" d="M161 -38Q138 -38 112 -31T68 -13T50 5Q50 12 58 23T76 42T94 51Q105 51 114 45T133 31Q146 20 163 10T208 0Q245 0 278 19T332 71T354 146Q354 185 341 221T303 280T238 304Q227 304 209 302T173 289Q168 286 162 289T156
298Q160 311 168 319T186 332Q195 336 215 347T257 376T296 416T312 466Q312 507 286 538T218 570Q179 570 156 557T118 526T97 495T84 481Q80 481 74 487T68 500Q68 513 79 534T113 578T173 615T261 630Q294 630 323 616T372 576T391 516Q391 492 381 466T348
415T286 366Q283 365 283 363T287 360Q330 360 364 339T418 282T439 203Q439 147 415 103T351 27T262 -21T161 -38Z" />
<glyph unicode="4" horiz-adv-x="480" d="M210 -3Q205 -3 199 0T192 10Q192 15 198 18T210 22Q257 28 272 42T287 80V173Q287 178 280 180T272 182Q231 182 196 181T121 178T29 175Q25 175 22 178T19 185Q19 187 20 188Q33 204 39 210T49 221T59 235L323 614Q329
623 337 632T353 642H374Q379 642 376 635T372 628L102 240Q101 238 100 235T102 231H275Q279 231 283 233T287 239V394Q287 405 288 409T296 416Q311 424 328 426T352 429Q363 429 365 413T367 365V236Q367 230 372 230Q383 229 393 229T412 229Q426 229 440 229T471
231Q482 231 482 223Q482 215 478 206T468 191T461 185Q450 185 437 185T412 186Q403 186 395 186T381 184Q377 183 373 181T368 178V84Q368 55 381 44T435 22Q441 21 447 17T453 8Q453 4 449 1T438 -3Q410 -3 394 -2T363 1T325 2Q300 2 285 1T253 -1T210 -3Z"
/>
<glyph unicode="5" horiz-adv-x="480" d="M109 -38Q98 -38 85 -36T72 -26Q72 -18 85 -13T108 -7Q187 -7 238 21T315 93T341 179Q341 218 318 248T243 303T101 351Q88 362 83 373T77 397Q77 411 82 431T96 473T112 518T125 556Q130 571 140 579T166 592Q189 598
213 603T263 612T316 620T373 627Q381 628 384 623T384 610Q380 602 376 594T367 577Q360 562 352 555T330 545Q311 543 286 541T236 536T190 531T158 527Q151 526 141 510T123 475T114 448Q113 441 115 436T127 429Q183 413 229 397T309 362Q365 333 392 294T420
193Q420 138 387 90T298 10Q271 -5 241 -15T178 -32T109 -38Z" />
<glyph unicode="6" horiz-adv-x="480" d="M252 -16Q201 -16 154 7T77 76T47 193Q47 249 60 295T93 376T133 437T168 477Q193 503 232 535T322 596T435 641Q444 643 449 640T453 634Q449 625 441 621T427 614Q360 585 312 548T225 456Q209 432 187 391T149 298T133
195Q134 140 156 102T210 43T276 22Q317 21 348 50T379 142Q379 173 368 199T336 243T288 260Q262 260 244 257T208 245Q199 241 198 245T201 256Q209 264 214 269T228 280Q239 288 268 300T326 313Q361 313 390 297T438 254T457 190Q457 143 439 105T391 40T325
-1T252 -16Z" />
<glyph unicode="7" horiz-adv-x="480" d="M127 -32Q116 -32 111 -25T106 -6Q106 -3 113 10T127 35L410 541Q412 544 412 547T400 551H144Q120 551 102 542T67 505Q65 502 62 496T53 485T43 480Q39 480 38 485T36 494Q36 499 37 505T40 516Q45 538 49 567T56 615Q57
622 60 624T66 626Q68 626 93 622T150 617Q165 617 178 617T209 617T249 616Q298 616 347 616T433 618T479 621Q481 621 483 617T485 608Q485 600 478 587T461 560T447 538L146 -5Q142 -13 136 -22T127 -32Z" />
<glyph unicode="8" horiz-adv-x="480" d="M242 -14Q196 -14 156 5T90 60T65 141Q65 185 88 216T142 267T199 302Q206 306 204 308T196 315Q166 341 140 364T97 417T80 489Q80 528 107 560T176 611T262 630Q302 630 338 614T398 567T421 496Q421 460 403 438T368
400Q354 388 343 380T315 358Q302 349 302 346T310 337Q348 311 377 286T422 232T439 164Q439 112 410 72T336 9T242 -14ZM256 15Q300 15 329 47T359 124Q359 155 342 183T297 235T241 280Q235 285 231 287T221 290Q217 290 209 284Q177 258 161 232T145 157Q145
122 158 90T196 36T256 15ZM288 358Q323 387 333 422T344 503Q344 545 323 575T257 606Q234 606 211 593T173 558T157 509Q157 471 171 449T212 409T274 361Q277 359 281 358T288 358Z" />
<glyph unicode="9" horiz-adv-x="480" d="M67 -31Q59 -31 56 -29T53 -23Q53 -18 57 -16T67 -13Q97 -13 136 6T216 59T289 134Q321 176 340 216T369 298T378 389Q378 425 367 461T336 527T291 575T238 593Q206 593 184 576T151 533T140 482Q140 452 154 423T193
376T243 357Q274 357 289 365T323 383Q327 385 329 380T330 372Q325 362 315 353T297 337Q290 332 275 324T242 310T205 304Q171 304 139 320T86 365T65 430Q65 464 80 499T122 563T188 611T271 629Q307 629 341 610T403 558T447 484T463 400Q463 338 446 286T397
185T319 87Q292 57 259 35T192 -2T126 -24T67 -31Z" />
<glyph unicode=":" horiz-adv-x="248" d="M125 262Q103 262 87 278T70 317Q70 340 86 356T125 372Q148 372 164 356T180 317Q180 295 164 279T125 262ZM125 -14Q103 -14 87 2T70 41Q70 64 86 80T125 96Q148 96 164 80T180 41Q180 19 164 3T125 -14Z" />
<glyph unicode=";" horiz-adv-x="228" d="M105 263Q83 263 67 279T50 318Q50 341 66 357T105 373Q128 373 144 357T160 318Q160 296 144 280T105 263ZM38 -147Q20 -147 20 -136Q20 -132 23 -129T34 -124Q56 -119 78 -107T115 -73T130 -15Q130 -3 119 12T91 29Q69
31 57 43T44 71Q44 91 60 104T99 117Q135 117 158 90T182 20Q182 -18 167 -48T129 -101T82 -135T38 -147Z" />
<glyph unicode="&lt;" horiz-adv-x="560" d="M487 -2L94 195Q81 201 67 209T53 222Q53 229 62 245T86 268L489 466Q494 469 497 469Q502 469 504 467T506 459Q506 450 498 433T475 408L132 234Q130 233 130 232T133 229L483 55Q497 48 502 31T507 7Q507 -3 500
-3T487 -2Z" />
<glyph unicode="=" horiz-adv-x="566" d="M64 314Q59 314 55 318T50 326Q50 331 52 340T60 356T74 364H502Q507 364 511 361T516 353Q516 343 506 329T484 314H64ZM64 143Q59 143 55 147T50 155Q50 160 52 169T60 185T74 193H502Q507 193 511 190T516 182Q516
169 506 156T484 143H64Z" />
<glyph unicode="&gt;" horiz-adv-x="560" d="M73 467L466 270Q479 264 493 256T507 243Q507 236 498 221T474 197L71 -1Q67 -4 63 -4Q59 -4 57 -1T54 6Q54 15 62 32T85 57L428 231Q430 232 430 233T427 236L77 410Q63 417 58 434T53 458Q53 468 60 468T73 467Z" />
<glyph unicode="?" horiz-adv-x="376" d="M136 181Q131 181 124 189T114 210Q110 226 104 244T98 297Q98 323 125 343T199 387Q220 398 240 417T260 458Q260 508 235 540T159 573Q152 573 147 573T136 571Q131 570 126 570T112 569Q102 569 92 577T76 599T70 625Q70
639 83 650T110 661Q135 661 164 649T218 611Q246 583 267 548T299 478T311 418Q311 381 298 362T269 334Q247 322 234 315T210 301T183 283Q162 270 157 249T151 204Q151 197 148 189T136 181ZM150 -14Q125 -14 108 3T90 46Q90 71 107 88T150 106Q175 106 192
89T210 46Q210 21 193 4T150 -14Z" />
<glyph unicode="@" horiz-adv-x="749" d="M382 -131Q315 -131 255 -109T149 -44T77 55T50 181Q50 261 79 322T160 424T277 486T414 507Q470 507 521 486T612 427T675 340T699 235Q699 177 670 135T593 70T492 47Q472 47 462 56T448 75T438 84Q433 84 418 75T378
57T322 47Q273 47 239 75T204 156Q204 217 234 261T312 330T415 355Q430 355 450 353T480 347Q491 343 495 342T503 341Q508 341 512 346T519 355T528 360Q530 360 535 359T544 356T546 352Q539 334 533 309T524 272L503 140Q502 133 501 127T500 113Q500 102 504
93T518 84Q553 84 583 100T633 148T652 220Q652 290 617 345T523 434T394 467Q335 467 282 448T187 393T121 305T97 191Q97 131 120 80T185 -9T280 -69T393 -91Q426 -91 464 -81T539 -53T600 -14Q605 -10 609 -7T618 -4Q632 -4 632 -17Q632 -26 609 -44T548 -83T467
-117T382 -131ZM358 81Q376 81 389 87T418 103Q427 109 434 119T445 152L464 255Q465 258 465 261T465 267Q465 295 445 310T393 325Q365 325 338 308T293 258T275 175Q275 139 288 119T320 90T358 81Z" />
<glyph unicode="A" horiz-adv-x="692" d="M27 -5Q14 -5 6 -2T-2 8Q-2 15 6 20T31 31Q57 39 79 55T117 108Q145 172 168 228T213 338T256 450T304 578Q309 592 313 606T318 636Q327 639 336 642T354 651Q363 657 366 669T373 685Q374 686 375 686T378 684Q380 680
381 674T385 662Q409 586 435 507T485 355T530 223T563 128Q577 88 593 68T626 40T664 28Q681 25 689 19T697 5Q697 -1 689 -3T668 -5Q654 -5 630 -4T579 -1T529 1Q510 1 490 1T453 1T424 0Q411 0 403 3T395 12Q395 19 405 24T428 31Q461 36 475 48T489 76Q489
91 483 119T467 180T450 238Q448 246 443 247T423 249H234Q230 249 226 246T217 231Q214 221 207 200T193 154T181 111T176 87Q176 65 193 51T234 30Q267 21 267 10Q267 4 259 2T238 -1Q225 -1 200 0T147 1Q114 1 83 -2T27 -5ZM261 282H416Q430 282 430 287Q430
289 430 291T428 297L350 541Q344 559 341 559Q339 559 333 542L242 297Q240 291 240 289Q240 284 245 283T261 282Z" />
<glyph unicode="B" horiz-adv-x="587" d="M48 -5Q35 -5 27 -3T19 6Q19 18 52 24Q90 31 110 47T130 99V549Q130 585 115 602T63 622Q46 624 38 629T30 642Q30 648 38 650T59 653Q86 653 101 653T129 653T163 652Q182 652 196 653T227 656T274 657Q391 657 448 624T506
508Q506 474 495 449T472 412Q456 396 443 388T405 369Q401 368 401 365T405 359Q428 352 452 341T498 313T533 267T547 194Q547 139 530 107T488 58T443 30Q412 14 371 5T273 -4Q260 -4 234 -2T178 0Q152 0 134 -1T97 -3T48 -5ZM287 37Q331 37 369 57T430 111T453
189Q453 228 440 253T410 295T379 318Q366 326 338 334T265 343Q233 343 221 330T208 307V108Q208 66 228 52T287 37ZM254 371Q281 371 312 377T375 400Q386 406 403 429T420 495Q420 524 409 554T367 606T274 627Q233 627 221 616T208 582V408Q208 382 225 377T254
371Z" />
<glyph unicode="C" horiz-adv-x="710" d="M407 -15Q337 -15 272 9T156 77T76 184T46 323Q46 396 77 458T162 566T285 637T432 663Q471 663 498 660T550 652T610 637Q625 633 631 625T639 603Q641 580 644 554T648 488Q649 481 642 477T626 474T614 487Q604 525
591 552T552 598Q527 615 492 623T415 632Q357 632 308 609T223 545T167 453T147 347Q147 286 166 227T222 121T309 45T422 16Q494 16 541 49T621 141Q628 154 641 154T655 138Q655 130 651 113T641 76T628 41Q621 27 617 23T596 14Q559 -1 508 -8T407 -15Z" />
<glyph unicode="D" horiz-adv-x="754" d="M371 -7Q361 -7 327 -5T248 -2T163 0Q143 0 130 -1T101 -3T58 -5Q45 -5 37 -2T29 8Q29 16 37 18T62 24Q100 31 114 47T129 99V549Q129 585 115 600T62 622Q45 625 37 628T29 640Q29 647 37 650T58 653Q84 653 99 653T130
652T169 651Q185 651 209 652T260 655T308 658T340 659Q442 659 514 635T631 567T697 466T719 342Q719 270 692 207T617 96T506 20T371 -7ZM359 28Q437 28 497 66T590 171T624 325Q624 397 600 453T536 548T446 607T345 628Q302 628 272 626T225 610T209 567V121Q209
81 231 61T287 35T359 28Z" />
<glyph unicode="E" horiz-adv-x="564" d="M66 -5Q53 -5 45 -3T37 6Q37 18 70 24Q108 31 126 47T144 99V549Q144 585 130 600T77 622Q60 625 52 630T44 642Q44 648 52 650T73 653Q111 653 137 652T189 651T250 650Q283 650 319 650T387 651Q421 652 444 652T472
653Q477 653 483 651T490 644Q495 616 500 589T505 541Q505 532 501 529T491 526Q486 526 484 528T480 536Q475 553 470 568T458 591Q444 607 427 612T391 618H260Q252 618 238 609T224 586V374Q224 365 229 359T242 352H341Q370 352 381 362T399 401Q405 423 417
423Q421 423 425 419T430 407Q430 403 430 389T428 360T427 337Q427 327 427 311T428 279T429 260Q429 253 428 248T420 243Q405 243 397 275Q391 298 381 309T351 320H258Q241 320 233 316T224 294V102Q224 64 240 50T290 35H364Q396 35 417 38T455 52Q471 63
483 81T512 129Q515 135 519 139T528 142Q533 141 536 138T539 128Q539 119 534 97T522 50T508 12Q505 5 503 0T494 -5Q446 -5 405 -4T327 -2T255 0T181 1Q159 1 143 0T110 -3T66 -5Z" />
<glyph unicode="F" horiz-adv-x="512" d="M59 -5Q46 -5 38 -3T30 6Q30 18 63 24Q101 31 115 47T130 100V522Q130 567 119 591T69 622Q52 625 44 630T36 642Q36 648 44 650T65 653Q102 653 127 652T178 651T237 650Q266 650 299 650T363 650Q395 650 419 655T462
660Q467 660 473 658T480 651Q482 640 483 619T484 577T485 550Q485 529 476 529Q471 529 467 532T461 541Q457 558 451 570T438 590Q424 606 407 611T371 617H244Q221 617 216 602T210 567Q209 548 209 521T209 467Q209 442 209 416T210 372Q210 364 211 357T220
350Q252 350 285 351T336 353Q358 353 374 365T397 394Q399 398 405 404T415 411Q419 411 424 407T428 395Q427 378 426 365T425 340Q425 325 426 310T428 272Q428 265 427 260T419 255Q409 255 404 264T396 278Q389 301 375 309T349 318Q336 318 324 318T299 319Q282
319 266 319T234 317Q224 316 217 311T210 292Q210 246 210 199T213 101Q215 69 228 50T279 24Q296 21 304 17T312 6Q312 0 304 -2T283 -5Q256 -5 242 -3T216 0T185 2Q161 2 143 1T105 -3T59 -5Z" />
<glyph unicode="G" horiz-adv-x="729" d="M392 -14Q323 -14 261 10T150 79T73 182T45 311Q45 385 74 449T154 561T271 636T413 663Q430 663 459 660T520 651T577 641T613 630Q618 628 619 626T622 618Q626 589 629 561T632 512Q632 505 628 499T617 492Q607 492
602 501T594 519Q588 535 582 546T563 572Q557 580 538 592T485 615T404 625Q346 625 298 601T216 534T163 437T144 324Q144 253 166 197T225 102T309 43T406 23Q464 23 491 37T528 60Q539 71 548 91T558 137Q558 146 558 156T559 176T560 195Q560 206 559 213T555
225Q547 236 527 243T487 253T457 256Q453 256 445 261T437 273Q437 281 445 285T457 290Q482 290 500 289T537 287T583 286Q609 286 627 288T672 290Q676 290 684 287T693 274Q693 267 685 262T672 256Q650 250 642 239T630 207Q627 185 626 168T625 132V105Q625
100 627 97T631 89Q634 84 639 80T644 72Q644 68 643 62T630 53Q623 52 603 42T551 18T480 -4T392 -14Z" />
<glyph unicode="H" horiz-adv-x="810" d="M66 -5Q53 -5 45 -2T37 8Q37 18 69 24Q107 31 118 47T130 99V551Q130 586 123 600T77 622Q44 628 44 640Q44 646 51 649T73 653Q100 653 115 652T143 651T176 650Q197 650 210 650T239 652T282 653Q311 653 311 640Q311
633 303 629T278 622Q241 615 226 598T210 551V354Q210 348 215 347T224 345H595Q602 345 602 357V552Q602 579 588 597T536 622Q519 625 511 629T503 640Q503 653 532 653Q559 653 576 652T610 651T648 650Q666 650 676 650T699 652T739 653Q753 653 760 650T768
640Q768 628 735 622Q698 615 690 598T682 552V100Q682 63 691 47T738 24Q770 18 770 8Q770 2 762 -1T741 -5Q714 -5 699 -4T671 -1T637 0Q616 0 603 -1T573 -3T530 -5Q517 -5 509 -2T501 8Q501 15 508 18T533 24Q565 30 583 47T602 97V292Q602 297 602 302T597
307H215Q210 307 210 296V106Q210 75 233 53T290 24Q307 21 314 18T322 8Q322 2 314 -1T293 -5Q266 -5 249 -4T215 -1T176 0Q155 0 141 -1T110 -3T66 -5Z" />
<glyph unicode="I" horiz-adv-x="340" d="M48 -5Q35 -5 27 -3T19 6Q19 18 52 24Q90 31 110 47T130 98V550Q130 585 116 600T63 622Q30 628 30 642Q30 648 38 650T59 653Q86 653 103 652T137 651T176 650Q198 650 212 650T242 652T285 653Q298 653 306 651T314
642Q314 635 306 630T281 622Q244 615 227 600T210 550V98Q210 63 231 47T289 24Q306 21 314 17T322 6Q322 0 314 -2T293 -5Q266 -5 249 -4T215 -1T176 0Q151 0 133 -1T95 -3T48 -5Z" />
<glyph unicode="J" horiz-adv-x="340" d="M34 -200Q-69 -200 -69 -151Q-69 -134 -55 -119T-30 -104Q-17 -104 -5 -109T17 -129Q30 -145 40 -152T64 -159Q99 -159 114 -117T130 -1V551Q130 586 115 600T64 622Q31 628 31 642Q31 648 39 650T60 653Q87 653 104 652T138
651T177 650Q196 650 206 650T230 652T271 653Q284 653 292 651T300 642Q300 635 292 630T267 622Q230 615 220 601T210 551V47Q210 5 197 -32T166 -98T131 -146Q111 -170 87 -185T34 -200Z" />
<glyph unicode="K" horiz-adv-x="681" d="M60 -5Q47 -5 39 -3T31 6Q31 18 64 24Q102 31 116 47T131 101V551Q131 586 117 600T64 622Q31 628 31 642Q31 648 39 650T60 653Q87 653 103 653T135 652T172 651Q191 651 202 651T228 652T269 653Q282 653 290 651T298
642Q298 635 290 630T265 622Q228 615 220 598T211 551V364Q211 360 211 353T216 345Q221 345 229 351T243 363L443 567Q451 575 454 582T458 597Q458 615 439 620Q422 625 415 629T408 640Q408 646 416 648T437 651H491Q520 651 555 652T618 654T653 655Q663 655
669 652T675 644Q675 637 667 632T642 624Q605 617 565 602T490 558Q454 528 424 500T363 441T298 371Q292 365 303 353L545 95Q567 71 580 58T610 38T655 24Q672 20 680 17T688 6Q688 0 680 -2T659 -5Q630 -5 609 -4T568 -1T520 0Q501 0 487 0T439 -1Q426 -1 418
1T410 10Q410 21 437 27Q465 34 465 47Q465 53 461 59T450 72L238 306Q232 312 226 317T215 323Q211 323 211 315T211 302Q211 255 212 213T216 110Q217 89 222 71T241 41T280 24Q297 21 305 17T313 6Q313 0 305 -2T284 -5Q257 -5 243 -3T217 0T186 2Q162 2 144
1T106 -3T60 -5Z" />
<glyph unicode="L" horiz-adv-x="584" d="M55 -5Q42 -5 35 -2T27 7Q27 16 36 19T49 24Q88 32 109 47T130 96V560Q130 584 125 595T107 612T69 622Q36 628 36 642Q36 648 44 650T65 653Q92 653 108 652T140 651T177 650Q202 650 220 650T257 652T303 653Q316 653
324 651T332 642Q332 635 324 630T299 622Q262 615 236 606T210 567V96Q210 65 224 50T287 35H411Q438 35 458 43T489 61Q509 78 518 91T541 132Q543 138 549 150T563 162Q569 162 572 156T575 144Q575 143 575 142T574 139Q567 113 562 92T553 52T547 12Q546 5
544 0T533 -5Q483 -5 437 -4T349 -3T267 -1T190 0Q165 0 134 -1T79 -3T55 -5Z" />
<glyph unicode="M" horiz-adv-x="901" d="M48 -5Q35 -5 27 -3T19 6Q19 13 27 17T52 24Q77 29 93 48T114 102Q126 192 135 273T149 420T155 528Q155 536 155 545T154 561Q153 569 151 577T139 594Q121 609 104 614T64 624Q54 626 48 631T42 644Q42 652 51 653T76
655Q86 655 106 654T151 651T195 648T226 647Q233 647 238 643T245 631Q250 613 255 593T267 554L425 153Q428 146 436 145T448 150L645 560Q650 577 655 598T663 635Q666 648 673 648H709Q739 648 772 652T823 656Q828 656 836 655T844 646Q844 639 839 635T818
625Q805 620 789 614T759 602Q749 598 742 589T735 568Q735 498 737 437T743 319T750 207T757 95Q759 64 777 48T832 24Q849 21 857 17T865 6Q865 0 857 -2T836 -5Q809 -5 792 -4T758 -1T719 0Q699 0 686 -1T657 -3T614 -5Q601 -5 593 -3T585 6Q585 13 593 17T618
24Q647 28 658 44T669 96Q669 168 668 226T663 340T657 464Q656 475 651 475T641 464L411 -5Q409 -10 402 -10T393 -4Q354 113 310 226T209 471Q207 476 202 476T196 471Q187 401 180 343T168 227T164 102Q164 75 181 53T229 24Q246 21 254 17T262 6Q262 0 254
-2T233 -5Q206 -5 193 -4T169 -1T139 0Q121 0 111 -1T88 -3T48 -5Z" />
<glyph unicode="N" horiz-adv-x="792" d="M668 -17Q659 -17 633 -2T582 46Q578 51 558 76T506 138T437 220T363 308T294 389T241 452T214 484Q207 493 202 496T193 500Q188 500 186 493T184 479Q183 430 182 366T180 234T179 104Q179 77 192 54T243 24Q260 21
268 17T276 6Q276 0 268 -2T247 -5Q220 -5 207 -4T183 -1T153 0Q135 0 125 -1T102 -3T62 -5Q49 -5 41 -3T33 6Q33 13 41 17T66 25Q95 33 108 54T124 107Q128 145 132 207T139 347T142 507Q142 560 115 583T43 620Q39 622 26 628T12 644Q12 653 21 655T35 658Q64
657 82 657T114 655T145 654T189 653Q198 653 203 648T213 636Q217 630 239 603T295 534T369 444T449 347T523 257T579 188T606 156Q610 152 617 144T631 136Q640 136 641 157Q641 171 641 210T642 306T643 429T643 564Q642 584 622 600T585 619Q568 622 554 627T540
639Q540 645 554 647T581 650Q591 650 600 650T619 650T638 650Q662 650 676 650T706 652T753 653Q766 653 774 651T782 642Q782 628 749 622Q712 615 700 604T686 568Q686 563 686 529T685 443T685 331T684 212T684 105Q684 81 685 62T688 29T689 8Q689 -8 683
-12T668 -17Z" />
<glyph unicode="O" horiz-adv-x="763" d="M377 -14Q311 -14 251 9T145 76T72 180T45 315Q45 383 67 445T132 557T239 635T386 664Q452 664 512 641T618 574T691 470T718 335Q718 268 696 205T631 93T524 15T377 -14ZM392 26Q469 26 520 58T596 149T622 286Q622
355 606 416T559 523T480 596T370 622Q295 622 244 590T167 501T141 365Q141 295 156 234T203 126T282 53T392 26Z" />
<glyph unicode="P" horiz-adv-x="552" d="M53 -5Q40 -5 32 -3T24 6Q24 18 57 24Q95 31 112 47T130 100V522Q130 567 119 591T69 622Q52 625 44 630T36 642Q36 648 44 650T65 653Q92 653 105 653T131 653T163 652Q183 652 203 653T242 656T274 658Q388 658 457
611T527 480Q527 419 503 368T430 285T303 254Q281 254 270 260T258 273Q258 277 263 282T274 287Q279 287 289 286T320 285Q380 285 410 335T441 473Q441 553 394 591T274 630Q246 630 228 621T210 588V111Q210 75 225 53T277 24Q294 21 302 17T310 6Q310 0 302
-2T281 -5Q254 -5 240 -3T214 0T183 2Q158 2 139 1T100 -3T53 -5Z" />
<glyph unicode="Q" horiz-adv-x="763" d="M744 -248Q672 -248 622 -228T523 -173Q484 -145 449 -120T365 -54Q330 -25 301 -13T250 10Q209 29 172 56T107 120T62 205T45 315Q45 383 67 445T132 557T239 635T386 664Q452 664 512 641T618 574T691 470T718 335Q718
259 691 190T609 70T475 -2Q467 -4 467 -9Q467 -14 471 -18Q500 -49 530 -75T598 -129Q648 -165 691 -178T793 -192Q811 -192 826 -190T849 -185Q854 -183 859 -182T868 -181Q879 -181 879 -189Q879 -198 876 -203T861 -215Q833 -232 803 -240T744 -248ZM392 26Q507
26 564 97T622 286Q622 355 606 416T559 523T480 596T370 622Q257 622 199 552T141 365Q141 295 156 234T203 126T282 53T392 26Z" />
<glyph unicode="R" horiz-adv-x="713" d="M637 -21Q609 -21 584 -17T538 0T499 33Q475 63 453 90T407 154T347 246Q332 271 304 285Q282 296 261 300T225 306Q217 307 214 301T210 286V110Q210 78 225 55T277 24Q294 21 302 17T310 6Q310 0 302 -2T281 -5Q254
-5 240 -3T214 0T183 2Q158 2 139 1T100 -3T53 -5Q40 -5 32 -3T24 6Q24 18 57 24Q95 31 112 47T130 100V526Q130 564 127 583T111 611T69 622Q52 624 44 629T36 642Q36 648 44 650T65 653Q92 653 105 653T131 653T163 652Q182 652 197 653T230 656T278 657Q388
657 445 616T503 493Q503 448 485 416T440 361T385 325Q381 324 381 321T385 312Q416 265 444 223T507 141T588 58Q614 35 641 30T703 25Q718 25 718 14Q718 -1 703 -8T669 -18T637 -21ZM263 329Q309 329 342 350T394 405T413 477Q413 518 403 552T361 606T266
627Q234 627 224 607T212 534Q211 509 211 467T210 364Q210 339 224 334T263 329Z" />
<glyph unicode="S" horiz-adv-x="465" d="M204 -16Q162 -16 127 -4T63 32Q59 36 56 41T50 52Q45 72 44 104T40 157Q40 164 46 167T60 171Q65 171 70 169T76 160Q96 83 135 50T218 17Q253 17 280 32T322 74T338 139Q338 180 325 205T286 250T225 291Q186 316 148
341T85 400T60 482Q60 533 83 574T152 639T269 664Q305 664 331 657T374 642Q382 639 387 632T395 617Q401 596 408 569T415 518Q415 507 400 507Q391 507 383 511T372 521Q351 574 323 602T252 630Q222 630 196 619T154 583T137 516Q137 486 156 462T208 415T277
370Q312 349 345 324T400 265T422 180Q422 121 395 77T319 8T204 -16Z" />
<glyph unicode="T" horiz-adv-x="670" d="M214 -5Q201 -5 193 -3T185 6Q185 13 193 17T218 24Q256 31 276 48T296 102V490Q296 536 294 560T288 595T275 606Q261 609 246 609T204 610H157Q133 610 110 601T75 571Q72 566 65 557T50 540T34 533Q30 533 29 537T27
546Q27 556 32 566Q46 595 52 617T63 671Q65 688 70 691T80 694Q84 694 92 682T105 662Q111 652 132 647T175 642H527Q562 642 584 646T622 657Q634 663 641 670T661 677Q664 677 666 670T668 654Q668 649 667 640T664 626Q661 608 659 600T655 586T654 567V555Q654
546 650 535T638 523Q631 523 627 534T619 564Q615 585 595 597T527 610H426Q404 610 393 604T379 574T376 495V102Q376 66 397 49T455 24Q472 21 480 17T488 6Q488 0 480 -2T459 -5Q432 -5 415 -4T381 -1T342 0Q317 0 299 -1T261 -3T214 -5Z" />
<glyph unicode="U" horiz-adv-x="738" d="M372 -14Q283 -14 223 17T133 106T103 240V547Q103 583 89 599T57 620Q24 629 24 642Q24 648 32 650T53 653Q76 653 98 652T149 650Q172 650 192 651T229 652Q242 652 250 650T258 641Q258 634 250 630T225 621Q213 617
198 598T183 549V268Q183 188 210 137T284 61T393 36Q496 36 544 107T592 296Q592 318 592 354T590 431T588 511Q588 537 584 560T570 599T547 620Q537 623 526 628T514 640Q514 646 522 648T543 651Q566 651 581 651T618 650Q634 650 648 650T675 652T699 653Q712
653 720 651T728 642Q728 629 695 622Q669 617 658 597T645 547Q640 461 639 390T635 250Q633 173 598 113T505 20T372 -14Z" />
<glyph unicode="V" horiz-adv-x="672" d="M318 -12Q310 -12 307 -5Q303 6 297 24T286 56L103 547Q93 575 76 594T33 620Q17 625 9 630T0 642Q0 648 8 650T29 653Q45 653 64 652T106 651T151 650Q171 650 190 650T226 651T253 652Q266 652 274 650T282 641Q282
634 274 629T249 621Q221 618 203 609T184 582Q184 565 188 553T195 533L339 153Q341 149 344 148T350 154L487 514Q507 567 490 591T440 620Q425 622 416 627T407 640Q407 646 415 648T436 651Q449 651 465 651T498 651T535 650Q564 650 597 651T649 653Q662 653
670 651T678 642Q678 635 670 631T645 622Q608 614 583 588T547 535L359 79Q357 74 352 59T340 25T328 -5Q327 -8 324 -10T318 -12Z" />
<glyph unicode="W" horiz-adv-x="916" d="M335 -16Q333 -16 329 -7T321 12L105 554Q93 580 76 596T33 620Q17 625 9 630T0 642Q0 648 8 650T29 653Q52 653 72 652T118 650Q146 650 171 651T211 652Q224 652 232 650T240 641Q240 634 232 630T207 621Q195 618 191
609T187 588Q187 572 191 559T195 545Q218 487 237 439T274 347T313 256T359 152Q364 141 367 142T374 151L452 344Q455 352 456 357T458 367Q458 373 456 379T450 396L393 538Q380 570 352 591T298 620Q282 625 274 630T265 642Q265 648 273 650T294 653Q310 653
324 652T354 651T388 650Q411 650 430 651T465 652Q478 652 486 650T494 641Q494 633 484 628T464 617T453 599Q453 597 453 595T455 591Q457 587 462 572T475 537T490 502T500 478Q505 466 508 466T518 478Q526 496 534 519T549 562T558 591Q559 594 559 598Q559
610 550 616T532 627T522 641Q522 647 530 649T551 652Q573 652 581 651T603 650Q620 650 632 651T662 653Q675 653 683 651T691 642Q691 635 683 631T658 622Q626 615 615 605T590 574Q585 565 576 544T556 498T537 451Q534 444 532 431T531 413L634 148Q636 143
639 145T645 154Q670 220 701 323T767 541Q770 550 771 559T773 577Q773 592 767 604T743 620Q733 623 722 628T710 640Q710 646 718 648T739 651Q759 651 775 651T811 650Q836 650 859 651T901 653Q914 653 922 651T930 642Q930 635 922 631T897 622Q873 617 857
602T831 568T815 534L638 11Q637 7 632 -2T622 -12Q618 -12 613 -6T605 7Q579 67 560 114T524 210T482 316Q479 323 477 322T471 310Q447 253 430 209T395 120T357 15Q353 5 347 -5T335 -16Z" />
<glyph unicode="X" horiz-adv-x="707" d="M24 -5Q11 -5 3 -3T-5 6Q-5 13 3 18T28 28Q45 33 70 45T123 78T171 124L296 280Q307 294 311 307T301 341L167 529Q142 564 122 582T85 609T51 622Q35 627 27 632T18 644Q18 650 26 652T47 655Q72 655 112 653T190 650Q220
650 248 651T289 652Q302 652 310 650T318 641Q318 634 310 630T285 621Q260 614 247 608T234 590Q234 574 267 528L358 400Q369 384 374 385T388 397L495 538Q507 553 514 566T521 589Q521 600 511 608T476 620Q466 622 455 627T443 640Q443 646 451 648T472 651Q484
651 497 651T524 651T553 650Q582 650 614 653T667 656Q680 656 688 654T696 645Q696 638 688 634T663 625Q635 618 601 584T533 510L418 374Q405 358 402 352T404 334L559 111Q582 78 610 56T666 26Q683 22 691 18T699 6Q699 0 691 -2T670 -5Q656 -5 631 -4T579
-1T527 1Q496 1 469 1T424 0Q411 0 403 2T395 11Q395 18 406 23T428 31Q443 36 457 47T472 78Q472 86 470 94T460 111L356 262Q349 273 344 273T334 267L199 93Q195 87 193 81T190 70Q190 56 202 46T235 30Q252 26 260 22T268 10Q268 4 260 2T239 -1Q226 -1 202
0T150 1Q116 1 83 -2T24 -5Z" />
<glyph unicode="Y" horiz-adv-x="578" d="M182 -5Q169 -5 161 -3T153 6Q153 13 161 17T186 24Q224 31 244 51T264 108V256Q264 276 254 299T239 330L122 522Q115 534 100 555T68 596T33 620Q17 625 9 630T0 642Q0 648 8 650T29 653Q52 653 82 652T146 650Q169
650 189 651T226 652Q239 652 247 650T255 641Q255 634 247 630T222 621Q208 617 199 612T190 596Q190 583 203 560L295 390Q315 352 323 352Q329 352 336 360T356 390Q379 425 397 457T440 534Q450 551 454 563T458 585Q458 604 445 611T417 620Q407 622 396 627T384
640Q384 646 392 648T413 651Q436 651 451 651T488 650Q519 650 547 651T592 653Q605 653 613 651T621 642Q621 635 605 629T568 617Q542 610 525 589T480 526Q460 495 447 474T422 435T398 398T369 350Q356 329 351 316T345 292T344 260V108Q344 74 365 53T423
24Q440 21 448 17T456 6Q456 0 448 -2T427 -5Q400 -5 383 -4T349 -1T310 0Q285 0 267 -1T229 -3T182 -5Z" />
<glyph unicode="Z" horiz-adv-x="603" d="M533 -5Q490 -5 450 -5T373 -4T300 -3T231 -2Q201 -2 171 -2T112 -3H35Q31 -3 30 4T28 11Q28 16 37 32T61 69T86 104Q137 174 180 232T263 346T344 461T434 593Q436 595 437 597T438 601Q438 604 434 606T419 609Q392
610 353 610T273 611Q244 611 217 611T171 609Q147 607 117 590T73 535Q69 526 63 515T45 503Q41 503 39 506T36 514Q36 520 38 527T43 541Q47 552 52 571T63 614T70 659Q71 670 76 673T85 676Q89 676 98 671T116 662Q126 658 151 652T202 646Q227 646 260 646T328
646Q359 646 388 646T446 646T503 647T559 649Q564 649 568 642T570 631L509 550Q457 480 415 423T335 313T258 201T171 70Q168 66 168 58Q168 52 171 47T179 41Q201 39 230 38T292 36Q326 36 362 37T433 41Q519 48 557 150Q559 156 565 163T579 171Q588 171 588
158Q588 154 584 135T574 90T562 43T551 12Q548 6 545 1T533 -5Z" />
<glyph unicode="[" horiz-adv-x="331" d="M141 -200Q130 -200 123 -199T113 -192T110 -175V668Q110 685 113 692T124 700T148 702L293 701Q300 701 305 699T311 688Q311 681 303 678T285 673L206 667Q199 666 191 658T183 642V-121Q183 -134 190 -143T206 -154L285
-167Q295 -168 303 -172T311 -185Q311 -194 303 -197T285 -200H141Z" />
<glyph unicode="\" horiz-adv-x="399" d="M362 -62Q351 -62 341 -60T326 -47L29 648Q26 655 29 660T42 665Q55 665 65 662T81 648L378 -47Q381 -53 377 -57T362 -62Z" />
<glyph unicode="]" horiz-adv-x="331" d="M190 -200H46Q37 -200 29 -197T20 -185Q20 -176 28 -172T46 -167L125 -154Q134 -152 141 -143T148 -121V642Q148 650 140 658T125 667L46 673Q36 674 28 677T20 688Q20 696 25 698T38 701L183 702Q199 702 207 701T218
692T221 668V-175Q221 -187 218 -192T209 -198T190 -200Z" />
<glyph unicode="^" horiz-adv-x="500" d="M57 284Q53 284 51 287T48 295Q48 301 51 305L248 603H251L449 305Q453 299 452 292T443 284Q432 284 420 289T402 302L254 514Q250 519 249 519T244 514L98 303Q92 294 79 289T57 284Z" />
<glyph unicode="_" horiz-adv-x="500" d="M487 -132Q492 -132 496 -135T501 -143Q501 -153 491 -167T469 -182H14Q9 -182 5 -178T0 -170Q0 -165 2 -156T10 -140T24 -132H487Z" />
<glyph unicode="`" horiz-adv-x="200" d="M171 457Q161 457 140 478Q127 491 106 515T65 564T32 607Q28 614 25 618T22 628Q22 639 37 644T71 649Q79 649 86 644T98 631Q106 618 121 590T152 533T175 484Q177 478 178 474T179 466Q179 457 171 457Z" />
<glyph unicode="a" horiz-adv-x="399" d="M117 -14Q99 -14 81 0T50 34T37 72Q37 104 54 122T108 155L210 197Q230 205 233 211T238 237L240 301Q241 327 226 346T181 365Q166 365 151 360T126 347Q120 343 118 335T116 318Q116 314 116 309T117 300Q117 295 105
287T77 272T51 265Q46 265 43 267T40 274Q40 290 50 308T80 343Q103 364 130 380T183 405T229 414Q265 414 288 389T311 325L306 85Q305 64 315 51T342 38Q367 38 379 49Q384 54 387 54Q392 54 395 51T398 43Q398 32 387 21Q371 5 353 -4T318 -14Q272 -14 245 38H242Q209
11 179 -1T117 -14ZM164 34Q184 34 198 40T223 58Q228 63 231 71T236 99L238 148Q239 159 237 164T229 169Q227 169 222 168T209 164Q156 145 136 125T115 87Q115 61 130 48T164 34Z" />
<glyph unicode="b" horiz-adv-x="515" d="M259 -14Q237 -14 215 -10T173 -1Q151 5 135 10T113 15Q107 15 102 11T91 2Q86 -3 82 -3Q78 -3 73 0T68 9Q68 18 71 40T75 81V566Q75 592 62 611T29 639Q25 641 21 644T16 654Q16 659 20 661T28 664Q41 667 63 675T106
691T133 702Q139 705 142 705Q144 705 146 703T148 698Q148 694 147 665T145 593V388Q145 369 147 363T154 355Q185 381 226 397T300 414Q351 414 391 388T456 318T480 217Q480 149 452 97T375 15T259 -14ZM282 17Q320 17 347 40T390 104T405 195Q405 234 391 275T346
344T267 372Q227 372 197 359T145 326V132Q145 97 164 71T215 31T282 17Z" />
<glyph unicode="c" horiz-adv-x="407" d="M213 -15Q163 -15 123 10T59 80T35 180Q35 245 63 298T140 382T246 414Q311 414 360 379Q372 370 372 360Q372 352 365 342T348 326T329 319Q324 319 319 322T308 330Q286 347 259 362T214 377Q165 377 135 332T104 212Q104
165 124 127T179 67T256 45Q285 45 306 54T351 88Q353 90 356 91T361 93Q372 93 372 79Q372 73 369 66T357 48Q341 28 319 14T271 -8T213 -15Z" />
<glyph unicode="d" horiz-adv-x="506" d="M357 -19Q355 -19 351 -15T346 -9Q346 1 348 19T351 51V57Q336 34 303 10T220 -14Q163 -14 122 16T58 93T35 190Q35 248 62 299T139 382T260 414Q280 414 300 411T332 403Q341 400 345 400Q352 400 352 424V566Q352 607
339 621T302 639Q293 641 293 652Q293 661 301 664Q345 675 370 685T409 701Q413 703 416 703T422 704Q428 704 429 698Q429 692 428 678T424 635T422 562V110Q422 76 427 61T443 45Q448 45 460 46T486 48Q504 49 504 39Q504 32 500 27T490 21Q462 17 435 10T373
-13Q365 -17 363 -18T357 -19ZM256 38Q282 38 307 51T351 87L352 267Q352 294 337 320T294 362T229 379Q206 379 177 365T127 316T106 213Q106 156 123 122T164 69T214 45T256 38Z" />
<glyph unicode="e" horiz-adv-x="390" d="M213 -15Q158 -15 117 12T53 88T30 203Q30 261 56 308T127 385T223 414Q263 414 294 398T342 354T360 288Q360 257 330 257H119Q105 257 100 250T94 220Q94 172 115 133T171 70T248 46Q278 46 302 57T346 91Q350 96 352
97T357 99Q365 99 365 89Q365 70 347 47Q332 28 311 14T265 -7T213 -15ZM121 288H212Q236 288 253 289T286 293Q291 294 292 299T294 315Q294 344 269 364T208 385Q185 385 162 372T124 338T109 298Q109 288 121 288Z" />
<glyph unicode="f" horiz-adv-x="318" d="M44 -3Q34 -3 29 -1T24 8Q24 16 30 19T47 24Q70 29 80 38T90 68V350Q80 350 67 350T38 352Q35 353 30 359T24 370Q24 372 27 373T31 376Q49 385 62 392T90 406Q90 493 111 551T167 643T239 691T310 706Q366 706 393 689T420
646Q420 626 410 616T386 606Q377 606 370 613T352 629Q339 642 320 653T268 665Q221 665 191 624T160 498V410Q160 404 163 402T171 400H296Q301 400 305 397T309 389Q309 382 308 374T303 360Q300 352 294 352H179Q167 352 164 349T160 339V68Q160 48 173 39T226
24Q249 21 249 8Q249 2 244 0T229 -3Q199 -3 176 -1T127 2Q110 2 99 1T76 -1T44 -3Z" />
<glyph unicode="g" horiz-adv-x="435" d="M195 -290Q110 -290 61 -258T11 -170Q11 -144 19 -126T44 -95Q58 -83 81 -65T130 -26L172 -28Q124 -59 105 -87T86 -155Q86 -195 121 -222T209 -250Q268 -250 304 -223Q329 -204 343 -174T357 -109Q357 -87 342 -73T293
-49T207 -37Q113 -30 77 -12T40 44Q40 54 45 62T63 81Q86 99 97 107T113 122T124 137L158 120Q136 112 121 99T106 74Q106 60 121 50T165 33T236 24Q328 19 373 -6T418 -77Q418 -116 399 -153T347 -222T276 -271T195 -290ZM207 141Q245 141 270 179T295 275Q295
304 282 329T247 370T200 386Q177 386 157 370T124 327T111 270Q111 235 124 206T159 159T207 141ZM201 106Q160 106 123 127T63 182T39 258Q39 305 63 340T128 396T213 416Q242 416 263 409T306 395Q330 388 344 387T373 385Q385 385 403 386T428 388Q441 388
441 373Q441 364 431 354Q426 349 423 349H396Q369 349 366 341Q365 337 364 330T361 313T360 295Q360 244 338 201T280 132T201 106Z" />
<glyph unicode="h" horiz-adv-x="515" d="M39 -3Q19 -3 19 8Q19 17 42 24Q57 29 70 37T85 65V566Q85 593 76 613T41 638Q32 640 32 652Q32 661 40 664Q54 669 73 675T114 688T151 703Q155 705 157 705Q160 705 162 703T164 698Q164 692 162 681T157 643T155 562V388Q155
372 156 365T162 351Q178 363 201 377T254 403T314 414Q363 414 395 376T428 278V68Q428 48 441 39T469 24Q480 21 486 18T492 8Q492 -3 472 -3Q452 -3 442 -2T422 1T394 2Q377 2 367 1T347 -1T316 -3Q296 -3 296 8Q296 15 302 17T319 24Q334 29 346 38T358 68V272Q358
297 344 317T308 350T265 362Q246 362 221 357T182 340Q166 327 161 313T155 268V65Q156 45 167 37T194 24Q205 21 210 18T216 8Q216 -3 196 -3Q176 -3 166 -2T147 1T120 2Q103 2 93 1T71 -1T39 -3Z" />
<glyph unicode="i" horiz-adv-x="245" d="M44 -3Q35 -3 30 -1T24 8Q24 16 31 19T47 24Q68 29 79 36T90 62V279Q90 306 81 327T45 352Q40 353 38 356T35 365Q35 376 44 377Q84 386 110 401T149 427Q158 434 163 434Q169 434 169 429Q169 421 167 398T162 346T160
294V62Q160 45 171 37T203 24Q211 22 218 19T226 8Q226 -3 206 -3Q187 -3 176 -2T154 1T125 2Q108 2 97 1T75 -1T44 -3ZM124 516Q103 516 89 530T74 566Q74 588 88 602T124 617Q146 617 160 603T175 566Q175 545 161 531T124 516Z" />
<glyph unicode="j" horiz-adv-x="226" d="M1 -287Q-4 -287 -12 -285T-20 -277Q-20 -271 -15 -266T-9 -260Q9 -255 26 -241T57 -197Q68 -174 74 -140T84 -67T88 7T89 69V279Q89 306 79 326T43 352Q39 353 37 357T35 365Q35 375 42 377Q80 386 106 402T146 427Q151
430 154 432T159 434Q166 434 166 429Q163 398 161 354T159 275V91Q159 60 158 19T150 -67T129 -152Q117 -186 94 -217T46 -267T1 -287ZM116 516Q95 516 81 530T66 566Q66 588 80 602T116 617Q138 617 152 603T167 566Q167 545 153 531T116 516Z" />
<glyph unicode="k" horiz-adv-x="469" d="M42 -3Q19 -3 19 8Q19 16 26 18T42 24Q57 29 71 37T85 65V566Q85 601 75 617T40 639Q31 641 31 652Q31 662 39 664Q65 670 84 676T118 689T149 702Q155 705 158 705Q161 705 162 703T164 696Q164 686 160 656T155 562V234Q155
225 160 225Q166 225 175 230T196 245Q237 280 264 308T302 348Q307 354 309 357T311 363Q311 368 303 372T285 378Q273 381 273 388Q273 393 279 396T295 400H344Q360 400 377 403T410 409T435 412Q449 412 449 402Q449 396 442 392T424 384Q405 379 389 370T358
353Q352 349 331 332T282 291T230 247Q224 241 224 237Q224 236 225 234T227 230Q253 198 283 165T338 107T374 72Q391 56 412 44T449 26Q460 22 469 19T479 8Q479 -3 459 -3Q420 -3 372 -2T272 0Q254 0 254 9Q254 15 259 19T271 25Q282 29 290 34T298 48Q298 51
296 54T291 62L170 199Q164 206 160 206Q155 206 155 199Q154 185 154 169T154 135Q154 118 154 100T155 65Q155 45 165 37T190 24Q198 21 205 19T213 8Q213 1 204 -1T190 -3Q171 -3 162 -2T146 1T120 2Q103 2 93 1T73 -1T42 -3Z" />
<glyph unicode="l" horiz-adv-x="240" d="M39 -3Q34 -3 27 -2T19 6Q19 14 26 17T42 24Q57 29 71 35T85 62V566Q85 595 75 614T39 639Q31 641 31 652Q31 662 38 664Q64 670 83 676T118 690T151 703Q155 705 157 705Q159 705 160 703T162 698Q162 689 159 660T155
562V62Q155 42 169 36T198 24Q206 21 213 18T221 6Q221 0 214 -1T201 -3Q182 -3 171 -2T149 1T120 2Q103 2 92 1T70 -1T39 -3Z" />
<glyph unicode="m" horiz-adv-x="778" d="M44 -3Q36 -3 30 -1T24 8Q24 15 30 18T47 24Q61 29 75 35T90 62V277Q90 304 84 324T52 349Q48 350 46 353T43 362Q43 372 51 374Q78 381 94 388T122 405T153 426Q155 427 157 428T162 430Q168 430 168 423Q168 416 166
395T163 359Q163 349 165 347H167Q190 369 227 391T323 414Q359 414 383 399T423 345H426Q458 374 499 394T589 414Q622 414 644 394T677 342T689 275V62Q689 42 703 36T732 24Q742 21 748 18T755 8Q755 2 751 0T735 -3Q715 -3 704 -2T684 1T656 2Q639 2 628 1T605
-1T573 -3Q564 -3 559 -1T553 8Q553 16 559 19T576 24Q592 28 605 35T619 62V272Q619 296 608 317T579 353T539 367Q514 367 493 361T452 340Q424 318 424 268V62Q424 42 439 35T469 24Q479 22 485 19T492 8Q492 2 487 0T472 -3Q452 -3 441 -2T419 1T390 2Q373
2 362 1T339 -1T307 -3Q299 -3 293 -1T287 8Q287 16 294 18T310 24Q325 29 339 35T354 62V272Q354 296 343 317T314 353T274 367Q249 367 228 361T187 340Q160 320 160 268V62Q160 42 174 36T203 24Q211 21 218 19T226 8Q226 2 221 0T206 -3Q186 -3 175 -2T153
1T125 2Q108 2 98 1T76 -1T44 -3Z" />
<glyph unicode="n" d="M44 -3Q35 -3 30 -1T24 8Q24 16 30 18T47 24Q62 28 76 35T90 62V277Q90 304 85 323T53 349Q49 351 46 353T43 362Q43 373 52 374Q87 383 109 396T152 425Q155 427 157 428T163 430Q165 430 166 428T168 423Q168 416 166 395T163 359Q163
355 163 352T165 347Q200 380 239 397T326 414Q375 414 407 374T439 275V62Q439 42 453 36T482 24Q490 21 497 18T505 6Q505 0 498 -1T485 -3Q465 -3 454 -2T433 1T405 2Q388 2 377 1T355 -1T323 -3Q318 -3 311 -2T303 6Q303 14 310 17T326 24Q341 29 355 35T369
62V272Q369 316 345 340T279 366Q243 366 216 355T168 326Q164 322 162 316T160 303V62Q160 42 174 35T203 24Q226 18 226 8Q226 2 221 0T206 -3Q186 -3 175 -2T153 1T125 2Q108 2 98 1T76 -1T44 -3Z" />
<glyph unicode="o" horiz-adv-x="495" d="M234 -14Q178 -14 133 12T62 83T35 187Q35 229 51 269T98 342T168 394T254 414Q312 414 358 386T432 313T460 213Q460 155 435 103T359 19T234 -14ZM255 16Q289 16 316 29T358 71Q370 94 374 127T378 189Q378 237 361
281T312 354T237 383Q210 383 189 375T149 343Q129 318 123 282T117 210Q117 161 135 117T184 44T255 16Z" />
<glyph unicode="p" horiz-adv-x="519" d="M40 -285Q35 -285 27 -284T19 -276Q19 -268 26 -265T42 -258Q57 -253 71 -247T85 -220V287Q85 295 81 311T66 342T39 360Q35 361 33 365T31 373Q31 378 33 381T38 385Q76 394 103 404T154 425Q155 425 155 425T156 426Q158
426 160 423T162 417Q162 408 160 389T157 357Q157 349 158 348Q168 358 194 373T255 401T320 414Q372 414 408 387T464 316T484 225Q484 180 467 138T419 61T347 7T259 -14Q245 -14 226 -10T188 2T159 18Q158 18 157 7T156 -17T155 -33V-220Q155 -233 165 -240T189
-251T213 -258Q221 -261 228 -264T236 -276Q236 -282 228 -283T214 -285Q185 -285 166 -283T120 -280Q103 -280 93 -281T71 -283T40 -285ZM274 17Q289 17 310 26T353 55T389 109T404 193Q404 251 389 286T352 339T307 363T268 369Q244 369 219 359T176 337T158
317Q158 295 158 273T157 229T156 192T155 166Q155 126 173 92T219 38T274 17Z" />
<glyph unicode="q" horiz-adv-x="522" d="M331 -285Q326 -285 319 -284T311 -276Q311 -268 318 -265T334 -258Q349 -253 363 -247T377 -220V13Q377 30 376 36T371 43Q369 43 367 43T362 41Q354 34 334 21T288 -3T235 -14Q183 -14 138 8T64 73T35 178Q35 249 66
302T153 384T282 414Q316 414 344 409T390 398T410 392Q421 392 426 399T436 417Q437 418 439 419T443 421Q448 421 453 418T459 411Q459 401 453 370T447 295V-220Q447 -240 465 -246T499 -258Q507 -261 514 -264T522 -276Q522 -282 515 -283T502 -285Q472 -285
456 -283T412 -280Q395 -280 385 -281T363 -283T331 -285ZM272 39Q305 39 335 52T378 80Q378 94 378 122T378 182T378 240T377 275Q376 320 342 351T257 382Q221 382 189 362T137 302T117 205Q117 155 132 123T172 72T223 47T272 39Z" />
<glyph unicode="r" horiz-adv-x="334" d="M49 -3Q39 -3 34 -1T29 8Q29 16 35 18T52 24Q71 29 80 38T90 62V277Q90 304 82 324T49 349Q45 350 42 354T39 362Q39 372 48 374Q74 382 102 397T147 423Q153 427 156 428T162 430Q167 430 167 423Q167 420 167 408T166
380T164 348Q164 346 166 346Q182 366 201 381T241 405T281 414Q302 414 315 405T329 382Q329 372 324 360T309 339T290 330Q284 330 277 332T262 339Q254 342 246 345T230 348Q206 348 184 331T161 264V62Q161 49 175 41T214 24Q225 21 231 18T237 8Q237 -3 217
-3Q187 -3 172 -1T130 2Q113 2 103 1T81 -1T49 -3Z" />
<glyph unicode="s" horiz-adv-x="323" d="M144 -14Q113 -14 86 -5T40 22Q35 33 33 59T29 102Q29 111 42 111Q46 111 49 110T54 104Q67 55 95 34T153 13Q182 13 202 32T223 81Q223 108 205 127T142 175Q108 196 87 215T57 254T47 299Q47 331 62 357T107 398T182
414Q212 414 232 408T262 395Q270 384 275 361T281 316Q281 309 271 309Q265 309 260 311T252 318Q239 351 220 368T171 386Q146 386 127 371T107 327Q107 304 121 286T176 245Q234 212 262 184T291 108Q291 54 250 20T144 -14Z" />
<glyph unicode="t" horiz-adv-x="314" d="M189 -14Q140 -14 113 16T85 105V337Q85 345 79 348T53 352H47Q42 352 39 358T35 372Q35 374 38 378T42 383Q62 397 78 411T108 438T131 463Q136 468 139 471T148 475Q153 475 157 473T161 464L156 419Q155 408 161 404T180
400H294Q298 400 301 394T304 378Q304 369 301 361T294 352H195Q170 352 163 348T155 324V127Q155 87 172 64T221 41Q250 41 266 45T295 59Q297 61 299 61Q303 61 304 57T306 47Q306 42 290 27T247 -1T189 -14Z" />
<glyph unicode="u" horiz-adv-x="527" d="M366 -19Q359 -19 359 -11Q359 -1 361 18T364 51Q364 53 364 54T364 57Q325 19 286 3T199 -14Q167 -14 141 -1T100 39T85 105V308Q85 330 75 343T42 365Q37 367 33 370T29 381Q29 390 33 393T44 397Q78 399 96 402T143
413Q146 414 147 414T151 414Q162 414 161 400Q158 377 157 362T155 323V128Q155 104 167 84T198 50T239 37Q265 37 284 40T323 57Q334 65 351 83T368 132V315Q368 336 356 346T327 361T301 365Q292 365 286 368T280 382Q280 391 286 394T301 397Q332 398 352 399T389
404T424 413Q426 414 429 414T434 415Q447 415 447 404Q447 403 447 401T445 395Q444 392 443 378T440 349T438 326V95Q438 68 443 57T456 45Q464 45 479 46T502 48Q507 48 512 46T517 35Q517 27 513 25T503 21Q464 16 436 6T386 -13Q383 -14 377 -16T366 -19Z"
/>
<glyph unicode="v" horiz-adv-x="438" d="M214 -21Q210 -21 204 -6T196 17Q189 34 183 52T171 87Q149 149 124 208T74 329Q67 347 53 361T23 380Q15 383 10 386T5 396Q5 402 12 403T25 405Q45 405 54 404T72 402T98 400Q116 400 125 401T144 404T173 405Q178 405
185 404T193 396Q193 389 186 385T170 378Q160 374 155 363T150 337Q150 330 151 323T154 310L233 100Q234 99 234 99T236 100L312 295Q316 305 318 316T320 336Q320 356 314 364T294 378Q281 383 276 386T271 396Q271 402 277 403T291 405Q302 405 320 403T364
400Q390 400 399 402T423 405Q431 405 437 404T443 396Q443 385 420 378Q405 374 387 355T358 311L280 123Q278 119 272 104T259 70T247 38T242 24Q242 24 238 15T229 -5T220 -21H214Z" />
<glyph unicode="w" horiz-adv-x="685" d="M226 -23Q224 -23 222 -21T219 -16L80 329Q73 349 58 361T28 378Q20 381 13 385T5 396Q5 402 12 403T25 405Q38 405 49 404T73 402T98 400Q112 400 126 401T153 404T181 405Q185 405 193 404T201 396Q201 389 194 385T178
378Q168 375 163 364T157 338Q157 325 162 312L240 111Q241 107 245 107Q249 107 250 111L318 273Q323 286 324 298T326 321Q326 343 309 357T275 378Q267 381 260 385T252 396Q252 402 259 403T272 405Q286 405 302 403T347 400Q375 400 395 402T431 405Q436 405
443 404T451 396Q451 389 444 385T428 378Q417 374 406 367T394 342Q394 336 395 329T401 312L476 119Q481 108 484 108Q488 108 492 118L568 295Q572 303 573 315T575 334Q575 352 563 363T540 378Q532 381 525 385T517 396Q517 402 524 403T537 405Q559 405 572
403T612 400Q631 400 639 401T653 404T670 405Q676 405 683 404T690 396Q690 389 683 385T667 378Q652 374 638 355T614 312L477 -16Q474 -23 468 -23Q464 -23 460 -16L356 242Q353 250 350 251Q347 251 343 241L234 -16Q231 -23 226 -23Z" />
<glyph unicode="x" horiz-adv-x="430" d="M30 -4Q24 -4 17 -3T10 5Q10 13 17 17T33 23Q48 28 63 39T100 80L177 187Q184 195 184 199T179 210L97 335Q85 355 76 364T51 377Q43 379 36 383T28 395Q28 403 37 403T51 404Q71 404 78 403T96 401T130 400Q148 400 156
401T181 402Q185 402 194 402T204 393Q204 387 199 384T186 379Q179 377 172 374T165 362Q165 357 168 349T178 330L224 261Q228 254 233 261L284 338Q288 343 290 349T292 360Q292 372 279 376Q271 379 264 383T256 394Q256 402 265 402T279 403Q287 403 302 402T329
400Q357 400 368 402T392 405Q398 405 405 404T412 396Q412 389 405 385T389 378Q374 374 353 363T318 331L255 236Q254 234 254 231T256 223L353 65Q365 46 376 37T402 23Q410 21 417 17T425 5Q425 -1 418 -2T405 -4Q385 -4 376 -3T357 -1T321 0Q303 0 284 -1T248
-2Q225 -2 225 8Q225 17 231 21T250 28Q261 31 269 36T278 52Q278 56 277 60T272 70L213 166Q210 169 207 166L141 67Q140 65 138 60T136 48Q136 41 139 35T150 26Q158 23 165 20T173 8Q173 1 164 0T150 -1Q142 -1 126 0T97 1Q69 1 57 -1T30 -4Z" />
<glyph unicode="y" horiz-adv-x="438" d="M64 -285Q45 -285 29 -276T13 -244Q13 -226 21 -213T46 -199Q57 -199 67 -202T86 -205Q92 -205 96 -203T105 -194Q116 -176 130 -149T160 -88T190 -16Q193 -7 193 7Q193 15 192 22T189 36L73 329Q66 347 55 360T28 378Q20
381 13 385T5 396Q5 402 12 403T25 405Q45 405 54 404T72 402T98 400Q116 400 125 401T144 404T174 405Q180 405 187 403T194 394Q194 387 184 381T165 372Q155 369 150 362T145 340Q145 334 148 326T153 312L234 112Q236 106 240 106Q243 106 245 112L314 295Q317
302 319 313T322 332Q322 351 317 358T302 370Q294 374 284 380T273 394Q273 400 280 402T293 405Q307 405 321 403T364 400Q383 400 391 401T406 404T423 405Q428 405 435 404T443 396Q443 389 436 385T420 378Q405 374 388 355T361 311L225 -13Q224 -16 215 -39T191
-96T161 -169T129 -244Q120 -264 103 -274T64 -285Z" />
<glyph unicode="z" horiz-adv-x="377" d="M39 -5Q35 -5 30 1T25 12Q25 15 31 25T46 48T62 70Q87 106 110 139T155 206T202 277T253 358Q255 361 255 364T244 368L145 371Q131 372 119 365T101 352Q95 346 90 339T79 324T68 309T57 294Q51 288 42 292T35 304Q38
313 42 330T50 367T54 398Q54 406 60 411T69 416Q73 416 84 407Q89 403 101 402T127 401Q138 401 148 401T165 402Q217 402 261 403T351 405Q354 405 356 403T359 398T358 393Q348 380 339 369T320 343L125 48Q121 41 124 37T134 33H252Q263 33 274 39T297 56Q309
68 323 87T352 129Q357 136 365 133T374 122Q374 119 370 104T361 69T351 32T344 9Q341 -5 328 -5Q306 -5 254 -3T119 0Q98 0 75 -2T39 -5Z" />
<glyph unicode="{" horiz-adv-x="376" d="M335 -152Q288 -149 244 -136T172 -96T143 -21Q143 32 149 71T156 157Q156 186 143 208T111 245T69 265Q62 267 56 271T50 282Q50 287 55 292T71 301Q98 308 117 321T146 354T156 404Q156 451 150 490T143 582Q143 629
172 657T246 699T338 715Q345 715 350 711T356 700Q356 692 347 690T330 686Q298 682 275 673T240 644T228 587Q228 553 231 525T238 470T241 414Q241 381 221 355T172 310T123 283Q120 282 121 281T125 279Q137 276 156 264T195 234T228 194T241 147Q241 118 238
92T232 37T228 -26Q228 -62 239 -82T273 -112T327 -125Q335 -126 344 -127T353 -137Q353 -144 348 -148T335 -152Z" />
<glyph unicode="|" horiz-adv-x="260" d="M112 -289Q108 -289 104 -285T100 -275V676Q100 684 106 690T120 699T136 705T146 707Q151 707 155 703T160 694V-265Q160 -273 154 -277T140 -284T123 -288T112 -289Z" />
<glyph unicode="}" horiz-adv-x="376" d="M41 -152Q34 -153 29 -149T23 -137Q23 -129 32 -128T49 -125Q81 -122 103 -113T136 -83T148 -26Q148 8 145 36T139 91T135 147Q135 172 148 194T180 234T219 264T251 279Q253 280 254 281T253 283Q232 292 205 310T156
354T135 414Q135 443 138 469T145 524T148 587Q148 624 136 644T101 673T46 686Q38 687 29 689T20 700Q20 707 25 711T38 715Q85 713 130 700T204 658T233 582Q233 530 227 491T220 404Q220 375 230 355T259 321T305 301Q316 298 321 293T326 282Q326 276 320 272T307
265Q286 260 266 246T233 209T220 157Q220 111 226 72T233 -21Q233 -68 205 -95T132 -136T41 -152Z" />
<glyph unicode="~" horiz-adv-x="500" d="M337 260Q311 260 288 270T243 291Q223 302 203 311T160 320Q135 320 116 307T84 279T69 265Q63 265 57 269T50 279Q50 289 59 306T84 340T123 369T171 381Q197 381 218 371T259 350Q279 338 298 329T337 319Q354 319
370 328T398 350T419 372T430 382Q434 382 442 377T450 362Q450 347 440 329T412 296T375 270T337 260Z" />
<glyph unicode="&#xa0;" horiz-adv-x="200" />
<glyph unicode="&#xa1;" horiz-adv-x="250" d="M123 275Q131 275 135 264T141 236Q146 194 151 143T160 42T168 -49T171 -114Q171 -136 159 -152T126 -169Q106 -169 93 -153T79 -114Q79 -90 81 -49T87 42T96 142T105 236Q107 258 111 266T123 275ZM125 494Q150
494 167 477T185 434Q185 409 168 392T125 374Q100 374 83 391T65 434Q65 459 82 476T125 494Z" />
<glyph unicode="&#xa2;" horiz-adv-x="422" d="M202 -13Q195 -13 190 -9T186 2L194 78Q152 86 116 114T57 186T35 278Q35 335 61 384T133 465T238 502L242 562Q243 570 249 574T264 579Q270 579 274 574T277 562L273 503Q302 502 331 491T380 455Q384 450 384
443Q384 433 371 421T347 409Q331 409 326 419Q316 438 303 451T269 469L235 136Q239 135 242 135T250 135Q282 135 314 142T365 178Q368 183 374 183Q387 183 387 171Q387 170 387 169T386 167Q358 121 320 100T228 76L221 2Q220 -5 215 -9T202 -13ZM200 143L235
474H233Q193 474 164 449T118 387T102 312Q102 247 129 204T200 143Z" />
<glyph unicode="&#xa3;" horiz-adv-x="490" d="M45 297Q40 297 36 301T31 309Q31 316 38 323T55 331L351 351Q356 351 360 347T364 339Q364 334 354 326T333 317L45 297ZM319 -36Q273 -36 239 -19T164 26Q153 34 140 40T116 51T100 55Q97 55 89 48T72 30T56 6Q39
-26 13 -24Q3 -24 -3 -17T-10 6Q-10 27 3 44T39 73T86 91Q91 92 93 95T97 103Q107 122 113 160T124 247T130 341Q133 391 146 441T186 534T252 603T350 629Q401 629 425 603T450 549Q450 534 445 521T430 499T406 491Q399 491 397 494T394 505Q394 510 394 515T395
527Q394 556 377 578T332 600Q296 600 273 570T237 479T217 328Q214 280 200 233T167 150T135 102Q133 101 133 97T139 93Q180 93 211 83T271 60Q297 50 322 41T375 32Q404 32 419 45T434 77Q434 90 430 103T422 129T418 148Q418 155 423 161T435 167Q455 167 465
150T475 111Q475 84 463 58T430 11T380 -23T319 -36Z" />
<glyph unicode="&#xa4;" horiz-adv-x="506" d="M70 57Q60 57 50 67T40 87Q40 92 43 95L100 152Q81 177 71 207T61 270Q61 303 71 333T100 387L43 444Q40 447 40 451Q40 461 50 471T71 482Q76 482 79 479L134 424Q159 443 189 454T253 465Q287 465 317 455T371
424L427 480Q430 483 435 483Q444 483 454 474T465 453Q465 447 461 443L406 388Q425 363 435 333T445 270Q445 237 435 207T406 152L463 95Q466 92 466 88Q466 78 456 68T435 57Q430 57 427 60L371 116Q321 75 253 75Q219 75 189 86T135 116L78 60Q75 57 70 57ZM253
125Q293 125 325 145T376 198T395 270Q395 310 376 342T325 395T253 415Q214 415 182 395T130 343T111 270Q111 231 130 198T181 145T253 125Z" />
<glyph unicode="&#xa5;" horiz-adv-x="570" d="M182 -5Q169 -5 161 -3T153 6Q153 13 161 17T186 24Q224 31 244 51T264 108L265 197H139Q134 197 130 201T125 209Q125 216 132 224T149 232H265V256Q265 263 265 269T263 280H139Q134 280 130 284T125 292Q125 299
132 307T149 315H255L122 522Q112 537 97 558T66 598T33 620Q17 625 9 630T0 642Q0 648 8 650T29 653Q52 653 82 652T146 650Q169 650 189 651T226 652Q239 652 247 650T255 641Q255 634 247 630T222 621Q214 618 204 611T194 588Q194 582 196 575T203 560L296
395Q319 356 326 356Q332 356 339 366T357 395Q357 395 366 408T388 443T416 488T440 534Q447 549 447 568Q447 587 439 601T417 620Q407 623 396 628T384 640Q384 646 392 648T413 651Q436 651 451 651T488 650Q516 650 541 651T584 653Q597 653 605 651T613 642Q613
635 605 631T580 622Q563 619 544 602T508 563T480 526Q460 495 440 464T404 406T378 363T368 346Q362 337 357 329T350 315H472Q477 315 481 312T485 304Q485 297 475 289T454 280H345V232H471Q476 232 480 230T484 221Q484 214 474 206T453 197H345V108Q345 74
365 53T423 24Q440 21 448 17T456 6Q456 0 448 -2T427 -5Q400 -5 383 -4T349 -1T310 0Q285 0 267 -1T229 -3T182 -5Z" />
<glyph unicode="&#xa6;" horiz-adv-x="260" d="M112 -290Q108 -290 104 -286T100 -276V156Q100 160 106 164T120 171T136 177T146 179Q151 179 155 172T160 157V-266Q160 -274 154 -278T140 -285T123 -289T112 -290ZM112 276Q108 276 104 284T100 299V674Q100
682 106 688T120 697T136 703T146 705Q151 705 155 701T160 692V297Q160 293 154 290T140 283T123 278T112 276Z" />
<glyph unicode="&#xa7;" horiz-adv-x="400" d="M123 -148Q97 -148 79 -139T61 -116Q61 -109 66 -93T89 -64Q94 -60 100 -63T111 -70Q124 -81 143 -87T180 -94Q206 -94 219 -73T232 -12Q232 13 215 40T171 94T118 149Q72 196 48 240T24 329Q24 374 32 406T56 464T90
513Q98 542 117 571T165 620T229 640Q248 640 269 635T299 621Q304 617 307 613T311 603Q311 601 306 590T293 567T273 556Q266 556 260 562Q245 576 229 586T198 596Q168 596 153 577T137 533Q137 515 150 491T188 439T241 385Q283 348 306 313T337 240T346 159Q346
101 323 44T262 -61T177 -137Q166 -144 152 -146T123 -148ZM286 51Q288 47 291 47T296 51Q301 71 304 87T307 124Q307 176 285 217T217 305Q196 327 171 353T124 407T94 458Q93 462 89 462T84 458Q79 438 76 422T73 385Q73 333 95 292T163 204Q184 183 209 156T256
102T286 51Z" />
<glyph unicode="&#xa8;" horiz-adv-x="300" d="M239 508Q220 508 205 523T189 558Q189 577 204 592T239 608Q258 608 273 593T289 558Q289 539 274 524T239 508ZM62 508Q43 508 28 523T12 558Q12 577 27 592T62 608Q81 608 96 593T112 558Q112 539 97 524T62 508Z" />
<glyph unicode="&#xa9;" horiz-adv-x="665" d="M345 24Q282 24 228 47T132 113T67 209T43 327Q43 390 66 444T132 541T228 606T346 630Q409 630 463 607T560 541T625 445T649 327Q649 264 626 210T560 113T463 48T345 24ZM359 154Q312 154 273 179T211 244T188
328Q188 378 215 415T287 473T380 494Q398 494 420 490T460 481Q468 479 471 478T476 468Q479 456 479 438T478 409Q478 406 475 402T468 398Q464 398 461 402T456 413Q452 424 446 432T428 448Q417 456 403 460T371 464Q320 464 289 425T258 331Q258 295 271 261T311
206T376 184Q404 184 427 192T462 225Q466 233 471 236T479 240Q484 240 484 227Q484 220 479 207T469 184Q463 175 462 175T452 167Q436 160 411 157T359 154ZM345 58Q400 58 448 79T532 137T588 223T609 327Q609 381 589 429T532 515T448 574T346 596Q292 596
244 575T160 516T104 430T83 327Q83 272 103 224T159 138T242 79T345 58Z" />
<glyph unicode="&#xaa;" horiz-adv-x="310" d="M265 196Q270 196 274 193T279 185Q279 184 279 184T278 182Q273 172 266 167T247 161H49Q44 161 40 165T35 173Q35 180 42 188T59 196H265ZM101 268Q88 268 75 278T54 302T46 327Q46 346 52 358T83 380L159 408Q172
413 174 416T177 432V455Q177 470 168 480T140 491Q128 491 114 488T97 478Q95 473 95 466T95 453Q95 449 87 446T69 439T50 434Q47 433 46 436T46 444Q51 455 55 463T71 482Q81 491 97 500T132 517T168 524Q191 524 211 508T230 471L227 347Q227 334 230 321T248
308Q255 308 258 310T264 314Q266 316 268 317T272 318Q276 318 279 313T282 303Q282 302 280 298T272 289Q265 282 255 275T233 268Q208 268 197 281T184 299H180Q169 290 151 279T101 268ZM129 308Q142 308 152 314T169 327Q173 330 174 334T176 350L177 379Q177
388 174 390T162 390Q125 380 111 367T97 342Q97 325 108 317T129 308Z" />
<glyph unicode="&#xab;" horiz-adv-x="595" d="M313 19Q303 19 295 26T283 37Q257 62 230 84T177 124T125 157T78 182Q71 186 66 195T60 211Q60 217 63 218Q101 241 131 260T188 298T238 337T289 382Q293 386 301 393T318 400Q324 400 324 391Q324 387 323 384T319
376Q291 334 265 305T214 255T167 217Q161 213 161 211T167 203Q189 186 213 165T264 113T319 40Q321 38 321 36T322 31Q322 19 313 19ZM524 19Q514 19 506 26T494 37Q468 62 441 84T388 124T336 157T289 182Q282 186 277 195T271 211Q271 217 274 218Q312 241
342 260T399 298T449 337T500 382Q504 386 512 393T529 400Q535 400 535 391Q535 387 534 384T530 376Q502 334 476 305T425 255T378 217Q372 213 372 211T378 203Q400 186 424 165T475 113T530 40Q532 38 532 36T533 31Q533 19 524 19Z" />
<glyph unicode="&#xac;" horiz-adv-x="600" d="M502 43Q498 43 494 47T490 57V304Q490 322 476 322H64Q59 322 55 326T50 334Q50 339 51 350T58 372T74 382H537Q542 382 546 378T550 368V67Q550 57 540 52T519 45T502 43Z" />
<glyph unicode="&#xad;" horiz-adv-x="274" d="M35 170Q29 170 29 176Q29 193 33 211T45 230Q93 237 141 243T237 255Q240 255 242 254T245 249Q245 230 241 214T224 195Q179 188 133 182T35 170Z" />
<glyph unicode="&#xae;" horiz-adv-x="665" d="M345 24Q282 24 228 47T132 113T67 209T43 327Q43 390 66 444T132 541T228 606T346 630Q409 630 463 607T560 541T625 445T649 327Q649 264 626 210T560 113T463 48T345 24ZM345 58Q400 58 448 79T532 137T588 223T609
327Q609 381 589 429T532 513T448 569T346 590Q292 590 244 570T160 513T104 429T83 327Q83 272 103 224T159 138T242 79T345 58ZM483 173Q464 173 445 187T408 222T377 265T358 304Q356 310 348 315T320 320Q314 320 309 317T304 309L305 231Q305 215 316 209T339
199Q346 197 352 193T358 183Q358 179 353 176T342 172Q318 172 308 174T277 176Q263 176 256 175T240 173T216 172Q212 172 206 175T200 183Q200 189 206 193T219 199Q231 203 237 209T244 231V426Q244 447 243 454T236 463T221 468Q202 473 202 484Q202 498 222
496Q235 495 248 493T274 491Q297 491 320 493T366 496Q405 498 437 478T470 417Q470 386 451 366T408 337Q401 335 403 330T408 320Q418 294 437 267T476 222T511 204Q514 204 520 205T527 200Q527 187 512 180T483 173ZM331 347Q360 347 383 365T406 413Q406
437 387 452T342 467Q320 467 312 459T304 437V367Q304 353 312 350T331 347Z" />
<glyph unicode="&#xaf;" horiz-adv-x="300" d="M44 500Q39 500 35 504T30 512Q30 517 32 527T39 546T54 555H257Q262 555 266 552T270 543Q270 527 263 514T239 500H44Z" />
<glyph unicode="&#xb0;" horiz-adv-x="290" d="M145 402Q114 402 87 419T42 465T25 526Q25 558 42 585T86 628T145 645Q177 645 204 629T248 587T265 528Q265 496 248 467T204 420T145 402ZM145 444Q177 444 199 468T222 523Q222 556 200 579T145 602Q114 602
91 579T68 523Q68 492 91 468T145 444Z" />
<glyph unicode="&#xb1;" horiz-adv-x="590" d="M282 121Q278 121 274 125T270 135V346Q270 351 266 351H64Q59 351 55 355T50 363Q50 370 55 385T74 401H263Q268 401 269 403T270 409V580Q270 590 278 596T294 607T306 611Q311 611 315 607T320 598V407Q320 402
321 402T324 401H527Q532 401 536 398T541 390Q541 380 531 366T509 351H324Q320 351 320 347V145Q320 132 305 127T282 121ZM64 38Q59 38 55 42T50 50Q50 55 52 64T60 80T74 88H527Q532 88 536 85T541 77Q541 67 531 53T509 38H64Z" />
<glyph unicode="&#xb2;" horiz-adv-x="300" d="M238 437Q217 437 198 438T163 440T129 441Q114 441 95 441T59 440T32 439Q28 439 24 442T20 449Q20 452 28 459L67 494Q88 513 114 541T159 601T178 660Q178 692 163 709T122 726Q96 726 80 717T42 685Q38 679 33
679Q30 679 28 683T26 693Q26 702 39 722T79 759T143 777Q189 777 211 750T234 684Q234 664 223 640T194 594Q181 578 168 563T143 535T120 512T103 497Q100 494 105 493T113 492H186Q209 492 224 506T256 542Q260 547 262 550T271 553Q275 553 275 550T275 545Q275
543 265 514T247 450Q246 442 243 440T238 437Z" />
<glyph unicode="&#xb3;" horiz-adv-x="284" d="M96 434Q74 434 52 444T30 475Q30 486 35 493T48 501Q53 501 58 499T64 494Q81 481 94 473T127 465Q152 465 166 485T181 538Q181 558 163 578T118 599Q110 599 99 596T79 592Q75 592 71 595T66 601Q66 609 79 616T108
628T129 636Q149 645 160 658T172 693Q172 712 157 724T123 737Q101 737 84 728T52 698Q51 696 49 694T42 691Q39 691 36 697T32 706Q32 718 47 734T87 764T137 777Q169 777 196 758T223 706Q223 678 208 664T167 637Q164 636 164 635T167 632Q194 623 216 606T238
560Q238 523 218 495T166 450T96 434Z" />
<glyph unicode="&#xb4;" horiz-adv-x="200" d="M30 457Q22 457 22 466Q22 469 23 473T26 484Q33 503 48 532T79 590T103 631Q108 639 115 644T130 649Q149 649 164 644T179 628Q179 622 177 618T169 607Q157 590 137 565T95 515T61 478Q40 457 30 457Z" />
<glyph unicode="&#xb5;" horiz-adv-x="537" d="M153 -285Q137 -285 128 -279T112 -261T100 -234Q97 -225 94 -199T90 -137T87 -65T86 0Q86 35 86 81T86 176T86 271T85 349T85 396Q85 407 90 410T112 414Q134 414 155 404T176 386Q176 370 172 335T161 259T150
182T145 132Q145 119 151 101T170 68T205 53Q244 53 268 74T323 152Q331 178 335 221T342 312T345 400Q345 408 349 411T366 415Q382 415 397 408T422 392T433 377Q433 346 419 289T385 162Q385 144 391 124T412 89T448 75Q467 75 482 83T507 100T521 109Q525 109
528 107T532 100Q532 63 518 37T484 -2T441 -15Q418 -15 399 10T371 79Q370 88 369 98T367 118H365Q362 112 349 91T317 46T277 3T237 -15Q218 -15 203 -9T175 6T154 26Q141 40 134 51T124 62Q117 62 117 28Q117 17 117 -3T118 -48T120 -95T121 -131Q122 -163 134
-184T162 -218T190 -239T202 -254Q202 -264 194 -271T174 -281T153 -285Z" />
<glyph unicode="&#xb6;" horiz-adv-x="595" d="M282 -289Q250 -289 222 -276T176 -238T158 -179Q158 -145 174 -119T215 -77T268 -61Q302 -61 318 -76T334 -114Q334 -136 321 -149T291 -163Q281 -163 274 -159T262 -150Q256 -145 250 -140T236 -135Q224 -135 212
-147T200 -186Q200 -215 226 -234T286 -254Q311 -254 333 -241T371 -197T386 -112V94Q386 102 384 110T373 119Q306 119 247 135T142 183T71 265T45 383Q45 477 89 535T214 621T407 648Q435 648 464 647T517 645T547 642Q555 641 558 635T562 622Q562 615 558 604T548
592Q544 592 513 600T443 608Q436 608 431 603T425 590V-112Q425 -175 404 -214T350 -271T282 -289Z" />
<glyph unicode="&#xb7;" horiz-adv-x="200" d="M100 150Q78 150 62 166T45 205Q45 228 61 244T100 260Q123 260 139 244T155 205Q155 183 139 167T100 150Z" />
<glyph unicode="&#xb8;" horiz-adv-x="200" d="M53 -274Q37 -274 30 -265T23 -233Q23 -224 26 -219T36 -214Q44 -214 55 -219T89 -225Q109 -225 118 -212T128 -180Q128 -151 111 -137T69 -123Q59 -123 54 -126T43 -129Q38 -129 32 -125T25 -114Q25 -110 30 -103L118
8H149L111 -42Q106 -49 106 -52Q106 -58 117 -63Q141 -73 159 -93T178 -139Q178 -169 164 -194T129 -236T88 -264T53 -274Z" />
<glyph unicode="&#xb9;" horiz-adv-x="259" d="M48 440Q43 440 39 444T35 455Q35 460 38 465T48 471Q62 472 75 474T97 485T106 514V664Q106 684 90 695T53 710Q47 711 43 715T39 723Q39 735 49 737Q87 741 112 756T146 780Q148 782 151 783T155 784Q166 784 164
770Q163 760 161 742T158 700V514Q158 488 168 482T212 471Q218 470 221 465T224 455Q224 450 221 445T212 440Q184 440 173 441T154 442T130 443Q114 443 106 443T87 441T48 440Z" />
<glyph unicode="&#xba;" horiz-adv-x="309" d="M271 196Q276 196 280 193T285 185Q285 184 285 184T284 182Q279 172 272 167T253 161H39Q34 161 30 165T25 173Q25 180 32 188T49 196H271ZM148 268Q115 268 87 283T42 325T25 388Q25 425 43 456T92 505T160 524Q193
524 221 508T266 464T284 404Q284 369 269 338T223 288T148 268ZM160 297Q182 297 195 310T215 344T221 389Q221 415 213 439T188 478T149 493Q127 493 114 480T94 446T88 402Q88 375 97 351T122 312T160 297Z" />
<glyph unicode="&#xbb;" horiz-adv-x="595" d="M282 19Q273 19 273 31Q273 33 274 35T276 40Q304 83 330 113T381 164T428 203Q434 208 434 210T428 217Q406 234 382 254T331 304T276 376Q274 380 273 383T271 391Q271 400 277 400Q286 400 294 393T306 382Q332
357 356 337T407 299T463 261T532 218Q535 217 535 211Q535 204 530 195T517 182Q495 172 470 158T419 125T365 84T312 37Q308 33 300 26T282 19ZM71 19Q62 19 62 31Q62 33 63 35T65 40Q93 83 119 113T170 164T217 203Q223 208 223 210T217 217Q195 234 171 254T120
304T65 376Q63 380 62 383T60 391Q60 400 66 400Q75 400 83 393T95 382Q121 357 145 337T196 299T252 261T321 218Q324 217 324 211Q324 204 319 195T306 182Q284 172 259 158T208 125T154 84T101 37Q97 33 89 26T71 19Z" />
<glyph unicode="&#xbc;" horiz-adv-x="657" d="M48 278Q43 278 39 282T35 293Q35 298 38 303T48 309Q62 310 75 312T97 323T106 352V502Q106 522 90 533T53 548Q47 549 43 553T39 561Q39 573 49 575Q87 579 112 594T146 618Q148 620 151 621T155 622Q166 622 164
608Q163 598 161 580T158 538V352Q158 326 168 320T212 309Q218 308 221 303T224 293Q224 288 221 283T212 278Q184 278 173 279T154 280T130 281Q114 281 106 281T87 279T48 278ZM556 648Q563 659 572 662T595 665Q600 665 604 661T609 652Q609 649 608 648L170
-47Q164 -57 155 -59T134 -62Q128 -62 123 -58T117 -50Q117 -48 118 -47L556 648ZM536 -8Q527 -8 527 0V92Q527 95 523 96T518 97Q481 97 450 96T372 93Q370 93 368 95T365 100Q365 101 365 101T366 101Q398 143 431 184T497 265Q506 276 521 294T555 330Q560 335
565 339T575 343Q577 343 578 340T579 334V140Q579 132 586 132H607Q618 132 624 132T641 133Q647 133 647 126Q647 119 643 109T633 99H593Q584 99 582 98T579 93V19Q579 12 569 6T549 -4T536 -8ZM423 133H519Q521 133 524 134T527 138V256Q527 258 525 258T521
257Q501 235 484 215T453 176T423 138Q421 133 423 133Z" />
<glyph unicode="&#xbd;" horiz-adv-x="717" d="M48 278Q43 278 39 282T35 293Q35 298 38 303T48 309Q62 310 75 312T97 323T106 352V502Q106 522 90 533T53 548Q47 549 43 553T39 561Q39 573 49 575Q87 579 112 594T146 618Q148 620 151 621T155 622Q166 622 164
608Q163 598 161 580T158 538V352Q158 326 168 320T212 309Q218 308 221 303T224 293Q224 288 221 283T212 278Q184 278 173 279T154 280T130 281Q114 281 106 281T87 279T48 278ZM556 648Q563 659 572 662T595 665Q600 665 604 661T609 652Q609 649 608 648L170
-47Q164 -57 155 -59T134 -62Q128 -62 123 -58T117 -50Q117 -48 118 -47L556 648ZM655 -17Q634 -17 615 -16T580 -14T546 -13Q531 -13 512 -13T476 -14T449 -15Q445 -15 441 -12T437 -5Q437 -2 445 5L484 40Q505 59 531 87T576 147T595 206Q595 238 580 255T539
272Q513 272 497 263T459 231Q455 225 450 225Q447 225 445 229T443 239Q443 248 456 268T496 305T560 323Q606 323 628 296T651 230Q651 210 640 186T611 140Q598 124 585 109T560 81T537 58T520 43Q517 40 522 39T530 38H603Q626 38 641 52T673 88Q677 93 679
96T688 99Q692 99 692 96T692 91Q692 89 682 60T664 -4Q663 -12 660 -14T655 -17Z" />
<glyph unicode="&#xbe;" horiz-adv-x="634" d="M96 274Q74 274 52 284T30 315Q30 326 35 333T48 341Q53 341 58 339T64 334Q81 321 94 313T127 305Q152 305 166 325T181 378Q181 398 163 418T118 439Q110 439 99 436T79 432Q75 432 71 435T66 441Q66 449 79 456T108
468T129 476Q149 485 160 498T172 533Q172 552 157 564T123 577Q101 577 84 568T52 538Q51 536 49 534T42 531Q39 531 36 537T32 546Q32 558 47 574T87 604T137 617Q169 617 196 598T223 546Q223 518 208 504T167 477Q164 476 164 475T167 472Q194 463 216 446T238
400Q238 363 218 335T166 290T96 274ZM533 648Q540 659 549 662T572 665Q577 665 581 661T586 652Q586 649 585 648L147 -47Q141 -57 132 -59T111 -62Q105 -62 100 -58T94 -50Q94 -48 95 -47L533 648ZM513 -8Q504 -8 504 0V92Q504 95 500 96T495 97Q458 97 427
96T349 93Q347 93 345 95T342 100Q342 101 342 101T343 101Q375 143 408 184T474 265Q483 276 498 294T532 330Q537 335 542 339T552 343Q554 343 555 340T556 334V140Q556 132 563 132H584Q595 132 601 132T618 133Q624 133 624 126Q624 119 620 109T610 99H570Q561
99 559 98T556 93V19Q556 12 546 6T526 -4T513 -8ZM400 133H496Q498 133 501 134T504 138V256Q504 258 502 258T498 257Q478 235 461 215T430 176T400 138Q398 133 400 133Z" />
<glyph unicode="&#xbf;" horiz-adv-x="376" d="M240 299Q245 299 252 291T262 270Q267 254 272 236T278 183Q278 158 251 138T177 93Q156 83 136 64T116 22Q116 -27 141 -59T217 -93Q224 -93 229 -93T240 -91Q245 -90 251 -90T264 -89Q275 -89 284 -97T300 -118T306
-145Q306 -159 293 -170T266 -181Q241 -181 212 -169T158 -131Q130 -103 109 -68T77 2T65 62Q65 99 78 118T107 146Q129 158 142 165T166 180T193 197Q214 211 219 231T225 276Q225 284 229 291T240 299ZM226 494Q251 494 268 477T286 434Q286 409 269 392T226
374Q201 374 184 391T166 434Q166 459 183 476T226 494Z" />
<glyph unicode="&#xc0;" horiz-adv-x="692" d="M395 685Q393 685 389 687T377 694Q348 717 312 743T247 796Q234 808 234 815Q234 822 245 827T271 835T292 838Q310 838 319 825Q339 796 358 766T396 706Q401 698 401 691Q401 685 395 685ZM27 -5Q14 -5 6 -2T-2
8Q-2 15 6 20T31 31Q57 39 79 55T117 108Q145 172 168 228T213 338T256 450T304 578Q309 592 313 606T318 636Q327 639 336 642T354 651Q363 657 366 669T373 685Q374 686 375 686T378 684Q380 680 381 674T385 662Q409 586 435 507T485 355T530 223T563 128Q577
88 593 68T626 40T664 28Q681 25 689 19T697 5Q697 -1 689 -3T668 -5Q654 -5 630 -4T579 -1T529 1Q510 1 490 1T453 1T424 0Q411 0 403 3T395 12Q395 19 405 24T428 31Q461 36 475 48T489 76Q489 91 483 119T467 180T450 238Q448 246 443 247T423 249H234Q230 249
226 246T217 231Q214 221 207 200T193 154T181 111T176 87Q176 65 193 51T234 30Q267 21 267 10Q267 4 259 2T238 -1Q225 -1 200 0T147 1Q114 1 83 -2T27 -5ZM261 282H416Q430 282 430 287Q430 289 430 291T428 297L350 541Q344 559 341 559Q339 559 333 542L242
297Q240 291 240 289Q240 284 245 283T261 282Z" />
<glyph unicode="&#xc1;" horiz-adv-x="692" d="M27 -5Q14 -5 6 -2T-2 8Q-2 15 6 20T31 31Q57 39 79 55T117 108Q145 172 168 228T213 338T256 450T304 578Q309 592 313 606T318 636Q327 639 336 642T354 651Q363 657 366 669T373 685Q374 686 375 686T378 684Q380
680 381 674T385 662Q409 586 435 507T485 355T530 223T563 128Q577 88 593 68T626 40T664 28Q681 25 689 19T697 5Q697 -1 689 -3T668 -5Q654 -5 630 -4T579 -1T529 1Q510 1 490 1T453 1T424 0Q411 0 403 3T395 12Q395 19 405 24T428 31Q461 36 475 48T489 76Q489
91 483 119T467 180T450 238Q448 246 443 247T423 249H234Q230 249 226 246T217 231Q214 221 207 200T193 154T181 111T176 87Q176 65 193 51T234 30Q267 21 267 10Q267 4 259 2T238 -1Q225 -1 200 0T147 1Q114 1 83 -2T27 -5ZM261 282H416Q430 282 430 287Q430
289 430 291T428 297L350 541Q344 559 341 559Q339 559 333 542L242 297Q240 291 240 289Q240 284 245 283T261 282ZM330 685Q324 685 324 691Q324 698 329 706Q347 736 366 766T406 825Q415 838 433 838Q440 838 454 835T479 827T491 815Q491 808 478 796Q449
770 413 744T348 694Q341 689 337 687T330 685Z" />
<glyph unicode="&#xc2;" horiz-adv-x="692" d="M27 -5Q14 -5 6 -2T-2 8Q-2 15 6 20T31 31Q57 39 79 55T117 108Q145 172 168 228T213 338T256 450T304 578Q309 592 313 606T318 636Q327 639 336 642T354 651Q363 657 366 669T373 685Q374 686 375 686T378 684Q380
680 381 674T385 662Q409 586 435 507T485 355T530 223T563 128Q577 88 593 68T626 40T664 28Q681 25 689 19T697 5Q697 -1 689 -3T668 -5Q654 -5 630 -4T579 -1T529 1Q510 1 490 1T453 1T424 0Q411 0 403 3T395 12Q395 19 405 24T428 31Q461 36 475 48T489 76Q489
91 483 119T467 180T450 238Q448 246 443 247T423 249H234Q230 249 226 246T217 231Q214 221 207 200T193 154T181 111T176 87Q176 65 193 51T234 30Q267 21 267 10Q267 4 259 2T238 -1Q225 -1 200 0T147 1Q114 1 83 -2T27 -5ZM261 282H416Q430 282 430 287Q430
289 430 291T428 297L350 541Q344 559 341 559Q339 559 333 542L242 297Q240 291 240 289Q240 284 245 283T261 282ZM232 696Q217 696 217 706Q217 712 224 718L322 801Q336 813 344 818T363 823Q374 823 382 818T404 801L502 718Q508 713 508 706Q508 695 494
695Q489 695 474 701T439 717T401 736T373 751Q366 755 363 755T353 751Q343 745 325 736T288 718T253 703T232 696Z" />
<glyph unicode="&#xc3;" horiz-adv-x="692" d="M27 -5Q14 -5 6 -2T-2 8Q-2 15 6 20T31 31Q57 39 79 55T117 108Q145 172 168 228T213 338T256 450T304 578Q309 592 313 606T318 636Q327 639 336 642T354 651Q363 657 366 669T373 685Q374 686 375 686T378 684Q380
680 381 674T385 662Q409 586 435 507T485 355T530 223T563 128Q577 88 593 68T626 40T664 28Q681 25 689 19T697 5Q697 -1 689 -3T668 -5Q654 -5 630 -4T579 -1T529 1Q510 1 490 1T453 1T424 0Q411 0 403 3T395 12Q395 19 405 24T428 31Q461 36 475 48T489 76Q489
91 483 119T467 180T450 238Q448 246 443 247T423 249H234Q230 249 226 246T217 231Q214 221 207 200T193 154T181 111T176 87Q176 65 193 51T234 30Q267 21 267 10Q267 4 259 2T238 -1Q225 -1 200 0T147 1Q114 1 83 -2T27 -5ZM261 282H416Q430 282 430 287Q430
289 430 291T428 297L350 541Q344 559 341 559Q339 559 333 542L242 297Q240 291 240 289Q240 284 245 283T261 282ZM251 692Q246 692 241 697T235 708Q235 712 244 725T266 753T294 780T317 792Q334 792 352 792T385 789Q402 788 419 787T449 785Q460 785 470
791T488 804Q495 811 500 817T508 824Q516 824 521 820T527 807Q527 804 523 799T513 789Q501 777 489 761T466 733Q460 726 450 723T437 719Q431 719 415 720T377 723T337 726T306 727Q299 727 289 724T273 715Q264 708 259 700T251 692Z" />
<glyph unicode="&#xc4;" horiz-adv-x="692" d="M27 -5Q14 -5 6 -2T-2 8Q-2 15 6 20T31 31Q57 39 79 55T117 108Q145 172 168 228T213 338T256 450T304 578Q309 592 313 606T318 636Q327 639 336 642T354 651Q363 657 366 669T373 685Q374 686 375 686T378 684Q380
680 381 674T385 662Q409 586 435 507T485 355T530 223T563 128Q577 88 593 68T626 40T664 28Q681 25 689 19T697 5Q697 -1 689 -3T668 -5Q654 -5 630 -4T579 -1T529 1Q510 1 490 1T453 1T424 0Q411 0 403 3T395 12Q395 19 405 24T428 31Q461 36 475 48T489 76Q489
91 483 119T467 180T450 238Q448 246 443 247T423 249H234Q230 249 226 246T217 231Q214 221 207 200T193 154T181 111T176 87Q176 65 193 51T234 30Q267 21 267 10Q267 4 259 2T238 -1Q225 -1 200 0T147 1Q114 1 83 -2T27 -5ZM261 282H416Q430 282 430 287Q430
289 430 291T428 297L350 541Q344 559 341 559Q339 559 333 542L242 297Q240 291 240 289Q240 284 245 283T261 282ZM461 695Q440 695 426 709T411 745Q411 766 425 780T461 795Q482 795 496 781T511 745Q511 724 497 710T461 695ZM266 695Q245 695 231 709T216
745Q216 766 230 780T266 795Q287 795 301 781T316 745Q316 724 302 710T266 695Z" />
<glyph unicode="&#xc5;" horiz-adv-x="692" d="M27 -5Q14 -5 6 -2T-2 8Q-2 15 6 20T31 31Q57 39 79 55T117 108Q145 172 168 228T213 338T256 450T304 578Q309 592 313 606T318 636Q327 639 336 642T354 651Q363 657 366 669T373 685Q374 686 375 686T378 684Q380
680 381 674T385 662Q409 586 435 507T485 355T530 223T563 128Q577 88 593 68T626 40T664 28Q681 25 689 19T697 5Q697 -1 689 -3T668 -5Q654 -5 630 -4T579 -1T529 1Q510 1 490 1T453 1T424 0Q411 0 403 3T395 12Q395 19 405 24T428 31Q461 36 475 48T489 76Q489
91 483 119T467 180T450 238Q448 246 443 247T423 249H234Q230 249 226 246T217 231Q214 221 207 200T193 154T181 111T176 87Q176 65 193 51T234 30Q267 21 267 10Q267 4 259 2T238 -1Q225 -1 200 0T147 1Q114 1 83 -2T27 -5ZM261 282H416Q430 282 430 287Q430
289 430 291T428 297L350 541Q344 559 341 559Q339 559 333 542L242 297Q240 291 240 289Q240 284 245 283T261 282ZM312 772Q312 751 326 737T362 722Q381 722 391 737T402 772Q402 792 388 806T354 821Q335 821 324 807T312 772ZM361 844Q393 844 418 827T444
777Q444 754 431 737T398 710T353 700Q321 700 296 718T270 769Q270 792 283 809T317 835T361 844Z" />
<glyph unicode="&#xc6;" horiz-adv-x="872" d="M24 -5Q11 -5 3 -3T-5 6Q-5 13 3 18T28 28Q54 36 82 63T132 126L405 594Q409 600 404 605T388 611L300 626Q295 628 293 631T290 639Q290 651 300 651Q332 651 378 650T475 648Q516 648 562 649T651 650T730 652T784
653Q789 653 795 651T802 644Q807 616 810 592T814 541Q814 537 810 535T800 532Q795 532 793 534T789 542Q784 559 779 571T766 591Q752 607 735 612T699 618H568Q560 618 547 612T533 592V349Q533 341 538 334T550 327Q582 327 605 327T646 329Q660 330 670 334T690
347Q704 359 709 373T725 388Q729 388 734 384T738 372Q737 355 736 341T735 313Q735 296 736 279T738 240Q738 233 737 228T729 223Q719 223 714 232T706 246Q699 269 685 279T659 290Q628 292 607 292T556 292Q547 292 540 287T533 269V111Q533 83 548 59T598
35H702Q705 35 721 37T754 44T778 53Q792 64 803 83T820 116Q823 122 826 124T834 126Q847 124 847 115Q847 87 842 61T830 12Q829 6 827 1T816 -5Q773 -5 733 -4T654 -2T575 0T492 1Q470 1 454 0T421 -3T377 -5Q364 -5 356 -3T348 6Q348 18 381 24Q418 31 436
46T454 96V267Q454 275 451 280T432 285H291Q280 285 273 279T261 262Q242 228 223 194T179 112Q170 96 170 82Q170 58 191 47T235 30Q268 21 268 10Q268 4 260 2T239 -1Q226 -1 202 0T150 1Q116 1 83 -2T24 -5ZM314 328H438Q449 328 451 330T454 343V580Q454 598
451 598T438 581L302 343Q298 336 298 333Q298 330 302 329T314 328Z" />
<glyph unicode="&#xc7;" horiz-adv-x="710" d="M407 -15Q337 -15 272 9T156 77T76 184T46 323Q46 396 77 458T162 566T285 637T432 663Q471 663 498 660T550 652T610 637Q625 633 631 625T639 603Q641 580 644 554T648 488Q649 481 642 477T626 474T614 487Q604
525 591 552T552 598Q527 615 492 623T415 632Q357 632 308 609T223 545T167 453T147 347Q147 286 166 227T222 121T309 45T422 16Q494 16 541 49T621 141Q628 154 641 154T655 138Q655 130 651 113T641 76T628 41Q621 27 617 23T596 14Q559 -1 508 -8T407 -15ZM335
-275Q313 -275 302 -267T290 -243Q290 -226 295 -218T306 -209Q312 -209 322 -215T369 -222Q391 -222 401 -211T411 -183Q411 -154 398 -142T364 -129Q355 -129 350 -130T338 -132Q325 -132 319 -126T312 -115Q312 -110 314 -107T318 -100L398 8H429L392 -48Q381
-63 398 -70Q419 -78 441 -101T464 -159Q464 -193 441 -219T388 -260T335 -275Z" />
<glyph unicode="&#xc8;" horiz-adv-x="564" d="M330 685Q328 685 324 687T312 694Q283 717 247 743T182 796Q169 808 169 815Q169 822 180 827T206 835T227 838Q245 838 254 825Q274 796 293 766T331 706Q336 698 336 691Q336 685 330 685ZM66 -5Q53 -5 45 -3T37
6Q37 18 70 24Q108 31 126 47T144 99V549Q144 585 130 600T77 622Q60 625 52 630T44 642Q44 648 52 650T73 653Q111 653 137 652T189 651T250 650Q283 650 319 650T387 651Q421 652 444 652T472 653Q477 653 483 651T490 644Q495 616 500 589T505 541Q505 532 501
529T491 526Q486 526 484 528T480 536Q475 553 470 568T458 591Q444 607 427 612T391 618H260Q252 618 238 609T224 586V374Q224 365 229 359T242 352H341Q370 352 381 362T399 401Q405 423 417 423Q421 423 425 419T430 407Q430 403 430 389T428 360T427 337Q427
327 427 311T428 279T429 260Q429 253 428 248T420 243Q405 243 397 275Q391 298 381 309T351 320H258Q241 320 233 316T224 294V102Q224 64 240 50T290 35H364Q396 35 417 38T455 52Q471 63 483 81T512 129Q515 135 519 139T528 142Q533 141 536 138T539 128Q539
119 534 97T522 50T508 12Q505 5 503 0T494 -5Q446 -5 405 -4T327 -2T255 0T181 1Q159 1 143 0T110 -3T66 -5Z" />
<glyph unicode="&#xc9;" horiz-adv-x="564" d="M66 -5Q53 -5 45 -3T37 6Q37 18 70 24Q108 31 126 47T144 99V549Q144 585 130 600T77 622Q60 625 52 630T44 642Q44 648 52 650T73 653Q111 653 137 652T189 651T250 650Q283 650 319 650T387 651Q421 652 444 652T472
653Q477 653 483 651T490 644Q495 616 500 589T505 541Q505 532 501 529T491 526Q486 526 484 528T480 536Q475 553 470 568T458 591Q444 607 427 612T391 618H260Q252 618 238 609T224 586V374Q224 365 229 359T242 352H341Q370 352 381 362T399 401Q405 423 417
423Q421 423 425 419T430 407Q430 403 430 389T428 360T427 337Q427 327 427 311T428 279T429 260Q429 253 428 248T420 243Q405 243 397 275Q391 298 381 309T351 320H258Q241 320 233 316T224 294V102Q224 64 240 50T290 35H364Q396 35 417 38T455 52Q471 63
483 81T512 129Q515 135 519 139T528 142Q533 141 536 138T539 128Q539 119 534 97T522 50T508 12Q505 5 503 0T494 -5Q446 -5 405 -4T327 -2T255 0T181 1Q159 1 143 0T110 -3T66 -5ZM265 685Q259 685 259 691Q259 698 264 706Q282 736 301 766T341 825Q350 838
368 838Q375 838 389 835T414 827T426 815Q426 808 413 796Q384 770 348 744T283 694Q276 689 272 687T265 685Z" />
<glyph unicode="&#xca;" horiz-adv-x="564" d="M66 -5Q53 -5 45 -3T37 6Q37 18 70 24Q108 31 126 47T144 99V549Q144 585 130 600T77 622Q60 625 52 630T44 642Q44 648 52 650T73 653Q111 653 137 652T189 651T250 650Q283 650 319 650T387 651Q421 652 444 652T472
653Q477 653 483 651T490 644Q495 616 500 589T505 541Q505 532 501 529T491 526Q486 526 484 528T480 536Q475 553 470 568T458 591Q444 607 427 612T391 618H260Q252 618 238 609T224 586V374Q224 365 229 359T242 352H341Q370 352 381 362T399 401Q405 423 417
423Q421 423 425 419T430 407Q430 403 430 389T428 360T427 337Q427 327 427 311T428 279T429 260Q429 253 428 248T420 243Q405 243 397 275Q391 298 381 309T351 320H258Q241 320 233 316T224 294V102Q224 64 240 50T290 35H364Q396 35 417 38T455 52Q471 63
483 81T512 129Q515 135 519 139T528 142Q533 141 536 138T539 128Q539 119 534 97T522 50T508 12Q505 5 503 0T494 -5Q446 -5 405 -4T327 -2T255 0T181 1Q159 1 143 0T110 -3T66 -5ZM167 696Q152 696 152 706Q152 712 159 718L257 801Q271 813 279 818T298 823Q309
823 317 818T339 801L437 718Q443 713 443 706Q443 695 429 695Q424 695 409 701T374 717T336 736T308 751Q301 755 298 755T288 751Q278 745 260 736T223 718T188 703T167 696Z" />
<glyph unicode="&#xcb;" horiz-adv-x="564" d="M66 -5Q53 -5 45 -3T37 6Q37 18 70 24Q108 31 126 47T144 99V549Q144 585 130 600T77 622Q60 625 52 630T44 642Q44 648 52 650T73 653Q111 653 137 652T189 651T250 650Q283 650 319 650T387 651Q421 652 444 652T472
653Q477 653 483 651T490 644Q495 616 500 589T505 541Q505 532 501 529T491 526Q486 526 484 528T480 536Q475 553 470 568T458 591Q444 607 427 612T391 618H260Q252 618 238 609T224 586V374Q224 365 229 359T242 352H341Q370 352 381 362T399 401Q405 423 417
423Q421 423 425 419T430 407Q430 403 430 389T428 360T427 337Q427 327 427 311T428 279T429 260Q429 253 428 248T420 243Q405 243 397 275Q391 298 381 309T351 320H258Q241 320 233 316T224 294V102Q224 64 240 50T290 35H364Q396 35 417 38T455 52Q471 63
483 81T512 129Q515 135 519 139T528 142Q533 141 536 138T539 128Q539 119 534 97T522 50T508 12Q505 5 503 0T494 -5Q446 -5 405 -4T327 -2T255 0T181 1Q159 1 143 0T110 -3T66 -5ZM396 695Q375 695 361 709T346 745Q346 766 360 780T396 795Q417 795 431 781T446
745Q446 724 432 710T396 695ZM201 695Q180 695 166 709T151 745Q151 766 165 780T201 795Q222 795 236 781T251 745Q251 724 237 710T201 695Z" />
<glyph unicode="&#xcc;" horiz-adv-x="340" d="M202 685Q200 685 196 687T184 694Q155 717 119 743T54 796Q41 808 41 815Q41 822 52 827T78 835T99 838Q117 838 126 825Q146 796 165 766T203 706Q208 698 208 691Q208 685 202 685ZM48 -5Q35 -5 27 -3T19 6Q19
18 52 24Q90 31 110 47T130 98V550Q130 585 116 600T63 622Q30 628 30 642Q30 648 38 650T59 653Q86 653 103 652T137 651T176 650Q198 650 212 650T242 652T285 653Q298 653 306 651T314 642Q314 635 306 630T281 622Q244 615 227 600T210 550V98Q210 63 231 47T289
24Q306 21 314 17T322 6Q322 0 314 -2T293 -5Q266 -5 249 -4T215 -1T176 0Q151 0 133 -1T95 -3T48 -5Z" />
<glyph unicode="&#xcd;" horiz-adv-x="340" d="M48 -5Q35 -5 27 -3T19 6Q19 18 52 24Q90 31 110 47T130 98V550Q130 585 116 600T63 622Q30 628 30 642Q30 648 38 650T59 653Q86 653 103 652T137 651T176 650Q198 650 212 650T242 652T285 653Q298 653 306 651T314
642Q314 635 306 630T281 622Q244 615 227 600T210 550V98Q210 63 231 47T289 24Q306 21 314 17T322 6Q322 0 314 -2T293 -5Q266 -5 249 -4T215 -1T176 0Q151 0 133 -1T95 -3T48 -5ZM137 685Q131 685 131 691Q131 698 136 706Q154 736 173 766T213 825Q222 838
240 838Q247 838 261 835T286 827T298 815Q298 808 285 796Q256 770 220 744T155 694Q148 689 144 687T137 685Z" />
<glyph unicode="&#xce;" horiz-adv-x="340" d="M48 -5Q35 -5 27 -3T19 6Q19 18 52 24Q90 31 110 47T130 98V550Q130 585 116 600T63 622Q30 628 30 642Q30 648 38 650T59 653Q86 653 103 652T137 651T176 650Q198 650 212 650T242 652T285 653Q298 653 306 651T314
642Q314 635 306 630T281 622Q244 615 227 600T210 550V98Q210 63 231 47T289 24Q306 21 314 17T322 6Q322 0 314 -2T293 -5Q266 -5 249 -4T215 -1T176 0Q151 0 133 -1T95 -3T48 -5ZM39 696Q24 696 24 706Q24 712 31 718L129 801Q143 813 151 818T170 823Q181 823
189 818T211 801L309 718Q315 713 315 706Q315 695 301 695Q296 695 281 701T246 717T208 736T180 751Q173 755 170 755T160 751Q150 745 132 736T95 718T60 703T39 696Z" />
<glyph unicode="&#xcf;" horiz-adv-x="340" d="M48 -5Q35 -5 27 -3T19 6Q19 18 52 24Q90 31 110 47T130 98V550Q130 585 116 600T63 622Q30 628 30 642Q30 648 38 650T59 653Q86 653 103 652T137 651T176 650Q198 650 212 650T242 652T285 653Q298 653 306 651T314
642Q314 635 306 630T281 622Q244 615 227 600T210 550V98Q210 63 231 47T289 24Q306 21 314 17T322 6Q322 0 314 -2T293 -5Q266 -5 249 -4T215 -1T176 0Q151 0 133 -1T95 -3T48 -5ZM268 695Q247 695 233 709T218 745Q218 766 232 780T268 795Q289 795 303 781T318
745Q318 724 304 710T268 695ZM73 695Q52 695 38 709T23 745Q23 766 37 780T73 795Q94 795 108 781T123 745Q123 724 109 710T73 695Z" />
<glyph unicode="&#xd0;" horiz-adv-x="754" d="M60 317Q53 317 50 324T46 335Q46 342 53 347T70 353H377Q382 353 386 350T391 342Q391 341 391 341T390 339Q385 329 378 323T359 317H60ZM371 -7Q361 -7 327 -5T248 -2T163 0Q143 0 130 -1T101 -3T58 -5Q45 -5
37 -2T29 8Q29 16 37 18T62 24Q100 31 114 47T129 99V549Q129 585 115 600T62 622Q45 625 37 628T29 640Q29 647 37 650T58 653Q84 653 99 653T130 652T169 651Q185 651 209 652T260 655T308 658T340 659Q442 659 514 635T631 567T697 466T719 342Q719 270 692
207T617 96T506 20T371 -7ZM359 28Q437 28 497 66T590 171T624 325Q624 397 600 453T536 548T446 607T345 628Q302 628 272 626T225 610T209 567V121Q209 81 231 61T287 35T359 28Z" />
<glyph unicode="&#xd1;" horiz-adv-x="792" d="M668 -17Q659 -17 633 -2T582 46Q578 51 558 76T506 138T437 220T363 308T294 389T241 452T214 484Q207 493 202 496T193 500Q188 500 186 493T184 479Q183 430 182 366T180 234T179 104Q179 77 192 54T243 24Q260
21 268 17T276 6Q276 0 268 -2T247 -5Q220 -5 207 -4T183 -1T153 0Q135 0 125 -1T102 -3T62 -5Q49 -5 41 -3T33 6Q33 13 41 17T66 25Q95 33 108 54T124 107Q128 145 132 207T139 347T142 507Q142 560 115 583T43 620Q39 622 26 628T12 644Q12 653 21 655T35 658Q64
657 82 657T114 655T145 654T189 653Q198 653 203 648T213 636Q217 630 239 603T295 534T369 444T449 347T523 257T579 188T606 156Q610 152 617 144T631 136Q640 136 641 157Q641 171 641 210T642 306T643 429T643 564Q642 584 622 600T585 619Q568 622 554 627T540
639Q540 645 554 647T581 650Q591 650 600 650T619 650T638 650Q662 650 676 650T706 652T753 653Q766 653 774 651T782 642Q782 628 749 622Q712 615 700 604T686 568Q686 563 686 529T685 443T685 331T684 212T684 105Q684 81 685 62T688 29T689 8Q689 -8 683
-12T668 -17ZM294 692Q289 692 284 697T278 708Q278 712 287 725T309 753T337 780T360 792Q377 792 395 792T428 789Q445 788 462 787T492 785Q503 785 513 791T531 804Q538 811 543 817T551 824Q559 824 564 820T570 807Q570 804 566 799T556 789Q544 777 532
761T509 733Q503 726 493 723T480 719Q474 719 458 720T420 723T380 726T349 727Q342 727 332 724T316 715Q307 708 302 700T294 692Z" />
<glyph unicode="&#xd2;" horiz-adv-x="763" d="M423 685Q421 685 417 687T405 694Q376 717 340 743T275 796Q262 808 262 815Q262 822 273 827T299 835T320 838Q338 838 347 825Q367 796 386 766T424 706Q429 698 429 691Q429 685 423 685ZM377 -14Q311 -14 251
9T145 76T72 180T45 315Q45 383 67 445T132 557T239 635T386 664Q452 664 512 641T618 574T691 470T718 335Q718 268 696 205T631 93T524 15T377 -14ZM392 26Q469 26 520 58T596 149T622 286Q622 355 606 416T559 523T480 596T370 622Q295 622 244 590T167 501T141
365Q141 295 156 234T203 126T282 53T392 26Z" />
<glyph unicode="&#xd3;" horiz-adv-x="763" d="M377 -14Q311 -14 251 9T145 76T72 180T45 315Q45 383 67 445T132 557T239 635T386 664Q452 664 512 641T618 574T691 470T718 335Q718 268 696 205T631 93T524 15T377 -14ZM392 26Q469 26 520 58T596 149T622 286Q622
355 606 416T559 523T480 596T370 622Q295 622 244 590T167 501T141 365Q141 295 156 234T203 126T282 53T392 26ZM358 685Q352 685 352 691Q352 698 357 706Q375 736 394 766T434 825Q443 838 461 838Q468 838 482 835T507 827T519 815Q519 808 506 796Q477 770
441 744T376 694Q369 689 365 687T358 685Z" />
<glyph unicode="&#xd4;" horiz-adv-x="763" d="M377 -14Q311 -14 251 9T145 76T72 180T45 315Q45 383 67 445T132 557T239 635T386 664Q452 664 512 641T618 574T691 470T718 335Q718 268 696 205T631 93T524 15T377 -14ZM392 26Q469 26 520 58T596 149T622 286Q622
355 606 416T559 523T480 596T370 622Q295 622 244 590T167 501T141 365Q141 295 156 234T203 126T282 53T392 26ZM260 696Q245 696 245 706Q245 712 252 718L350 801Q364 813 372 818T391 823Q402 823 410 818T432 801L530 718Q536 713 536 706Q536 695 522 695Q517
695 502 701T467 717T429 736T401 751Q394 755 391 755T381 751Q371 745 353 736T316 718T281 703T260 696Z" />
<glyph unicode="&#xd5;" horiz-adv-x="763" d="M377 -14Q311 -14 251 9T145 76T72 180T45 315Q45 383 67 445T132 557T239 635T386 664Q452 664 512 641T618 574T691 470T718 335Q718 268 696 205T631 93T524 15T377 -14ZM392 26Q469 26 520 58T596 149T622 286Q622
355 606 416T559 523T480 596T370 622Q295 622 244 590T167 501T141 365Q141 295 156 234T203 126T282 53T392 26ZM279 692Q274 692 269 697T263 708Q263 712 272 725T294 753T322 780T345 792Q362 792 380 792T413 789Q430 788 447 787T477 785Q488 785 498 791T516
804Q523 811 528 817T536 824Q544 824 549 820T555 807Q555 804 551 799T541 789Q529 777 517 761T494 733Q488 726 478 723T465 719Q459 719 443 720T405 723T365 726T334 727Q327 727 317 724T301 715Q292 708 287 700T279 692Z" />
<glyph unicode="&#xd6;" horiz-adv-x="763" d="M377 -14Q311 -14 251 9T145 76T72 180T45 315Q45 383 67 445T132 557T239 635T386 664Q452 664 512 641T618 574T691 470T718 335Q718 268 696 205T631 93T524 15T377 -14ZM392 26Q469 26 520 58T596 149T622 286Q622
355 606 416T559 523T480 596T370 622Q295 622 244 590T167 501T141 365Q141 295 156 234T203 126T282 53T392 26ZM489 695Q468 695 454 709T439 745Q439 766 453 780T489 795Q510 795 524 781T539 745Q539 724 525 710T489 695ZM294 695Q273 695 259 709T244 745Q244
766 258 780T294 795Q315 795 329 781T344 745Q344 724 330 710T294 695Z" />
<glyph unicode="&#xd7;" horiz-adv-x="600" d="M456 60Q450 60 446 64L304 207Q301 211 297 207L154 64Q150 60 145 60T136 63Q132 67 123 79T114 102Q114 109 119 114L253 248Q256 251 256 253T252 258L123 386Q118 391 118 400Q118 412 125 425T134 441Q138
445 143 445T153 441L296 299Q300 295 301 296T303 298L447 441Q452 446 457 446Q463 446 466 441Q471 431 477 421T483 401Q483 393 476 386L345 255Q343 253 345 250L481 114Q486 109 486 102Q486 89 475 75T456 60Z" />
<glyph unicode="&#xd8;" horiz-adv-x="773" d="M70 -14Q60 -14 51 -8T42 6Q42 16 52 26L692 658Q697 663 705 662T716 654Q717 651 718 647T719 639Q719 634 718 630T712 621L79 -11Q78 -12 76 -13T70 -14ZM377 -14Q311 -14 251 9T145 76T72 180T45 315Q45 383
67 445T132 557T239 635T386 664Q452 664 512 641T618 574T691 470T718 335Q718 268 696 205T631 93T524 15T377 -14ZM392 26Q469 26 520 58T596 149T622 286Q622 355 606 416T559 523T480 596T370 622Q295 622 244 590T167 501T141 365Q141 295 156 234T203 126T282
53T392 26Z" />
<glyph unicode="&#xd9;" horiz-adv-x="738" d="M422 685Q420 685 416 687T404 694Q375 717 339 743T274 796Q261 808 261 815Q261 822 272 827T298 835T319 838Q337 838 346 825Q366 796 385 766T423 706Q428 698 428 691Q428 685 422 685ZM372 -14Q283 -14 223
17T133 106T103 240V547Q103 583 89 599T57 620Q24 629 24 642Q24 648 32 650T53 653Q76 653 98 652T149 650Q172 650 192 651T229 652Q242 652 250 650T258 641Q258 634 250 630T225 621Q213 617 198 598T183 549V268Q183 188 210 137T284 61T393 36Q496 36 544
107T592 296Q592 318 592 354T590 431T588 511Q588 537 584 560T570 599T547 620Q537 623 526 628T514 640Q514 646 522 648T543 651Q566 651 581 651T618 650Q634 650 648 650T675 652T699 653Q712 653 720 651T728 642Q728 629 695 622Q669 617 658 597T645 547Q640
461 639 390T635 250Q633 173 598 113T505 20T372 -14Z" />
<glyph unicode="&#xda;" horiz-adv-x="738" d="M372 -14Q283 -14 223 17T133 106T103 240V547Q103 583 89 599T57 620Q24 629 24 642Q24 648 32 650T53 653Q76 653 98 652T149 650Q172 650 192 651T229 652Q242 652 250 650T258 641Q258 634 250 630T225 621Q213
617 198 598T183 549V268Q183 188 210 137T284 61T393 36Q496 36 544 107T592 296Q592 318 592 354T590 431T588 511Q588 537 584 560T570 599T547 620Q537 623 526 628T514 640Q514 646 522 648T543 651Q566 651 581 651T618 650Q634 650 648 650T675 652T699
653Q712 653 720 651T728 642Q728 629 695 622Q669 617 658 597T645 547Q640 461 639 390T635 250Q633 173 598 113T505 20T372 -14ZM357 685Q351 685 351 691Q351 698 356 706Q374 736 393 766T433 825Q442 838 460 838Q467 838 481 835T506 827T518 815Q518 808
505 796Q476 770 440 744T375 694Q368 689 364 687T357 685Z" />
<glyph unicode="&#xdb;" horiz-adv-x="738" d="M372 -14Q283 -14 223 17T133 106T103 240V547Q103 583 89 599T57 620Q24 629 24 642Q24 648 32 650T53 653Q76 653 98 652T149 650Q172 650 192 651T229 652Q242 652 250 650T258 641Q258 634 250 630T225 621Q213
617 198 598T183 549V268Q183 188 210 137T284 61T393 36Q496 36 544 107T592 296Q592 318 592 354T590 431T588 511Q588 537 584 560T570 599T547 620Q537 623 526 628T514 640Q514 646 522 648T543 651Q566 651 581 651T618 650Q634 650 648 650T675 652T699
653Q712 653 720 651T728 642Q728 629 695 622Q669 617 658 597T645 547Q640 461 639 390T635 250Q633 173 598 113T505 20T372 -14ZM259 696Q244 696 244 706Q244 712 251 718L349 801Q363 813 371 818T390 823Q401 823 409 818T431 801L529 718Q535 713 535 706Q535
695 521 695Q516 695 501 701T466 717T428 736T400 751Q393 755 390 755T380 751Q370 745 352 736T315 718T280 703T259 696Z" />
<glyph unicode="&#xdc;" horiz-adv-x="738" d="M372 -14Q283 -14 223 17T133 106T103 240V547Q103 583 89 599T57 620Q24 629 24 642Q24 648 32 650T53 653Q76 653 98 652T149 650Q172 650 192 651T229 652Q242 652 250 650T258 641Q258 634 250 630T225 621Q213
617 198 598T183 549V268Q183 188 210 137T284 61T393 36Q496 36 544 107T592 296Q592 318 592 354T590 431T588 511Q588 537 584 560T570 599T547 620Q537 623 526 628T514 640Q514 646 522 648T543 651Q566 651 581 651T618 650Q634 650 648 650T675 652T699
653Q712 653 720 651T728 642Q728 629 695 622Q669 617 658 597T645 547Q640 461 639 390T635 250Q633 173 598 113T505 20T372 -14ZM488 695Q467 695 453 709T438 745Q438 766 452 780T488 795Q509 795 523 781T538 745Q538 724 524 710T488 695ZM293 695Q272
695 258 709T243 745Q243 766 257 780T293 795Q314 795 328 781T343 745Q343 724 329 710T293 695Z" />
<glyph unicode="&#xdd;" horiz-adv-x="578" d="M182 -5Q169 -5 161 -3T153 6Q153 13 161 17T186 24Q224 31 244 51T264 108V256Q264 276 254 299T239 330L122 522Q115 534 100 555T68 596T33 620Q17 625 9 630T0 642Q0 648 8 650T29 653Q52 653 82 652T146 650Q169
650 189 651T226 652Q239 652 247 650T255 641Q255 634 247 630T222 621Q208 617 199 612T190 596Q190 583 203 560L295 390Q315 352 323 352Q329 352 336 360T356 390Q379 425 397 457T440 534Q450 551 454 563T458 585Q458 604 445 611T417 620Q407 622 396 627T384
640Q384 646 392 648T413 651Q436 651 451 651T488 650Q519 650 547 651T592 653Q605 653 613 651T621 642Q621 635 605 629T568 617Q542 610 525 589T480 526Q460 495 447 474T422 435T398 398T369 350Q356 329 351 316T345 292T344 260V108Q344 74 365 53T423
24Q440 21 448 17T456 6Q456 0 448 -2T427 -5Q400 -5 383 -4T349 -1T310 0Q285 0 267 -1T229 -3T182 -5ZM287 685Q281 685 281 691Q281 698 286 706Q304 736 323 766T363 825Q372 838 390 838Q397 838 411 835T436 827T448 815Q448 808 435 796Q406 770 370 744T305
694Q298 689 294 687T287 685Z" />
<glyph unicode="&#xde;" horiz-adv-x="559" d="M51 -5Q38 -5 30 -3T22 6Q22 18 55 24Q93 31 113 47T134 99V549Q134 578 125 596T77 622Q44 628 44 642Q44 648 52 650T73 653Q100 653 115 652T143 651T177 650Q200 650 216 650T251 652T296 653Q309 653 317 651T325
642Q325 635 317 630T292 622Q255 615 235 600T214 549V532Q214 524 215 518T220 512Q222 512 227 513T237 516T243 517Q257 521 276 522T315 524Q372 524 418 502T492 439T519 337Q519 264 482 218T385 151T256 129Q246 129 238 130T222 132Q214 132 214 123V96Q214
65 235 48T293 24Q310 21 318 17T326 6Q326 0 318 -2T297 -5Q270 -5 253 -4T219 -1T180 0Q155 0 136 -1T98 -3T51 -5ZM265 158Q345 158 389 207T433 335Q433 378 419 414T376 473T299 496Q264 496 246 491T221 469T214 420V216Q214 185 230 172T265 158Z" />
<glyph unicode="&#xdf;" horiz-adv-x="504" d="M314 -15Q286 -15 264 -4T241 33Q241 53 246 67T265 81Q271 81 280 76T296 66Q314 51 328 46T365 41Q385 41 403 54T422 98Q422 116 414 131T386 167T334 217Q295 255 276 274T251 306T245 336Q245 360 261 378T302
415T350 458Q367 476 379 502T391 555Q391 601 363 633T272 665Q223 665 191 622T159 475V69Q159 48 172 39T201 24Q209 21 216 18T224 6Q224 -1 215 -2T201 -3Q182 -3 172 -2T152 1T125 2Q108 2 98 1T78 -1T47 -3Q43 -3 34 -2T24 6Q24 14 31 17T47 24Q62 29 75
38T89 69V350Q79 350 66 350T37 352Q34 353 30 358T26 369Q26 374 30 376Q53 382 64 388T89 402Q89 489 110 547T166 641T241 691T318 706Q358 706 388 688T436 639T454 572Q454 539 438 512T375 443Q350 421 337 407T324 364Q324 350 330 340T353 313T401 266Q432
236 447 215T468 177T474 140Q474 109 460 81T423 32T372 -2T314 -15Z" />
<glyph unicode="&#xe0;" horiz-adv-x="399" d="M224 457Q214 457 193 478Q180 491 159 515T118 564T85 607Q81 614 78 618T75 628Q75 639 90 644T124 649Q132 649 139 644T151 631Q159 618 174 590T205 533T228 484Q230 478 231 474T232 466Q232 457 224 457ZM117
-14Q99 -14 81 0T50 34T37 72Q37 104 54 122T108 155L210 197Q230 205 233 211T238 237L240 301Q241 327 226 346T181 365Q166 365 151 360T126 347Q120 343 118 335T116 318Q116 314 116 309T117 300Q117 295 105 287T77 272T51 265Q46 265 43 267T40 274Q40 290
50 308T80 343Q103 364 130 380T183 405T229 414Q265 414 288 389T311 325L306 85Q305 64 315 51T342 38Q367 38 379 49Q384 54 387 54Q392 54 395 51T398 43Q398 32 387 21Q371 5 353 -4T318 -14Q272 -14 245 38H242Q209 11 179 -1T117 -14ZM164 34Q184 34 198
40T223 58Q228 63 231 71T236 99L238 148Q239 159 237 164T229 169Q227 169 222 168T209 164Q156 145 136 125T115 87Q115 61 130 48T164 34Z" />
<glyph unicode="&#xe1;" horiz-adv-x="399" d="M117 -14Q99 -14 81 0T50 34T37 72Q37 104 54 122T108 155L210 197Q230 205 233 211T238 237L240 301Q241 327 226 346T181 365Q166 365 151 360T126 347Q120 343 118 335T116 318Q116 314 116 309T117 300Q117 295
105 287T77 272T51 265Q46 265 43 267T40 274Q40 290 50 308T80 343Q103 364 130 380T183 405T229 414Q265 414 288 389T311 325L306 85Q305 64 315 51T342 38Q367 38 379 49Q384 54 387 54Q392 54 395 51T398 43Q398 32 387 21Q371 5 353 -4T318 -14Q272 -14 245
38H242Q209 11 179 -1T117 -14ZM164 34Q184 34 198 40T223 58Q228 63 231 71T236 99L238 148Q239 159 237 164T229 169Q227 169 222 168T209 164Q156 145 136 125T115 87Q115 61 130 48T164 34ZM177 457Q169 457 169 466Q169 469 170 473T173 484Q180 503 195 532T226
590T250 631Q255 639 262 644T277 649Q296 649 311 644T326 628Q326 622 324 618T316 607Q304 590 284 565T242 515T208 478Q187 457 177 457Z" />
<glyph unicode="&#xe2;" horiz-adv-x="399" d="M201 648Q207 648 212 642T221 630Q229 618 243 594T272 543T298 494T309 468Q309 461 308 458T300 455Q294 455 286 462T271 477Q261 488 242 514T205 562Q203 565 202 565T198 562Q182 540 162 514T132 477Q126
470 117 463T102 455Q95 455 94 458T93 468Q93 473 103 494T129 542T159 594T181 630Q185 636 190 642T201 648ZM117 -14Q99 -14 81 0T50 34T37 72Q37 104 54 122T108 155L210 197Q230 205 233 211T238 237L240 301Q241 327 226 346T181 365Q166 365 151 360T126
347Q120 343 118 335T116 318Q116 314 116 309T117 300Q117 295 105 287T77 272T51 265Q46 265 43 267T40 274Q40 290 50 308T80 343Q103 364 130 380T183 405T229 414Q265 414 288 389T311 325L306 85Q305 64 315 51T342 38Q367 38 379 49Q384 54 387 54Q392 54
395 51T398 43Q398 32 387 21Q371 5 353 -4T318 -14Q272 -14 245 38H242Q209 11 179 -1T117 -14ZM164 34Q184 34 198 40T223 58Q228 63 231 71T236 99L238 148Q239 159 237 164T229 169Q227 169 222 168T209 164Q156 145 136 125T115 87Q115 61 130 48T164 34Z"
/>
<glyph unicode="&#xe3;" horiz-adv-x="399" d="M117 -14Q99 -14 81 0T50 34T37 72Q37 104 54 122T108 155L210 197Q230 205 233 211T238 237L240 301Q241 327 226 346T181 365Q166 365 151 360T126 347Q120 343 118 335T116 318Q116 314 116 309T117 300Q117 295
105 287T77 272T51 265Q46 265 43 267T40 274Q40 290 50 308T80 343Q103 364 130 380T183 405T229 414Q265 414 288 389T311 325L306 85Q305 64 315 51T342 38Q367 38 379 49Q384 54 387 54Q392 54 395 51T398 43Q398 32 387 21Q371 5 353 -4T318 -14Q272 -14 245
38H242Q209 11 179 -1T117 -14ZM164 34Q184 34 198 40T223 58Q228 63 231 71T236 99L238 148Q239 159 237 164T229 169Q227 169 222 168T209 164Q156 145 136 125T115 87Q115 61 130 48T164 34ZM86 458Q79 458 75 462T70 473Q70 477 81 491T107 523T139 554T164
567Q181 567 191 566T215 562Q232 561 245 560T271 558Q282 558 292 564T310 577Q321 588 328 596T338 605Q346 605 351 601T357 588Q357 585 352 579T335 562Q323 551 311 535T288 506Q282 499 272 496T259 492Q253 492 240 493T211 496T179 499T148 500Q138 500
128 493T109 478Q102 472 96 465T86 458Z" />
<glyph unicode="&#xe4;" horiz-adv-x="399" d="M117 -14Q99 -14 81 0T50 34T37 72Q37 104 54 122T108 155L210 197Q230 205 233 211T238 237L240 301Q241 327 226 346T181 365Q166 365 151 360T126 347Q120 343 118 335T116 318Q116 314 116 309T117 300Q117 295
105 287T77 272T51 265Q46 265 43 267T40 274Q40 290 50 308T80 343Q103 364 130 380T183 405T229 414Q265 414 288 389T311 325L306 85Q305 64 315 51T342 38Q367 38 379 49Q384 54 387 54Q392 54 395 51T398 43Q398 32 387 21Q371 5 353 -4T318 -14Q272 -14 245
38H242Q209 11 179 -1T117 -14ZM164 34Q184 34 198 40T223 58Q228 63 231 71T236 99L238 148Q239 159 237 164T229 169Q227 169 222 168T209 164Q156 145 136 125T115 87Q115 61 130 48T164 34ZM290 508Q271 508 256 523T240 558Q240 577 255 592T290 608Q309 608
324 593T340 558Q340 539 325 524T290 508ZM113 508Q94 508 79 523T63 558Q63 577 78 592T113 608Q132 608 147 593T163 558Q163 539 148 524T113 508Z" />
<glyph unicode="&#xe5;" horiz-adv-x="399" d="M117 -14Q99 -14 81 0T50 34T37 72Q37 104 54 122T108 155L210 197Q230 205 233 211T238 237L240 301Q241 327 226 346T181 365Q166 365 151 360T126 347Q120 343 118 335T116 318Q116 314 116 309T117 300Q117 295
105 287T77 272T51 265Q46 265 43 267T40 274Q40 290 50 308T80 343Q103 364 130 380T183 405T229 414Q265 414 288 389T311 325L306 85Q305 64 315 51T342 38Q367 38 379 49Q384 54 387 54Q392 54 395 51T398 43Q398 32 387 21Q371 5 353 -4T318 -14Q272 -14 245
38H242Q209 11 179 -1T117 -14ZM164 34Q184 34 198 40T223 58Q228 63 231 71T236 99L238 148Q239 159 237 164T229 169Q227 169 222 168T209 164Q156 145 136 125T115 87Q115 61 130 48T164 34ZM198 480Q165 480 141 505T117 563Q117 585 129 604T162 635T204 647Q237
647 261 625T285 569Q285 543 273 523T240 492T198 480ZM205 506Q228 506 236 522T244 562Q244 583 230 601T195 620Q174 620 166 605T158 568Q158 543 171 525T205 506Z" />
<glyph unicode="&#xe6;" horiz-adv-x="557" d="M123 -14Q103 -14 83 -3T50 27T37 65Q37 97 55 118T110 155L214 202Q234 211 238 216T243 233V299Q243 325 227 345T183 365Q165 365 147 354T122 332Q118 325 118 313Q118 309 118 306T119 299Q119 292 105 284T74
270T50 264Q46 264 44 267T42 273Q42 307 82 342Q98 356 122 373T176 402T231 414Q246 414 267 403T294 381Q297 376 299 376Q300 376 306 380Q324 393 356 403T413 413Q439 413 466 403T511 372T530 318Q530 302 524 296T506 284Q501 281 477 271T422 247T363
221T322 203Q318 201 315 195T311 185V129Q311 96 324 78T357 53T399 46Q429 46 457 56T510 94Q514 98 519 98Q532 98 532 87Q532 86 532 85T531 83Q498 35 462 11T368 -14Q339 -14 311 -4T259 26Q257 28 253 33T246 38Q242 38 238 34Q230 28 216 17T180 -4T123
-14ZM166 32Q186 32 201 40T228 59Q233 64 237 70T242 96V148Q242 160 241 166T234 172Q230 172 219 169Q203 165 179 154T137 126T117 87Q117 59 134 46T166 32ZM327 244Q364 259 402 272T454 292Q459 294 460 298T461 306Q461 335 440 356T387 378Q379 378 361
371T328 352T312 321V254Q312 247 317 245T327 244Z" />
<glyph unicode="&#xe7;" horiz-adv-x="407" d="M213 -15Q163 -15 123 10T59 80T35 180Q35 245 63 298T140 382T246 414Q311 414 360 379Q372 370 372 360Q372 352 365 342T348 326T329 319Q324 319 319 322T308 330Q286 347 259 362T214 377Q165 377 135 332T104
212Q104 165 124 127T179 67T256 45Q285 45 306 54T351 88Q353 90 356 91T361 93Q372 93 372 79Q372 73 369 66T357 48Q341 28 319 14T271 -8T213 -15ZM162 -274Q146 -274 139 -265T132 -233Q132 -224 135 -219T145 -214Q153 -214 164 -219T198 -225Q218 -225 227
-212T237 -180Q237 -151 220 -137T178 -123Q168 -123 163 -126T152 -129Q147 -129 141 -125T134 -114Q134 -110 139 -103L227 8H258L220 -42Q215 -49 215 -52Q215 -58 226 -63Q250 -73 268 -93T287 -139Q287 -169 273 -194T238 -236T197 -264T162 -274Z" />
<glyph unicode="&#xe8;" horiz-adv-x="390" d="M245 457Q235 457 214 478Q201 491 180 515T139 564T106 607Q102 614 99 618T96 628Q96 639 111 644T145 649Q153 649 160 644T172 631Q180 618 195 590T226 533T249 484Q251 478 252 474T253 466Q253 457 245 457ZM213
-15Q158 -15 117 12T53 88T30 203Q30 261 56 308T127 385T223 414Q263 414 294 398T342 354T360 288Q360 257 330 257H119Q105 257 100 250T94 220Q94 172 115 133T171 70T248 46Q278 46 302 57T346 91Q350 96 352 97T357 99Q365 99 365 89Q365 70 347 47Q332 28
311 14T265 -7T213 -15ZM121 288H212Q236 288 253 289T286 293Q291 294 292 299T294 315Q294 344 269 364T208 385Q185 385 162 372T124 338T109 298Q109 288 121 288Z" />
<glyph unicode="&#xe9;" horiz-adv-x="390" d="M213 -15Q158 -15 117 12T53 88T30 203Q30 261 56 308T127 385T223 414Q263 414 294 398T342 354T360 288Q360 257 330 257H119Q105 257 100 250T94 220Q94 172 115 133T171 70T248 46Q278 46 302 57T346 91Q350
96 352 97T357 99Q365 99 365 89Q365 70 347 47Q332 28 311 14T265 -7T213 -15ZM121 288H212Q236 288 253 289T286 293Q291 294 292 299T294 315Q294 344 269 364T208 385Q185 385 162 372T124 338T109 298Q109 288 121 288ZM198 457Q190 457 190 466Q190 469 191
473T194 484Q201 503 216 532T247 590T271 631Q276 639 283 644T298 649Q317 649 332 644T347 628Q347 622 345 618T337 607Q325 590 305 565T263 515T229 478Q208 457 198 457Z" />
<glyph unicode="&#xea;" horiz-adv-x="390" d="M222 648Q228 648 233 642T242 630Q250 618 264 594T293 543T319 494T330 468Q330 461 329 458T321 455Q315 455 307 462T292 477Q282 488 263 514T226 562Q224 565 223 565T219 562Q203 540 183 514T153 477Q147
470 138 463T123 455Q116 455 115 458T114 468Q114 473 124 494T150 542T180 594T202 630Q206 636 211 642T222 648ZM213 -15Q158 -15 117 12T53 88T30 203Q30 261 56 308T127 385T223 414Q263 414 294 398T342 354T360 288Q360 257 330 257H119Q105 257 100 250T94
220Q94 172 115 133T171 70T248 46Q278 46 302 57T346 91Q350 96 352 97T357 99Q365 99 365 89Q365 70 347 47Q332 28 311 14T265 -7T213 -15ZM121 288H212Q236 288 253 289T286 293Q291 294 292 299T294 315Q294 344 269 364T208 385Q185 385 162 372T124 338T109
298Q109 288 121 288Z" />
<glyph unicode="&#xeb;" horiz-adv-x="390" d="M213 -15Q158 -15 117 12T53 88T30 203Q30 261 56 308T127 385T223 414Q263 414 294 398T342 354T360 288Q360 257 330 257H119Q105 257 100 250T94 220Q94 172 115 133T171 70T248 46Q278 46 302 57T346 91Q350
96 352 97T357 99Q365 99 365 89Q365 70 347 47Q332 28 311 14T265 -7T213 -15ZM121 288H212Q236 288 253 289T286 293Q291 294 292 299T294 315Q294 344 269 364T208 385Q185 385 162 372T124 338T109 298Q109 288 121 288ZM311 508Q292 508 277 523T261 558Q261
577 276 592T311 608Q330 608 345 593T361 558Q361 539 346 524T311 508ZM134 508Q115 508 100 523T84 558Q84 577 99 592T134 608Q153 608 168 593T184 558Q184 539 169 524T134 508Z" />
<glyph unicode="&#xec;" horiz-adv-x="245" d="M147 457Q137 457 116 478Q103 491 82 515T41 564T8 607Q4 614 1 618T-2 628Q-2 639 13 644T47 649Q55 649 62 644T74 631Q82 618 97 590T128 533T151 484Q153 478 154 474T155 466Q155 457 147 457ZM44 -3Q35 -3
30 -1T24 8Q24 16 31 19T47 24Q68 29 79 36T90 62V279Q90 306 81 327T45 352Q40 353 38 356T35 365Q35 376 44 377Q84 386 110 401T149 427Q158 434 163 434Q169 434 169 429Q169 421 167 398T162 346T160 294V62Q160 45 171 37T203 24Q211 22 218 19T226 8Q226
-3 206 -3Q187 -3 176 -2T154 1T125 2Q108 2 97 1T75 -1T44 -3Z" />
<glyph unicode="&#xed;" horiz-adv-x="245" d="M44 -3Q35 -3 30 -1T24 8Q24 16 31 19T47 24Q68 29 79 36T90 62V279Q90 306 81 327T45 352Q40 353 38 356T35 365Q35 376 44 377Q84 386 110 401T149 427Q158 434 163 434Q169 434 169 429Q169 421 167 398T162 346T160
294V62Q160 45 171 37T203 24Q211 22 218 19T226 8Q226 -3 206 -3Q187 -3 176 -2T154 1T125 2Q108 2 97 1T75 -1T44 -3ZM100 457Q92 457 92 466Q92 469 93 473T96 484Q103 503 118 532T149 590T173 631Q178 639 185 644T200 649Q219 649 234 644T249 628Q249 622
247 618T239 607Q227 590 207 565T165 515T131 478Q110 457 100 457Z" />
<glyph unicode="&#xee;" horiz-adv-x="245" d="M124 648Q130 648 135 642T144 630Q152 618 166 594T195 543T221 494T232 468Q232 461 231 458T223 455Q217 455 209 462T194 477Q184 488 165 514T128 562Q126 565 125 565T121 562Q105 540 85 514T55 477Q49 470
40 463T25 455Q18 455 17 458T16 468Q16 473 26 494T52 542T82 594T104 630Q108 636 113 642T124 648ZM44 -3Q35 -3 30 -1T24 8Q24 16 31 19T47 24Q68 29 79 36T90 62V279Q90 306 81 327T45 352Q40 353 38 356T35 365Q35 376 44 377Q84 386 110 401T149 427Q158
434 163 434Q169 434 169 429Q169 421 167 398T162 346T160 294V62Q160 45 171 37T203 24Q211 22 218 19T226 8Q226 -3 206 -3Q187 -3 176 -2T154 1T125 2Q108 2 97 1T75 -1T44 -3Z" />
<glyph unicode="&#xef;" horiz-adv-x="245" d="M44 -3Q35 -3 30 -1T24 8Q24 16 31 19T47 24Q68 29 79 36T90 62V279Q90 306 81 327T45 352Q40 353 38 356T35 365Q35 376 44 377Q84 386 110 401T149 427Q158 434 163 434Q169 434 169 429Q169 421 167 398T162 346T160
294V62Q160 45 171 37T203 24Q211 22 218 19T226 8Q226 -3 206 -3Q187 -3 176 -2T154 1T125 2Q108 2 97 1T75 -1T44 -3ZM213 508Q194 508 179 523T163 558Q163 577 178 592T213 608Q232 608 247 593T263 558Q263 539 248 524T213 508ZM36 508Q17 508 2 523T-14
558Q-14 577 1 592T36 608Q55 608 70 593T86 558Q86 539 71 524T36 508Z" />
<glyph unicode="&#xf0;" horiz-adv-x="487" d="M231 -14Q175 -14 128 11T53 81T25 186Q25 248 57 300T142 383T256 414Q280 414 301 408T343 391Q350 388 351 390T351 400Q339 444 323 484T283 552L128 472Q122 469 118 472T114 480Q114 487 115 499T122 515L254
584Q213 623 168 646T84 678Q78 680 71 683T64 693Q64 700 72 702T90 705Q136 705 195 681T309 612L410 665Q416 669 425 670T435 664Q435 651 432 640T417 622L342 583Q371 553 397 509T439 402T456 250Q456 206 442 160T400 75T330 11T231 -14ZM252 16Q287 16
315 44T361 119T378 219Q378 254 371 282T345 329Q324 352 296 366T236 380Q194 380 166 355T123 291T108 210Q108 161 127 117T179 44T252 16Z" />
<glyph unicode="&#xf1;" d="M44 -3Q35 -3 30 -1T24 8Q24 16 30 18T47 24Q62 28 76 35T90 62V277Q90 304 85 323T53 349Q49 351 46 353T43 362Q43 373 52 374Q87 383 109 396T152 425Q155 427 157 428T163 430Q165 430 166 428T168 423Q168 416 166 395T163 359Q163
355 163 352T165 347Q200 380 239 397T326 414Q375 414 407 374T439 275V62Q439 42 453 36T482 24Q490 21 497 18T505 6Q505 0 498 -1T485 -3Q465 -3 454 -2T433 1T405 2Q388 2 377 1T355 -1T323 -3Q318 -3 311 -2T303 6Q303 14 310 17T326 24Q341 29 355 35T369
62V272Q369 316 345 340T279 366Q243 366 216 355T168 326Q164 322 162 316T160 303V62Q160 42 174 35T203 24Q226 18 226 8Q226 2 221 0T206 -3Q186 -3 175 -2T153 1T125 2Q108 2 98 1T76 -1T44 -3ZM142 458Q135 458 131 462T126 473Q126 477 137 491T163 523T195
554T220 567Q237 567 247 566T271 562Q288 561 301 560T327 558Q338 558 348 564T366 577Q377 588 384 596T394 605Q402 605 407 601T413 588Q413 585 408 579T391 562Q379 551 367 535T344 506Q338 499 328 496T315 492Q309 492 296 493T267 496T235 499T204 500Q194
500 184 493T165 478Q158 472 152 465T142 458Z" />
<glyph unicode="&#xf2;" horiz-adv-x="495" d="M277 457Q267 457 246 478Q233 491 212 515T171 564T138 607Q134 614 131 618T128 628Q128 639 143 644T177 649Q185 649 192 644T204 631Q212 618 227 590T258 533T281 484Q283 478 284 474T285 466Q285 457 277
457ZM234 -14Q178 -14 133 12T62 83T35 187Q35 229 51 269T98 342T168 394T254 414Q312 414 358 386T432 313T460 213Q460 155 435 103T359 19T234 -14ZM255 16Q289 16 316 29T358 71Q370 94 374 127T378 189Q378 237 361 281T312 354T237 383Q210 383 189 375T149
343Q129 318 123 282T117 210Q117 161 135 117T184 44T255 16Z" />
<glyph unicode="&#xf3;" horiz-adv-x="495" d="M234 -14Q178 -14 133 12T62 83T35 187Q35 229 51 269T98 342T168 394T254 414Q312 414 358 386T432 313T460 213Q460 155 435 103T359 19T234 -14ZM255 16Q289 16 316 29T358 71Q370 94 374 127T378 189Q378 237
361 281T312 354T237 383Q210 383 189 375T149 343Q129 318 123 282T117 210Q117 161 135 117T184 44T255 16ZM230 457Q222 457 222 466Q222 469 223 473T226 484Q233 503 248 532T279 590T303 631Q308 639 315 644T330 649Q349 649 364 644T379 628Q379 622 377
618T369 607Q357 590 337 565T295 515T261 478Q240 457 230 457Z" />
<glyph unicode="&#xf4;" horiz-adv-x="495" d="M254 648Q260 648 265 642T274 630Q282 618 296 594T325 543T351 494T362 468Q362 461 361 458T353 455Q347 455 339 462T324 477Q314 488 295 514T258 562Q256 565 255 565T251 562Q235 540 215 514T185 477Q179
470 170 463T155 455Q148 455 147 458T146 468Q146 473 156 494T182 542T212 594T234 630Q238 636 243 642T254 648ZM234 -14Q178 -14 133 12T62 83T35 187Q35 229 51 269T98 342T168 394T254 414Q312 414 358 386T432 313T460 213Q460 155 435 103T359 19T234
-14ZM255 16Q289 16 316 29T358 71Q370 94 374 127T378 189Q378 237 361 281T312 354T237 383Q210 383 189 375T149 343Q129 318 123 282T117 210Q117 161 135 117T184 44T255 16Z" />
<glyph unicode="&#xf5;" horiz-adv-x="495" d="M234 -14Q178 -14 133 12T62 83T35 187Q35 229 51 269T98 342T168 394T254 414Q312 414 358 386T432 313T460 213Q460 155 435 103T359 19T234 -14ZM255 16Q289 16 316 29T358 71Q370 94 374 127T378 189Q378 237
361 281T312 354T237 383Q210 383 189 375T149 343Q129 318 123 282T117 210Q117 161 135 117T184 44T255 16ZM125 458Q118 458 114 462T109 473Q109 477 120 491T146 523T178 554T203 567Q220 567 230 566T254 562Q271 561 284 560T310 558Q321 558 331 564T349
577Q360 588 367 596T377 605Q385 605 390 601T396 588Q396 585 391 579T374 562Q362 551 350 535T327 506Q321 499 311 496T298 492Q292 492 279 493T250 496T218 499T187 500Q177 500 167 493T148 478Q141 472 135 465T125 458Z" />
<glyph unicode="&#xf6;" horiz-adv-x="495" d="M234 -14Q178 -14 133 12T62 83T35 187Q35 229 51 269T98 342T168 394T254 414Q312 414 358 386T432 313T460 213Q460 155 435 103T359 19T234 -14ZM255 16Q289 16 316 29T358 71Q370 94 374 127T378 189Q378 237
361 281T312 354T237 383Q210 383 189 375T149 343Q129 318 123 282T117 210Q117 161 135 117T184 44T255 16ZM343 508Q324 508 309 523T293 558Q293 577 308 592T343 608Q362 608 377 593T393 558Q393 539 378 524T343 508ZM166 508Q147 508 132 523T116 558Q116
577 131 592T166 608Q185 608 200 593T216 558Q216 539 201 524T166 508Z" />
<glyph unicode="&#xf7;" horiz-adv-x="590" d="M84 231Q79 231 75 234T70 241Q70 245 71 255T78 273T93 282H511Q515 282 519 279T523 272Q523 258 515 245T493 231H84ZM294 67Q275 67 261 81T247 114Q247 134 261 147T294 161Q314 161 327 148T341 114Q341 95
328 81T294 67ZM293 352Q274 352 260 366T246 399Q246 419 260 432T293 446Q313 446 326 433T340 399Q340 380 327 366T293 352Z" />
<glyph unicode="&#xf8;" horiz-adv-x="485" d="M50 -15Q41 -15 34 -9T26 5Q26 17 36 25L438 411Q442 415 449 415Q463 415 463 400Q463 393 460 386T452 374L57 -12Q56 -13 54 -14T50 -15ZM234 -14Q178 -14 133 12T62 83T35 187Q35 229 51 269T98 342T168 394T254
414Q312 414 358 386T432 313T460 213Q460 155 435 103T359 19T234 -14ZM255 16Q289 16 316 29T358 71Q370 94 374 127T378 189Q378 237 361 281T312 354T237 383Q210 383 189 375T149 343Q129 318 123 282T117 210Q117 161 135 117T184 44T255 16Z" />
<glyph unicode="&#xf9;" horiz-adv-x="527" d="M275 457Q265 457 244 478Q231 491 210 515T169 564T136 607Q132 614 129 618T126 628Q126 639 141 644T175 649Q183 649 190 644T202 631Q210 618 225 590T256 533T279 484Q281 478 282 474T283 466Q283 457 275
457ZM366 -19Q359 -19 359 -11Q359 -1 361 18T364 51Q364 53 364 54T364 57Q325 19 286 3T199 -14Q167 -14 141 -1T100 39T85 105V308Q85 330 75 343T42 365Q37 367 33 370T29 381Q29 390 33 393T44 397Q78 399 96 402T143 413Q146 414 147 414T151 414Q162 414
161 400Q158 377 157 362T155 323V128Q155 104 167 84T198 50T239 37Q265 37 284 40T323 57Q334 65 351 83T368 132V315Q368 336 356 346T327 361T301 365Q292 365 286 368T280 382Q280 391 286 394T301 397Q332 398 352 399T389 404T424 413Q426 414 429 414T434
415Q447 415 447 404Q447 403 447 401T445 395Q444 392 443 378T440 349T438 326V95Q438 68 443 57T456 45Q464 45 479 46T502 48Q507 48 512 46T517 35Q517 27 513 25T503 21Q464 16 436 6T386 -13Q383 -14 377 -16T366 -19Z" />
<glyph unicode="&#xfa;" horiz-adv-x="527" d="M366 -19Q359 -19 359 -11Q359 -1 361 18T364 51Q364 53 364 54T364 57Q325 19 286 3T199 -14Q167 -14 141 -1T100 39T85 105V308Q85 330 75 343T42 365Q37 367 33 370T29 381Q29 390 33 393T44 397Q78 399 96 402T143
413Q146 414 147 414T151 414Q162 414 161 400Q158 377 157 362T155 323V128Q155 104 167 84T198 50T239 37Q265 37 284 40T323 57Q334 65 351 83T368 132V315Q368 336 356 346T327 361T301 365Q292 365 286 368T280 382Q280 391 286 394T301 397Q332 398 352 399T389
404T424 413Q426 414 429 414T434 415Q447 415 447 404Q447 403 447 401T445 395Q444 392 443 378T440 349T438 326V95Q438 68 443 57T456 45Q464 45 479 46T502 48Q507 48 512 46T517 35Q517 27 513 25T503 21Q464 16 436 6T386 -13Q383 -14 377 -16T366 -19ZM228
457Q220 457 220 466Q220 469 221 473T224 484Q231 503 246 532T277 590T301 631Q306 639 313 644T328 649Q347 649 362 644T377 628Q377 622 375 618T367 607Q355 590 335 565T293 515T259 478Q238 457 228 457Z" />
<glyph unicode="&#xfb;" horiz-adv-x="527" d="M252 648Q258 648 263 642T272 630Q280 618 294 594T323 543T349 494T360 468Q360 461 359 458T351 455Q345 455 337 462T322 477Q312 488 293 514T256 562Q254 565 253 565T249 562Q233 540 213 514T183 477Q177
470 168 463T153 455Q146 455 145 458T144 468Q144 473 154 494T180 542T210 594T232 630Q236 636 241 642T252 648ZM366 -19Q359 -19 359 -11Q359 -1 361 18T364 51Q364 53 364 54T364 57Q325 19 286 3T199 -14Q167 -14 141 -1T100 39T85 105V308Q85 330 75 343T42
365Q37 367 33 370T29 381Q29 390 33 393T44 397Q78 399 96 402T143 413Q146 414 147 414T151 414Q162 414 161 400Q158 377 157 362T155 323V128Q155 104 167 84T198 50T239 37Q265 37 284 40T323 57Q334 65 351 83T368 132V315Q368 336 356 346T327 361T301 365Q292
365 286 368T280 382Q280 391 286 394T301 397Q332 398 352 399T389 404T424 413Q426 414 429 414T434 415Q447 415 447 404Q447 403 447 401T445 395Q444 392 443 378T440 349T438 326V95Q438 68 443 57T456 45Q464 45 479 46T502 48Q507 48 512 46T517 35Q517
27 513 25T503 21Q464 16 436 6T386 -13Q383 -14 377 -16T366 -19Z" />
<glyph unicode="&#xfc;" horiz-adv-x="527" d="M366 -19Q359 -19 359 -11Q359 -1 361 18T364 51Q364 53 364 54T364 57Q325 19 286 3T199 -14Q167 -14 141 -1T100 39T85 105V308Q85 330 75 343T42 365Q37 367 33 370T29 381Q29 390 33 393T44 397Q78 399 96 402T143
413Q146 414 147 414T151 414Q162 414 161 400Q158 377 157 362T155 323V128Q155 104 167 84T198 50T239 37Q265 37 284 40T323 57Q334 65 351 83T368 132V315Q368 336 356 346T327 361T301 365Q292 365 286 368T280 382Q280 391 286 394T301 397Q332 398 352 399T389
404T424 413Q426 414 429 414T434 415Q447 415 447 404Q447 403 447 401T445 395Q444 392 443 378T440 349T438 326V95Q438 68 443 57T456 45Q464 45 479 46T502 48Q507 48 512 46T517 35Q517 27 513 25T503 21Q464 16 436 6T386 -13Q383 -14 377 -16T366 -19ZM341
508Q322 508 307 523T291 558Q291 577 306 592T341 608Q360 608 375 593T391 558Q391 539 376 524T341 508ZM164 508Q145 508 130 523T114 558Q114 577 129 592T164 608Q183 608 198 593T214 558Q214 539 199 524T164 508Z" />
<glyph unicode="&#xfd;" horiz-adv-x="438" d="M64 -285Q45 -285 29 -276T13 -244Q13 -226 21 -213T46 -199Q57 -199 67 -202T86 -205Q92 -205 96 -203T105 -194Q116 -176 130 -149T160 -88T190 -16Q193 -7 193 7Q193 15 192 22T189 36L73 329Q66 347 55 360T28
378Q20 381 13 385T5 396Q5 402 12 403T25 405Q45 405 54 404T72 402T98 400Q116 400 125 401T144 404T174 405Q180 405 187 403T194 394Q194 387 184 381T165 372Q155 369 150 362T145 340Q145 334 148 326T153 312L234 112Q236 106 240 106Q243 106 245 112L314
295Q317 302 319 313T322 332Q322 351 317 358T302 370Q294 374 284 380T273 394Q273 400 280 402T293 405Q307 405 321 403T364 400Q383 400 391 401T406 404T423 405Q428 405 435 404T443 396Q443 389 436 385T420 378Q405 374 388 355T361 311L225 -13Q224 -16
215 -39T191 -96T161 -169T129 -244Q120 -264 103 -274T64 -285ZM218 457Q210 457 210 466Q210 469 211 473T214 484Q221 503 236 532T267 590T291 631Q296 639 303 644T318 649Q337 649 352 644T367 628Q367 622 365 618T357 607Q345 590 325 565T283 515T249
478Q228 457 218 457Z" />
<glyph unicode="&#xfe;" horiz-adv-x="505" d="M39 -285Q32 -285 24 -284T16 -276Q16 -268 23 -265T39 -258Q54 -253 69 -247T85 -219V566Q85 591 75 612T39 639Q31 641 31 652Q31 662 38 664Q64 670 84 677T121 691T154 704Q155 704 155 704T156 705Q158 705
160 703T162 698Q162 689 159 660T155 562V386Q155 369 155 359T157 348Q167 358 193 373T252 401T317 414Q369 414 405 387T461 316T481 225Q481 180 464 138T416 61T344 7T256 -14Q235 -14 204 -5T158 18Q157 18 156 7T155 -17T155 -33V-219Q155 -240 167 -246T195
-258Q203 -261 210 -264T218 -276Q218 -283 210 -284T195 -285Q176 -285 165 -284T145 -281T117 -280Q100 -280 90 -281T70 -283T39 -285ZM271 17Q286 17 307 26T350 55T386 109T401 193Q401 251 386 286T349 339T304 363T265 369Q240 369 219 362T179 340Q168
332 162 316T155 269V115Q155 101 159 79T178 42Q189 32 213 25T271 17Z" />
<glyph unicode="&#xff;" horiz-adv-x="438" d="M64 -285Q45 -285 29 -276T13 -244Q13 -226 21 -213T46 -199Q57 -199 67 -202T86 -205Q92 -205 96 -203T105 -194Q116 -176 130 -149T160 -88T190 -16Q193 -7 193 7Q193 15 192 22T189 36L73 329Q66 347 55 360T28
378Q20 381 13 385T5 396Q5 402 12 403T25 405Q45 405 54 404T72 402T98 400Q116 400 125 401T144 404T174 405Q180 405 187 403T194 394Q194 387 184 381T165 372Q155 369 150 362T145 340Q145 334 148 326T153 312L234 112Q236 106 240 106Q243 106 245 112L314
295Q317 302 319 313T322 332Q322 351 317 358T302 370Q294 374 284 380T273 394Q273 400 280 402T293 405Q307 405 321 403T364 400Q383 400 391 401T406 404T423 405Q428 405 435 404T443 396Q443 389 436 385T420 378Q405 374 388 355T361 311L225 -13Q224 -16
215 -39T191 -96T161 -169T129 -244Q120 -264 103 -274T64 -285ZM331 508Q312 508 297 523T281 558Q281 577 296 592T331 608Q350 608 365 593T381 558Q381 539 366 524T331 508ZM154 508Q135 508 120 523T104 558Q104 577 119 592T154 608Q173 608 188 593T204
558Q204 539 189 524T154 508Z" />
<glyph unicode="&#x2013;" horiz-adv-x="550" d="M64 185Q59 185 55 189T50 197Q50 202 52 212T59 230T74 239H487Q492 239 496 236T500 227Q500 212 491 199T469 185H64Z" />
<glyph unicode="&#x2014;" horiz-adv-x="950" d="M64 185Q59 185 55 189T50 197Q50 202 52 212T59 230T74 239H887Q892 239 896 236T900 227Q900 212 891 199T869 185H64Z" />
<glyph unicode="&#x2018;" horiz-adv-x="242" d="M183 691Q201 691 201 680Q201 676 198 673T187 668Q166 664 144 652T106 617T91 559Q91 547 102 532T130 515Q152 513 164 502T177 473Q177 453 161 440T122 427Q86 427 63 454T39 524Q39 562 54 592T92 645T139
679T183 691Z" />
<glyph unicode="&#x2019;" horiz-adv-x="242" d="M59 426Q41 426 41 437Q41 441 44 444T55 449Q77 454 99 466T136 500T151 558Q151 570 140 585T112 602Q90 604 78 616T65 644Q65 664 81 677T120 690Q156 690 179 663T203 593Q203 555 188 525T150 472T103 438T59 426Z" />
<glyph unicode="&#x201a;" horiz-adv-x="242" d="M59 -147Q41 -147 41 -136Q41 -132 44 -129T55 -124Q77 -119 99 -107T136 -73T151 -15Q151 -3 140 12T112 29Q90 31 78 43T65 71Q65 91 81 104T120 117Q156 117 179 90T203 20Q203 -18 188 -48T150 -101T103 -135T59
-147Z" />
<glyph unicode="&#x201c;" horiz-adv-x="418" d="M361 690Q379 690 379 679Q379 675 376 672T365 667Q344 663 322 651T284 616T269 558Q269 546 280 531T308 514Q330 512 342 501T355 472Q355 452 339 439T300 426Q264 426 241 453T217 523Q217 561 232 591T270
644T317 678T361 690ZM185 690Q203 690 203 679Q203 675 200 672T189 667Q168 663 146 651T108 616T93 558Q93 546 104 531T132 514Q154 512 166 501T179 472Q179 452 163 439T124 426Q88 426 65 453T41 523Q41 561 56 591T94 644T141 678T185 690Z" />
<glyph unicode="&#x201d;" horiz-adv-x="418" d="M59 426Q41 426 41 437Q41 441 44 444T55 449Q77 454 99 466T136 500T151 558Q151 570 140 585T112 602Q90 604 78 616T65 644Q65 664 81 677T120 690Q156 690 179 663T203 593Q203 555 188 525T150 472T103 438T59
426ZM235 426Q217 426 217 437Q217 441 220 444T231 449Q253 454 275 466T312 500T327 558Q327 570 316 585T288 602Q266 604 254 616T241 644Q241 664 257 677T296 690Q332 690 355 663T379 593Q379 555 364 525T326 472T279 438T235 426Z" />
<glyph unicode="&#x201e;" horiz-adv-x="418" d="M59 -147Q41 -147 41 -136Q41 -132 44 -129T55 -124Q77 -119 99 -107T136 -73T151 -15Q151 -3 140 12T112 29Q90 31 78 43T65 71Q65 91 81 104T120 117Q156 117 179 90T203 20Q203 -18 188 -48T150 -101T103 -135T59
-147ZM235 -147Q217 -147 217 -136Q217 -132 220 -129T231 -124Q253 -119 275 -107T312 -73T327 -15Q327 -3 316 12T288 29Q266 31 254 43T241 71Q241 91 257 104T296 117Q332 117 355 90T379 20Q379 -18 364 -48T326 -101T279 -135T235 -147Z" />
<glyph unicode="&#x2022;" horiz-adv-x="348" d="M174 231Q138 231 109 248T63 295T45 360Q45 396 62 425T109 472T174 489Q210 489 239 472T286 426T303 360Q303 324 286 295T240 249T174 231Z" />
<glyph unicode="&#x2039;" horiz-adv-x="384" d="M313 19Q303 19 295 26T283 37Q257 62 230 84T177 124T125 157T78 182Q71 186 66 195T60 211Q60 217 63 218Q101 241 131 260T188 298T238 337T289 382Q293 386 301 393T318 400Q324 400 324 391Q324 387 323 384T319
376Q291 334 265 305T214 255T167 217Q161 213 161 211T167 203Q189 186 213 165T264 113T319 40Q321 38 321 36T322 31Q322 19 313 19Z" />
<glyph unicode="&#x203a;" horiz-adv-x="384" d="M71 19Q62 19 62 31Q62 33 63 35T65 40Q93 83 119 113T170 164T217 203Q223 208 223 210T217 217Q195 234 171 254T120 304T65 376Q63 380 62 383T60 391Q60 400 66 400Q75 400 83 393T95 382Q121 357 145 337T196
299T252 261T321 218Q324 217 324 211Q324 204 319 195T306 182Q284 172 259 158T208 125T154 84T101 37Q97 33 89 26T71 19Z" />
</font>
</defs>
</svg>
