<?xml version="1.0" standalone="no"?>
<!DOCTYPE svg PUBLIC "-//W3C//DTD SVG 1.1//EN" "http://www.w3.org/Graphics/SVG/1.1/DTD/svg11.dtd">
<svg xmlns="http://www.w3.org/2000/svg">
<defs >
<font id="SourceSansPro" horiz-adv-x="509" ><font-face
    font-family="Source Sans Pro"
    units-per-em="1000"
    panose-1="2 11 7 3 3 4 3 9 2 4"
    ascent="984"
    descent="-273"
    alphabetic="0" />
<glyph unicode=" " glyph-name="space" horiz-adv-x="200" />
<glyph unicode="!" glyph-name="exclam" horiz-adv-x="331" d="M115 226L180 670H317L288 544L205 226H115ZM116 -12Q84 -12 65 8T45 62Q45 87 57 110T92 148T143 163Q175 163 194 142T214 88Q214 63 202 40T167 3T116 -12Z" />
<glyph unicode="&quot;" glyph-name="quotedbl" horiz-adv-x="510" d="M121 363L142 544L160 670H295L267 544L210 363H121ZM340 363L361 544L379 670H514L486 544L429 363H340Z" />
<glyph unicode="#" glyph-name="numbersign" horiz-adv-x="506" d="M34 0L94 188H18L39 277H121L157 393H81L103 482H185L239 650H320L266 482H366L420 650H500L447 482H522L501 393H419L383 277H459L438 188H355L295 0H214L274 188H174L114 0H34ZM202 277H302L338
393H238L202 277Z" />
<glyph unicode="$" glyph-name="dollar" d="M135 -110L156 -5Q113 5 74 29T6 88L90 171Q113 142 145 120T215 98Q256 98 279 118T302 174Q302 207 282 231T231 278T171 326T121 383T100 461Q100 540 151 593T287 654L306 753H397L376 646Q444 627 497 563L411
486Q392 512 366 528T310 545Q276 545 256 526T235 477Q235 448 255 426T306 382T366 335T416 275T437 191Q437 110 386 55T246 -10L225 -110H135Z" />
<glyph unicode="%" glyph-name="percent" horiz-adv-x="829" d="M191 258Q153 258 122 278T72 333T53 417Q53 487 77 545T144 637T246 672Q285 672 316 652T365 597T384 513Q384 443 360 385T293 293T191 258ZM200 340Q238 340 262 388T286 510Q286 547 275 568T237
590Q200 590 176 542T151 420Q151 383 163 362T200 340ZM141 -12L615 672H695L221 -12H141ZM601 -12Q563 -12 532 8T482 63T463 147Q463 217 487 275T554 367T656 402Q695 402 726 382T775 327T794 243Q794 173 770 115T703 23T601 -12ZM610 70Q648 70 672 118T696
240Q696 277 685 298T647 320Q610 320 586 272T561 150Q561 113 573 92T610 70Z" />
<glyph unicode="&amp;" glyph-name="ampersand" horiz-adv-x="633" d="M260 473Q260 446 268 414Q312 438 342 466T372 534Q372 573 336 573Q306 573 283 547T260 473ZM200 -12Q112 -12 63 33T14 150Q14 204 35 242T91 309T165 360Q156 388 151 415T146 469Q146
523 172 567T244 637T344 664Q409 664 443 628T478 533Q478 484 453 447T389 381T307 326Q327 291 354 259T411 198Q444 236 469 277T514 367H638Q610 306 574 248T491 137Q517 121 542 111T587 96L533 -12Q499 -4 465 12T397 50Q354 20 305 4T200 -12ZM147 165Q147
133 167 112T224 91Q271 91 318 117Q287 149 259 186T209 263Q181 241 164 218T147 165Z" />
<glyph unicode="&apos;" glyph-name="quotesingle" horiz-adv-x="291" d="M121 363L142 544L160 670H295L267 544L210 363H121Z" />
<glyph unicode="(" glyph-name="parenleft" horiz-adv-x="329" d="M115 -179Q92 -116 74 -34T56 131Q56 247 83 348T162 543T291 733L370 693Q264 553 215 410T166 121Q166 79 170 31T182 -62T202 -143L115 -179Z" />
<glyph unicode=")" glyph-name="parenright" horiz-adv-x="331" d="M46 -179L-33 -139Q73 1 122 144T171 433Q171 476 167 523T156 616T135 698L222 733Q245 670 263 588T282 424Q282 308 255 207T176 11T46 -179Z" />
<glyph unicode="*" glyph-name="asterisk" horiz-adv-x="438" d="M173 366L121 415L196 513L101 568L132 633L239 599L271 714L342 708L334 591L448 605L458 535L348 497L386 391L321 354L260 448L173 366Z" />
<glyph unicode="+" glyph-name="plus" d="M215 95V282H48V379H216V564H317V379H485V282H315V95H215Z" />
<glyph unicode="," glyph-name="comma" horiz-adv-x="291" d="M-13 -187L-27 -112Q30 -95 62 -65T102 0Q69 1 48 20T26 71Q26 107 51 135T119 163Q159 163 180 138T202 66Q202 -28 145 -97T-13 -187Z" />
<glyph unicode="-" glyph-name="hyphen" horiz-adv-x="320" d="M33 205L54 302H288L267 205H33Z" />
<glyph unicode="." glyph-name="period" horiz-adv-x="291" d="M94 -12Q63 -12 44 8T24 62Q24 87 36 110T70 148T122 163Q154 163 173 142T192 88Q192 51 165 20T94 -12Z" />
<glyph unicode="/" glyph-name="slash" horiz-adv-x="329" d="M-69 -160L303 710H394L20 -160H-69Z" />
<glyph unicode="0" glyph-name="zero" d="M217 -12Q140 -12 89 46T38 216Q38 321 62 401T126 536T216 619T317 647Q394 647 444 589T495 417Q495 312 471 232T407 97T318 16T217 -12ZM226 93Q253 93 278 119T325 191T358 299T370 431Q370 490 354 516T309 542Q282
542 257 516T210 442T177 334T165 202Q165 144 181 119T226 93Z" />
<glyph unicode="1" glyph-name="one" d="M19 0L41 110H172L250 493H134L151 579Q204 587 241 600T313 635H415L309 110H426L404 0H19Z" />
<glyph unicode="2" glyph-name="two" d="M-13 0L2 78Q106 163 183 229T303 351T346 462Q346 496 327 517T269 539Q242 539 218 525T165 488L99 567Q145 606 191 626T286 647Q376 647 427 600T479 476Q479 412 447 357T357 244T220 115H435L413 0H-13Z" />
<glyph unicode="3" glyph-name="three" d="M202 -12Q143 -12 85 16T-16 102L71 173Q96 139 130 119T199 98Q251 98 281 122T312 187Q312 215 299 234T251 265T155 276L174 373Q241 373 278 386T330 422T345 471Q345 502 325 520T268 539Q245 539 221 529T167 498L101
586Q149 620 196 633T293 647Q379 647 432 605T485 494Q485 434 454 392T349 324V320Q400 301 424 266T449 186Q449 122 417 78T328 11T202 -12Z" />
<glyph unicode="4" glyph-name="four" d="M373 0H248L279 154H8L27 250L336 635H500L425 260H498L477 154H404L373 0ZM163 260H300L322 374Q330 408 339 444T355 515H351Q333 486 314 457T273 399L163 260Z" />
<glyph unicode="5" glyph-name="five" d="M205 -12Q146 -12 93 15T-3 102L83 172Q108 138 138 118T208 98Q254 98 288 130T323 218Q323 262 300 284T236 306Q211 306 193 301T143 277L92 319L170 635H512L489 520H266L231 395Q260 408 292 408Q364 408 412 366T461
240Q461 162 425 106T330 19T205 -12Z" />
<glyph unicode="6" glyph-name="six" d="M177 201Q177 148 199 119T255 90Q285 90 305 110T336 160T347 218Q347 258 330 280T278 302Q258 302 233 289T178 240Q177 230 177 221T177 201ZM248 -12Q188 -12 144 16T75 96T50 214Q50 344 91 441T204 593T369 647Q409
647 439 634T491 600T526 560L440 487Q426 510 407 523T360 537Q303 537 256 487T189 336Q217 365 252 380T315 396Q383 396 427 356T472 230Q472 169 444 114T365 23T248 -12Z" />
<glyph unicode="7" glyph-name="seven" d="M100 0Q130 111 166 203T253 374T373 520H94L117 635H548L531 549Q458 483 409 415T328 278T276 140T241 0H100Z" />
<glyph unicode="8" glyph-name="eight" d="M233 -12Q187 -12 141 5T63 58T32 152Q32 219 73 264T172 332V336Q144 365 129 396T114 465Q114 522 143 562T220 625T325 647Q369 647 409 632T476 584T503 499Q503 440 471 398T386 326V322Q421 299 444 263T468 177Q468
119 436 77T350 11T233 -12ZM324 365Q348 385 367 413T386 479Q386 511 369 530T315 550Q283 550 259 529T235 470Q235 434 258 411T324 365ZM243 83Q282 83 312 106T343 176Q343 214 311 238T228 291Q197 270 176 240T154 168Q154 133 177 108T243 83Z" />
<glyph unicode="9" glyph-name="nine" d="M189 417Q189 377 207 355T258 333Q278 333 304 346T358 395Q359 405 359 414T359 434Q359 487 338 516T281 545Q251 545 231 525T200 476T189 417ZM168 -12Q128 -12 98 1T46 35T10 76L97 148Q111 126 130 112T176 98Q233
98 280 148T347 298Q319 270 283 255T221 239Q154 239 109 279T64 405Q64 467 92 522T172 612T288 647Q349 647 393 619T462 539T486 421Q486 291 445 194T332 42T168 -12Z" />
<glyph unicode=":" glyph-name="colon" horiz-adv-x="291" d="M151 322Q120 322 101 342T81 396Q81 421 93 444T127 482T179 497Q211 497 230 476T249 422Q249 385 222 354T151 322ZM94 -12Q63 -12 44 8T24 62Q24 87 36 110T70 148T122 163Q154 163 173 142T192
88Q192 51 165 20T94 -12Z" />
<glyph unicode=";" glyph-name="semicolon" horiz-adv-x="291" d="M151 322Q120 322 101 342T81 396Q81 421 93 444T127 482T179 497Q211 497 230 476T249 422Q249 385 222 354T151 322ZM-13 -187L-27 -112Q30 -95 62 -65T102 0Q69 1 48 20T26 71Q26 107 51 135T119
163Q159 163 180 138T202 66Q202 -28 145 -97T-13 -187Z" />
<glyph unicode="&lt;" glyph-name="less" d="M485 108L46 283V379L485 553V441L315 380L186 334V330L315 283L485 222V108Z" />
<glyph unicode="=" glyph-name="equal" d="M48 398V495H485V398H48ZM48 422V519H485V422H48Z" />
<glyph unicode="&gt;" glyph-name="greater" d="M48 108V222L219 283L347 330V334L219 380L48 441V553L487 379V283L48 108Z" />
<glyph unicode="?" glyph-name="question" horiz-adv-x="444" d="M146 232Q151 280 170 313T215 371T265 417T306 460T323 510Q323 539 306 555T259 572Q221 572 182 533L113 611Q186 682 276 682Q357 682 407 642T457 531Q457 484 439 452T394 394T339 345T290
292T262 222L146 232ZM161 -12Q129 -12 110 8T90 62Q90 87 102 110T137 148T188 163Q220 163 239 142T258 88Q258 51 232 20T161 -12Z" />
<glyph unicode="@" glyph-name="at" horiz-adv-x="866" d="M379 -170Q312 -170 252 -149T144 -87T70 17T43 162Q43 269 80 360T181 520T329 627T503 666Q607 666 680 625T791 514T830 358Q830 252 797 181T710 75T591 39Q556 39 529 58T492 114H488Q469 86 438
68T376 49Q323 49 287 88T251 193Q251 240 267 284T311 363T375 419T454 440Q500 440 524 391H526L541 432H624L573 210Q553 124 616 124Q643 124 672 149T721 223T742 344Q742 407 718 462T639 551T490 585Q427 585 365 554T251 468T168 339T137 178Q137 89 174
31T269 -57T391 -86Q419 -86 452 -77T510 -52L546 -126Q504 -148 463 -159T379 -170ZM404 134Q420 134 435 145T470 183L501 322Q486 353 457 353Q428 353 404 329T367 269T353 201Q353 134 404 134Z" />
<glyph unicode="A" glyph-name="A" horiz-adv-x="548" d="M255 353L215 267H355L351 353Q349 401 347 448T343 547H339Q318 497 298 450T255 353ZM-62 0L282 652H446L511 0H368L360 164H166L89 0H-62Z" />
<glyph unicode="B" glyph-name="B" horiz-adv-x="604" d="M28 0L159 652H358Q456 652 516 616T577 503Q577 447 539 403T436 340L434 336Q488 323 517 293T547 214Q547 138 509 91T406 22T265 0H28ZM243 385H308Q376 385 406 411T437 480Q437 512 412 529T333
547H275L243 385ZM186 105H271Q341 105 378 132T415 209Q415 249 389 270T309 292H224L186 105Z" />
<glyph unicode="C" glyph-name="C" horiz-adv-x="567" d="M304 -12Q229 -12 173 20T87 114T56 261Q56 345 82 418T156 547T267 633T403 664Q460 664 504 637T577 560L483 488Q447 545 396 545Q354 545 318 523T255 462T213 374T197 270Q197 194 229 150T333 106Q362
106 390 120T444 156L501 68Q472 41 422 15T304 -12Z" />
<glyph unicode="D" glyph-name="D" horiz-adv-x="616" d="M28 0L159 652H302Q439 652 514 589T590 396Q590 268 544 180T418 46T232 0H28ZM188 110H229Q292 110 342 139T421 230T450 387Q450 468 409 505T299 542H273L188 110Z" />
<glyph unicode="E" glyph-name="E" horiz-adv-x="527" d="M28 0L159 652H545L523 537H272L244 395H457L435 280H222L188 115H447L425 0H28Z" />
<glyph unicode="F" glyph-name="F" horiz-adv-x="504" d="M28 0L159 652H545L523 537H272L241 377H453L431 262H218L166 0H28Z" />
<glyph unicode="G" glyph-name="G" horiz-adv-x="611" d="M314 -12Q193 -12 125 60T56 261Q56 345 82 418T157 547T271 633T413 664Q476 664 521 637T595 560L502 488Q483 517 461 531T406 545Q346 545 299 507T224 406T197 270Q197 195 229 150T338 105Q358 105
377 111T409 127L437 255H330L351 367H578L518 56Q481 27 429 8T314 -12Z" />
<glyph unicode="H" glyph-name="H" horiz-adv-x="652" d="M28 0L159 652H296L244 399H467L517 652H654L524 0H386L443 279H220L166 0H28Z" />
<glyph unicode="I" glyph-name="I" horiz-adv-x="294" d="M28 0L159 652H296L166 0H28Z" />
<glyph unicode="J" glyph-name="J" horiz-adv-x="491" d="M176 -12Q120 -12 71 14T-8 87L76 170Q90 145 116 126T176 106Q252 106 276 227L361 652H498L408 203Q397 145 369 96T293 18T176 -12Z" />
<glyph unicode="K" glyph-name="K" horiz-adv-x="604" d="M28 0L159 652H296L243 384H246L491 652H641L404 384L550 0H407L303 298L204 191L166 0H28Z" />
<glyph unicode="L" glyph-name="L" horiz-adv-x="500" d="M28 0L159 652H296L188 115H435L413 0H28Z" />
<glyph unicode="M" glyph-name="M" horiz-adv-x="740" d="M28 0L159 652H304L351 351L368 234H372L432 351L596 652H742L611 0H483L537 259Q544 292 554 330T575 407T596 477H593L512 327L359 60H304L256 327L236 477H232Q228 429 222 368T206 259L154 0H28Z" />
<glyph unicode="N" glyph-name="N" horiz-adv-x="643" d="M28 0L159 652H292L398 312L433 169H437Q442 220 447 284T464 405L514 652H644L514 0H382L275 339L242 484H238Q233 429 227 368T209 250L159 0H28Z" />
<glyph unicode="O" glyph-name="O" horiz-adv-x="660" d="M302 -12Q190 -12 124 61T57 264Q57 350 83 423T156 550T262 634T388 664Q463 664 518 631T603 537T633 388Q633 302 607 229T534 102T428 18T302 -12ZM309 106Q344 106 377 127T436 185T477 272T493 379Q493
457 465 501T382 545Q347 545 314 524T255 466T213 379T197 273Q197 195 226 151T309 106Z" />
<glyph unicode="P" glyph-name="P" horiz-adv-x="583" d="M28 0L159 652H365Q429 652 479 635T558 580T588 479Q588 388 547 333T438 252T287 226H210L166 0H28ZM233 335H302Q375 335 414 366T453 459Q453 503 425 523T343 543H273L233 335Z" />
<glyph unicode="Q" glyph-name="Q" horiz-adv-x="660" d="M309 101Q356 101 398 138T466 238T493 379Q493 457 465 501T382 545Q347 545 314 524T255 466T213 379T197 273Q197 190 226 146T309 101ZM483 -176Q383 -176 314 -132T210 3Q139 29 98 96T57 264Q57
350 83 423T156 550T262 634T388 664Q463 664 518 631T603 537T633 388Q633 285 596 201T495 63T355 -7Q375 -38 412 -52T491 -66Q511 -66 526 -64T557 -57L563 -160Q546 -167 523 -171T483 -176Z" />
<glyph unicode="R" glyph-name="R" horiz-adv-x="596" d="M28 0L159 652H363Q427 652 477 636T557 583T586 485Q586 394 539 338T420 258L521 0H377L293 239H213L166 0H28ZM235 348H304Q377 348 414 380T451 465Q451 506 423 524T342 543H273L235 348Z" />
<glyph unicode="S" glyph-name="S" horiz-adv-x="529" d="M238 -12Q174 -12 114 16T5 110L103 187Q129 150 167 128T248 105Q290 105 316 125T342 180Q342 206 322 222T266 261L204 299Q160 327 134 364T107 462Q107 518 137 563T220 636T336 664Q394 664 445
637T534 565L447 484Q422 510 394 527T330 545Q290 545 269 525T247 475Q247 450 269 434T329 394L393 355Q440 327 462 292T484 200Q484 141 454 93T368 16T238 -12Z" />
<glyph unicode="T" glyph-name="T" horiz-adv-x="532" d="M149 0L255 536H84L106 652H586L563 536H392L286 0H149Z" />
<glyph unicode="U" glyph-name="U" horiz-adv-x="643" d="M308 -12Q193 -12 134 44T75 215Q75 237 79 266T88 320L155 652H292L221 295Q217 275 215 256T213 219Q213 164 235 135T312 106Q359 106 390 144T439 274L515 652H649L573 276Q543 126 478 57T308 -12Z" />
<glyph unicode="V" glyph-name="V" horiz-adv-x="554" d="M134 0L79 652H222L239 331Q241 279 243 227T246 122H250Q273 175 295 227T341 331L486 652H637L300 0H134Z" />
<glyph unicode="W" glyph-name="W" horiz-adv-x="794" d="M77 0L100 652H240L219 339Q215 287 210 235T199 130H203Q223 182 246 235T288 339L422 652H538L540 339Q539 289 537 236T533 130H537Q555 183 574 235T610 339L720 652H851L598 0H425L429 312Q429 344
431 385T438 464H434Q421 427 405 389T375 312L247 0H77Z" />
<glyph unicode="X" glyph-name="X" horiz-adv-x="553" d="M-36 0L206 336L105 652H257L290 521Q295 499 300 474T313 419H317Q334 448 350 474T379 522L458 652H604L375 330L484 0H332L295 142Q288 168 282 193T269 247H265Q248 219 232 193T200 141L110 0H-36Z" />
<glyph unicode="Y" glyph-name="Y" d="M138 0L184 236L80 652H222L250 495Q257 458 262 424T275 351H279Q299 390 318 425T359 497L450 652H597L321 236L274 0H138Z" />
<glyph unicode="Z" glyph-name="Z" horiz-adv-x="525" d="M-5 0L13 82L369 537H112L135 652H556L539 569L186 115H469L445 0H-5Z" />
<glyph unicode="[" glyph-name="bracketleft" horiz-adv-x="330" d="M-3 -152L169 708H369L355 635H256L114 -79H212L197 -152H-3Z" />
<glyph unicode="\" glyph-name="backslash" horiz-adv-x="329" d="M161 -160L85 710H173L250 -160H161Z" />
<glyph unicode="]" glyph-name="bracketright" horiz-adv-x="330" d="M-29 -152L-14 -79H83L226 635H129L143 708H343L171 -152H-29Z" />
<glyph unicode="^" glyph-name="asciicircum" horiz-adv-x="506" d="M72 275L221 670H329L478 275H366L321 410L278 545H274L230 410L184 275H72Z" />
<glyph unicode="_" glyph-name="underscore" horiz-adv-x="481" d="M-47 -138L-32 -61H425L409 -138H-47Z" />
<glyph unicode="`" glyph-name="grave" horiz-adv-x="534" d="M366 569L212 740L329 827L450 634L366 569Z" />
<glyph unicode="a" glyph-name="a" horiz-adv-x="552" d="M171 -12Q106 -12 69 35T31 170Q31 241 53 302T112 410T197 482T296 508Q330 508 360 491T404 443H406L428 496H537L438 0H327L329 65H326Q292 30 251 9T171 -12ZM231 100Q256 100 284 115T337 173L372
349Q360 374 342 385T306 396Q272 396 242 369T192 294T173 187Q173 142 188 121T231 100Z" />
<glyph unicode="b" glyph-name="b" horiz-adv-x="553" d="M256 -12Q222 -12 194 5T151 53H149L127 0H14L155 701H292L259 542L234 449H236Q269 476 306 492T380 508Q446 508 483 461T520 326Q520 255 498 194T439 86T355 14T256 -12ZM246 100Q281 100 311 127T360
202T379 309Q379 354 363 375T321 396Q298 396 270 383T219 334L181 147Q192 122 209 111T246 100Z" />
<glyph unicode="c" glyph-name="c" horiz-adv-x="443" d="M223 -12Q168 -12 124 12T55 82T29 192Q29 257 51 314T114 414T207 483T321 508Q368 508 401 489T454 447L378 366Q363 382 348 390T312 398Q273 398 241 371T189 297T169 195Q169 150 190 124T253 98Q279
98 297 108T332 130L389 46Q361 25 322 7T223 -12Z" />
<glyph unicode="d" glyph-name="d" horiz-adv-x="546" d="M171 -12Q106 -12 69 35T31 170Q31 241 53 302T112 410T197 482T296 508Q330 508 356 492T397 448H400L412 542L442 701H579L438 0H327L329 65H326Q292 30 251 9T171 -12ZM231 100Q256 100 284 115T337
173L372 349Q360 374 342 385T306 396Q272 396 242 369T192 294T173 187Q173 142 188 121T231 100Z" />
<glyph unicode="e" glyph-name="e" horiz-adv-x="496" d="M232 -12Q142 -12 86 44T29 200Q29 269 53 325T117 423T207 486T305 508Q364 508 399 483T451 416T467 322Q467 288 458 256T443 212H159Q155 148 188 120T270 91Q293 91 318 102T362 126L410 40Q380 19
335 4T232 -12ZM170 296H350Q355 311 355 330Q355 360 341 381T288 403Q253 403 220 376T170 296Z" />
<glyph unicode="f" glyph-name="f" horiz-adv-x="327" d="M36 0L115 389H51L72 490L137 496L143 529Q153 580 176 621T239 688T335 713Q392 713 441 686L397 589Q389 594 376 599T349 604Q322 604 305 590T280 534L273 496H359L338 389H250L173 0H36Z" />
<glyph unicode="g" glyph-name="g" horiz-adv-x="546" d="M178 -203Q134 -203 86 -185T-6 -133L54 -42Q82 -64 114 -79T181 -94Q228 -94 258 -70T302 0L328 88Q295 54 256 35T176 16Q113 16 72 58T31 189Q31 256 52 314T109 415T192 483T290 508Q324 508 353 491T396
443H399L420 496H531L434 8Q412 -100 346 -151T178 -203ZM229 127Q254 127 282 141T334 192L365 349Q352 374 335 385T300 396Q266 396 237 371T191 304T173 207Q173 167 188 147T229 127Z" />
<glyph unicode="h" glyph-name="h" horiz-adv-x="547" d="M14 0L155 701H292L254 518L232 438H236Q269 467 308 487T392 508Q454 508 482 476T510 381Q510 364 509 347T502 310L440 0H303L362 293Q365 308 367 319T370 340Q370 391 319 391Q296 391 272 376T215
327L151 0H14Z" />
<glyph unicode="i" glyph-name="i" horiz-adv-x="265" d="M14 0L114 496H250L151 0H14ZM205 570Q177 570 154 586T131 636Q131 669 156 693T216 717Q245 717 267 700T290 651Q290 616 266 593T205 570Z" />
<glyph unicode="j" glyph-name="j" horiz-adv-x="267" d="M-35 -196Q-61 -196 -84 -191T-131 -174L-90 -75Q-79 -81 -69 -84T-46 -88Q-21 -88 -9 -69T14 -10L115 496H252L149 -16Q139 -66 117 -107T58 -172T-35 -196ZM204 570Q176 570 153 586T130 636Q130 669
155 693T215 717Q244 717 266 700T289 651Q289 616 265 593T204 570Z" />
<glyph unicode="k" glyph-name="k" horiz-adv-x="525" d="M14 0L155 701H292L210 295H214L401 496H553L350 279L468 0H331L256 200L175 119L151 0H14Z" />
<glyph unicode="l" glyph-name="l" horiz-adv-x="275" d="M137 -12Q84 -12 61 14T37 85Q37 111 44 146L155 701H292L179 140Q178 133 178 129T177 121Q177 108 183 103T196 98Q201 98 204 98T214 100L210 -1Q197 -5 179 -8T137 -12Z" />
<glyph unicode="m" glyph-name="m" horiz-adv-x="827" d="M14 0L114 496H225L223 430H227Q262 462 302 485T385 508Q441 508 465 484T500 421Q541 459 583 483T668 508Q730 508 757 476T785 381Q785 364 783 347T777 310L715 0H578L637 293Q640 308 642 319T645
340Q645 391 595 391Q579 391 555 376T498 327L432 0H295L354 293Q357 308 359 319T362 340Q362 391 314 391Q296 391 272 376T215 327L151 0H14Z" />
<glyph unicode="n" glyph-name="n" horiz-adv-x="552" d="M14 0L114 496H225L223 430H227Q263 462 304 485T392 508Q454 508 482 476T510 381Q510 364 508 347T502 310L440 0H303L362 293Q365 308 367 319T370 340Q370 391 319 391Q296 391 272 376T215 327L151 0H14Z" />
<glyph unicode="o" glyph-name="o" horiz-adv-x="533" d="M222 -12Q135 -12 83 44T30 192Q30 264 54 322T118 422T207 486T308 508Q366 508 409 483T476 412T500 304Q500 232 476 174T412 74T323 10T222 -12ZM237 98Q271 98 299 124T344 197T362 301Q362 347 345
372T292 398Q259 398 231 372T185 299T168 195Q168 150 185 124T237 98Z" />
<glyph unicode="p" glyph-name="p" horiz-adv-x="553" d="M-23 -184L114 496H225L226 439H229Q263 470 302 489T380 508Q446 508 483 461T520 326Q520 255 498 194T439 86T355 14T256 -12Q225 -12 199 3T155 47H153L139 -50L114 -184H-23ZM246 100Q281 100 311
127T360 202T379 309Q379 354 363 375T321 396Q298 396 270 383T219 334L181 146Q192 122 209 111T246 100Z" />
<glyph unicode="q" glyph-name="q" horiz-adv-x="552" d="M264 -184L292 -50L329 65H327Q293 30 252 9T171 -12Q106 -12 69 35T31 170Q31 241 53 302T112 410T197 482T296 508Q330 508 360 491T404 443H406L428 496H537L401 -184H264ZM231 100Q256 100 284 115T337
173L372 349Q360 374 342 385T306 396Q272 396 242 369T192 294T173 187Q173 142 188 121T231 100Z" />
<glyph unicode="r" glyph-name="r" horiz-adv-x="384" d="M14 0L114 496H225L219 400H223Q252 447 291 477T373 508Q392 508 404 506T425 498L380 380Q370 385 357 386T331 388Q298 388 267 364T207 287L151 0H14Z" />
<glyph unicode="s" glyph-name="s" horiz-adv-x="424" d="M170 -12Q124 -12 74 13T-8 84L71 150Q123 88 178 88Q207 88 227 101T248 135Q248 157 226 171T160 210Q121 232 92 266T62 346Q62 393 87 429T156 487T253 508Q304 508 345 486T416 432L342 362Q323 380
301 393T252 406Q224 406 207 393T190 359Q190 336 216 322T272 290Q316 267 346 236T376 151Q376 103 350 66T277 9T170 -12Z" />
<glyph unicode="t" glyph-name="t" horiz-adv-x="367" d="M203 -12Q128 -12 95 25T62 119Q62 135 64 150T70 182L113 389H47L67 490L140 496L182 626H297L272 496H385L364 389H248L205 176Q204 167 204 159T203 143Q203 95 254 95Q265 95 275 98T295 106L319 10Q300
3 271 -4T203 -12Z" />
<glyph unicode="u" glyph-name="u" horiz-adv-x="545" d="M156 -12Q95 -12 67 21T39 116Q39 133 41 150T47 186L109 496H245L187 203Q183 188 181 177T179 156Q179 105 229 105Q271 105 328 169L392 496H529L431 0H320L322 67H318Q284 36 243 12T156 -12Z" />
<glyph unicode="v" glyph-name="v" horiz-adv-x="499" d="M123 0L60 496H196L213 253Q216 216 217 178T219 102H223Q240 140 256 177T289 253L400 496H534L281 0H123Z" />
<glyph unicode="w" glyph-name="w" horiz-adv-x="748" d="M96 0L72 496H207L208 256Q207 220 206 184T202 110H206Q220 147 233 184T262 256L364 496H483L491 256Q492 220 492 184T491 110H495Q509 147 521 183T547 256L640 496H767L555 0H394L390 208Q391 243
391 278T392 353H388Q374 314 362 279T336 208L251 0H96Z" />
<glyph unicode="x" glyph-name="x" horiz-adv-x="490" d="M-40 0L170 265L84 496H222L252 410Q258 388 264 368T276 326H280Q293 347 306 368T331 410L382 496H528L334 234L426 0H286L255 87Q248 108 241 130T227 174H223Q210 152 196 131T167 87L107 0H-40Z" />
<glyph unicode="y" glyph-name="y" horiz-adv-x="499" d="M36 -194Q23 -194 2 -188T-35 -174L7 -76Q24 -86 44 -86Q71 -86 96 -67T138 -14L150 11L64 496H200L223 272Q227 240 229 199T232 123H236Q252 158 269 198T302 272L406 496H539L271 -11Q219 -100 166
-147T36 -194Z" />
<glyph unicode="z" glyph-name="z" horiz-adv-x="443" d="M-10 0L5 77L268 389H89L109 496H460L445 417L182 107H390L369 0H-10Z" />
<glyph unicode="{" glyph-name="braceleft" horiz-adv-x="328" d="M142 -152Q89 -152 67 -130T45 -65Q45 -36 52 -2T70 67T88 131T96 179Q96 201 82 219T26 238L44 318Q94 320 115 344T142 395Q148 426 150 451T156 504T166 565Q183 646 214 677T312 708H376L360
635H341Q310 635 297 618T275 560Q267 520 261 481T247 397Q235 340 212 313T148 276V272Q176 265 190 249T204 202Q204 177 197 144T181 77T165 11T158 -41Q158 -61 166 -70T200 -79H217L203 -152H142Z" />
<glyph unicode="|" glyph-name="bar" horiz-adv-x="255" d="M88 -250V750H174V-250H88Z" />
<glyph unicode="}" glyph-name="braceright" horiz-adv-x="331" d="M-38 -152L-22 -79H-3Q28 -79 42 -62T63 -4Q71 36 77 75T91 159Q103 216 126 243T190 280V284Q162 291 148 307T134 354Q134 379 141 412T157 479T173 544T180 596Q180 617 172 626T138 635H121L135
708H197Q250 708 271 686T293 621Q293 592 286 557T268 488T250 424T242 377Q242 355 256 338T312 318L294 238Q245 237 224 212T196 161Q190 130 188 105T182 52T172 -10Q161 -64 144 -95T98 -139T26 -152H-38Z" />
<glyph unicode="~" glyph-name="asciitilde" d="M342 246Q314 246 292 257T251 284T214 311T176 323Q136 323 108 267L38 314Q70 370 108 393T181 416Q210 416 232 405T273 378T310 351T347 339Q387 339 415 395L485 348Q453 292 416 269T342 246Z" />
<glyph unicode="&#xa0;" glyph-name="space" horiz-adv-x="200" />
<glyph unicode="&#xa1;" glyph-name="exclamdown" horiz-adv-x="331" d="M17 -174L46 -48L129 270H219L154 -174H17ZM191 333Q159 333 140 354T120 408Q120 433 132 456T167 493T218 508Q250 508 269 488T289 434Q289 410 277 387T242 348T191 333Z" />
<glyph unicode="&#xa2;" glyph-name="cent" d="M212 -18L231 79Q159 90 116 144T72 286Q72 349 94 400T153 489T236 550T331 580L350 676H426L407 579Q443 572 469 553T517 509L438 434Q425 447 412 456T385 469L329 188Q373 194 409 221L451 133Q417 111 382
97T307 78L288 -18H212ZM206 307Q206 227 255 198L308 465Q263 449 235 407T206 307Z" />
<glyph unicode="&#xa3;" glyph-name="sterling" d="M-2 0L15 84Q77 111 114 158T153 268H57L75 361L145 366Q142 392 142 414Q142 484 173 536T257 618T376 647Q429 647 467 624T533 562L445 490Q429 513 412 525T369 537Q328 537 299 503T269 395Q269 388 269
381T271 366H418L398 268H276Q273 223 258 188T212 119V115H447L427 0H-2Z" />
<glyph unicode="&#xa4;" glyph-name="currency" d="M66 94L7 164L73 220Q56 252 56 296Q56 341 72 379T114 446L69 503L141 565L192 502Q245 530 301 530Q330 530 355 523T400 504L471 566L530 496L464 439Q472 423 476 405T480 365Q480 320 465 283T423 216L472
156L399 93L346 159Q294 131 235 131Q178 131 138 156L66 94ZM250 228Q277 228 301 244T340 289T355 354Q355 392 337 412T286 433Q260 433 236 417T196 372T181 307Q181 270 200 249T250 228Z" />
<glyph unicode="&#xa5;" glyph-name="yen" d="M136 0L166 149H18L31 215H179L190 272H42L55 338H174L92 636H231L254 495Q259 462 264 429T276 363H279Q299 397 317 430T355 495L433 636H569L369 338H487L474 272H326L314 215H462L449 149H301L271 0H136Z" />
<glyph unicode="&#xa6;" glyph-name="brokenbar" horiz-adv-x="255" d="M88 309V750H174V309H88ZM88 -250V205H174V-250H88Z" />
<glyph unicode="&#xa7;" glyph-name="section" horiz-adv-x="505" d="M192 -80Q144 -80 93 -58T1 4L69 89Q94 64 128 43T199 22Q227 22 242 35T258 71Q258 93 237 110T185 145T123 185T70 240T49 318Q49 369 78 406T153 466Q137 493 137 526Q137 573 159 610T221
668T313 690Q360 690 404 669T483 610L414 534Q394 554 368 570T312 586Q291 586 276 575T260 540Q260 520 282 503T336 467T400 424T454 368T476 292Q476 237 448 200T372 137Q377 127 379 114T382 87Q382 12 330 -34T192 -80ZM166 334Q166 306 189 286T247 247T313
204Q334 215 345 232T357 276Q357 303 334 323T278 363T212 405Q192 395 179 378T166 334Z" />
<glyph unicode="&#xa8;" glyph-name="dieresis" horiz-adv-x="534" d="M231 572Q206 572 189 587T172 631Q172 661 194 683T247 706Q272 706 289 690T306 646Q306 615 285 594T231 572ZM441 572Q416 572 400 587T383 631Q383 661 404 683T457 706Q483 706 499
690T516 646Q516 615 495 594T441 572Z" />
<glyph unicode="&#xa9;" glyph-name="copyright" horiz-adv-x="672" d="M298 -9Q220 -9 160 27T65 126T30 269Q30 348 57 418T135 541T253 624T404 655Q482 655 542 619T637 521T672 378Q672 299 645 229T567 106T449 22T298 -9ZM303 52Q368 52 423 77T520 147T585
249T608 372Q608 433 585 483T515 564T399 595Q334 595 279 570T182 500T117 398T94 275Q94 214 117 164T187 83T303 52ZM330 127Q260 127 217 168T174 282Q174 336 193 379T245 452T317 499T395 515Q430 515 456 499T497 463L440 407Q427 422 413 428T383 435Q358
435 333 417T290 368T273 294Q273 254 294 231T352 208Q373 208 389 215T426 236L464 176Q403 127 330 127Z" />
<glyph unicode="&#xaa;" glyph-name="ordfeminine" horiz-adv-x="365" d="M171 367Q128 367 103 398T77 488Q77 551 102 602T168 683T255 713Q277 713 294 701T322 669H326L341 705H419L353 375H275L277 418H273Q227 367 171 367ZM211 446Q228 446 246 456T281
493L301 604Q294 620 283 627T261 634Q240 634 221 617T189 569T176 501Q176 473 186 460T211 446Z" />
<glyph unicode="&#xab;" glyph-name="guillemotleft" horiz-adv-x="461" d="M144 58L40 207L58 305L211 444L253 399L120 247L198 93L144 58ZM333 58L229 207L247 305L400 444L442 399L309 247L387 93L333 58Z" />
<glyph unicode="&#xac;" glyph-name="logicalnot" d="M387 95V282H48V379H485V95H387Z" />
<glyph unicode="&#xad;" glyph-name="hyphen" horiz-adv-x="320" d="M33 205L54 302H288L267 205H33Z" />
<glyph unicode="&#xae;" glyph-name="registered" horiz-adv-x="444" d="M255 312Q208 312 169 335T105 398T81 489Q81 547 107 598T180 681T289 714Q336 714 375 691T438 629T463 537Q463 480 437 429T363 345T255 312ZM258 359Q303 359 338 383T392 447T412
533Q412 590 378 628T286 667Q241 667 207 643T152 580T132 493Q132 437 166 398T258 359ZM177 416L217 612H299Q329 612 347 597T366 554Q366 534 354 517T317 490L342 416H288L270 478H244L231 416H177ZM251 516H267Q287 516 297 526T307 549Q307 572 280 572H262L251
516Z" />
<glyph unicode="&#xaf;" glyph-name="overscore" horiz-adv-x="534" d="M193 593L211 680H494L476 593H193Z" />
<glyph unicode="&#xb0;" glyph-name="degree" horiz-adv-x="348" d="M219 403Q164 403 129 437T94 529Q94 573 115 608T171 665T246 686Q302 686 336 652T371 560Q371 517 350 481T295 424T219 403ZM225 470Q257 470 277 497T298 559Q298 583 284 601T241 619Q208
619 188 592T168 530Q168 506 182 488T225 470Z" />
<glyph unicode="&#xb1;" glyph-name="plusminus" d="M215 154V311H48V408H216V564H317V408H485V311H315V154H215ZM48 0V97H485V0H48Z" />
<glyph unicode="&#xb2;" glyph-name="two.sups" horiz-adv-x="364" d="M63 375L74 430Q178 498 230 550T283 646Q283 666 271 678T235 690Q219 690 205 680T173 654L117 713Q151 744 182 760T253 777Q313 777 348 747T383 664Q383 610 344 562T240 460H357L340 375H63Z" />
<glyph unicode="&#xb3;" glyph-name="three.sups" horiz-adv-x="360" d="M213 363Q160 363 124 385T66 443L131 490Q159 443 204 443Q233 443 250 457T268 492Q268 515 251 529T182 544L194 605Q250 605 268 623T287 662Q287 679 276 689T244 699Q226 699 212
694T177 674L135 740Q170 761 200 769T266 777Q319 777 353 751T387 680Q387 604 307 573Q335 559 350 537T365 488Q365 449 345 421T290 378T213 363Z" />
<glyph unicode="&#xb4;" glyph-name="acute" horiz-adv-x="534" d="M313 578L253 656L438 822L520 718L313 578Z" />
<glyph unicode="&#xb5;" glyph-name="mu" horiz-adv-x="546" d="M-23 -180L111 496H248L189 203Q186 188 184 177T181 156Q181 105 232 105Q273 105 331 169L395 496H530L434 0H323L325 67H321Q298 36 269 16T210 -5Q190 -5 174 0T149 22L140 -39L113 -180H-23Z" />
<glyph unicode="&#xb6;" glyph-name="paragraph" horiz-adv-x="608" d="M314 -80L459 652H596L451 -80H314ZM285 200Q228 200 179 221T99 283T69 383Q69 454 93 504T158 588T252 636T362 652H406L315 200H285Z" />
<glyph unicode="&#xb7;" glyph-name="middot" horiz-adv-x="291" d="M146 239Q115 239 96 259T76 313Q76 338 88 361T122 399T174 414Q206 414 225 393T244 339Q244 302 217 271T146 239Z" />
<glyph unicode="&#xb8;" glyph-name="cedilla" horiz-adv-x="534" d="M74 -239V-180Q132 -178 156 -168T184 -135Q186 -120 172 -110T115 -94L181 4H266L226 -61Q263 -70 278 -87T290 -134Q282 -186 226 -211T74 -239Z" />
<glyph unicode="&#xb9;" glyph-name="one.sups" horiz-adv-x="376" d="M186 375L244 660H157L169 722Q210 728 234 738T286 765H364L288 375H186Z" />
<glyph unicode="&#xba;" glyph-name="ordmasculine" horiz-adv-x="358" d="M210 367Q154 367 117 403T79 504Q79 568 106 614T176 687T266 713Q322 713 359 677T397 576Q397 513 370 466T300 393T210 367ZM218 444Q254 444 277 482T300 575Q300 604 290 620T257
636Q221 636 199 598T176 505Q176 477 186 461T218 444Z" />
<glyph unicode="&#xbb;" glyph-name="guillemotright" horiz-adv-x="461" d="M69 58L27 103L160 255L81 409L136 444L240 295L222 197L69 58ZM258 58L216 103L349 255L270 409L325 444L429 295L411 197L258 58Z" />
<glyph unicode="&#xbc;" glyph-name="onequarter" horiz-adv-x="777" d="M135 270L193 555H106L118 617Q159 623 183 633T235 660H313L237 270H135ZM123 -12L597 672H677L203 -12H123ZM510 156H603L613 204L640 324H636L576 238L510 156ZM572 0L590 89H406L417
141L612 390H735L689 156H746L732 89H676L659 0H572Z" />
<glyph unicode="&#xbd;" glyph-name="onehalf" horiz-adv-x="813" d="M131 270L189 555H102L114 617Q155 623 179 633T231 660H309L233 270H131ZM109 -12L583 672H663L189 -12H109ZM443 0L454 55Q558 123 610 175T663 271Q663 291 651 303T615 315Q599 315 585
305T553 279L497 338Q531 369 562 385T633 402Q693 402 728 372T763 289Q763 235 724 187T620 85H737L720 0H443Z" />
<glyph unicode="&#xbe;" glyph-name="threequarters" horiz-adv-x="788" d="M186 258Q133 258 97 280T39 338L104 385Q132 338 177 338Q206 338 223 352T241 387Q241 410 224 424T155 439L167 500Q223 500 241 518T260 557Q260 574 249 584T217 594Q199 594 185
589T150 569L108 635Q143 656 173 664T239 672Q292 672 326 646T360 575Q360 499 280 468Q308 454 323 432T338 383Q338 344 318 316T263 273T186 258ZM147 -12L621 672H701L227 -12H147ZM522 156H615L625 204L652 324H648L588 238L522 156ZM584 0L602 89H418L429
141L624 390H747L701 156H758L744 89H688L671 0H584Z" />
<glyph unicode="&#xbf;" glyph-name="questiondown" horiz-adv-x="444" d="M180 -186Q99 -186 49 -146T-1 -34Q-1 13 17 45T62 103T117 152T166 205T194 275L310 264Q305 216 286 183T241 125T190 79T149 37T132 -14Q132 -42 149 -58T197 -75Q236 -75 273 -37L343
-114Q308 -148 267 -167T180 -186ZM268 334Q236 334 217 355T198 408Q198 446 225 477T295 508Q327 508 346 488T366 434Q366 410 354 387T319 349T268 334Z" />
<glyph unicode="&#xc0;" glyph-name="Agrave" horiz-adv-x="548" d="M255 353L215 267H355L351 353Q349 401 347 448T343 547H339Q318 497 298 450T255 353ZM-62 0L282 652H446L511 0H368L360 164H166L89 0H-62ZM392 676L228 810L322 897L469 743L392 676Z" />
<glyph unicode="&#xc1;" glyph-name="Aacute" horiz-adv-x="548" d="M255 353L215 267H355L351 353Q349 401 347 448T343 547H339Q318 497 298 450T255 353ZM-62 0L282 652H446L511 0H368L360 164H166L89 0H-62ZM330 686L278 765L473 889L534 788L330 686Z" />
<glyph unicode="&#xc2;" glyph-name="Acircumflex" horiz-adv-x="548" d="M255 353L215 267H355L351 353Q349 401 347 448T343 547H339Q318 497 298 450T255 353ZM-62 0L282 652H446L511 0H368L360 164H166L89 0H-62ZM258 685L201 729L311 835H471L540 724L473
686L387 769H383L258 685Z" />
<glyph unicode="&#xc3;" glyph-name="Atilde" horiz-adv-x="548" d="M255 353L215 267H355L351 353Q349 401 347 448T343 547H339Q318 497 298 450T255 353ZM-62 0L282 652H446L511 0H368L360 164H166L89 0H-62ZM442 692Q407 692 385 706T347 735T314 750Q301
750 289 740T269 701L176 708Q193 784 234 818T327 852Q362 852 384 838T422 809T454 794Q468 794 480 805T500 843L593 836Q576 760 535 726T442 692Z" />
<glyph unicode="&#xc4;" glyph-name="Adieresis" horiz-adv-x="548" d="M255 353L215 267H355L351 353Q349 401 347 448T343 547H339Q318 497 298 450T255 353ZM-62 0L282 652H446L511 0H368L360 164H166L89 0H-62ZM270 701Q245 701 229 716T212 759Q212 786 233
810T286 834Q309 834 326 819T343 777Q343 749 323 725T270 701ZM480 701Q456 701 440 716T423 759Q423 786 444 810T496 834Q519 834 536 819T553 777Q553 749 533 725T480 701Z" />
<glyph unicode="&#xc5;" glyph-name="Aring" horiz-adv-x="548" d="M255 353L215 267H355L351 353Q349 401 347 448T343 547H339Q318 497 298 450T255 353ZM-62 0L282 652H446L511 0H368L360 164H166L89 0H-62ZM379 697Q336 697 305 717T273 783Q273 813 289 837T334
877T396 892Q437 892 470 872T503 807Q503 761 467 729T379 697ZM381 750Q400 750 414 765T429 802Q429 817 420 828T394 839Q374 839 360 824T346 788Q346 772 355 761T381 750Z" />
<glyph unicode="&#xc6;" glyph-name="AE" horiz-adv-x="838" d="M340 366L277 262H401L459 553H456Q426 504 398 459T340 366ZM-35 0L387 652H857L834 537H592L565 395H769L746 280H543L508 115H759L736 0H349L380 155H213L119 0H-35Z" />
<glyph unicode="&#xc7;" glyph-name="Ccedilla" horiz-adv-x="567" d="M304 -12Q229 -12 173 20T87 114T56 261Q56 345 82 418T156 547T267 633T403 664Q460 664 504 637T577 560L483 488Q447 545 396 545Q354 545 318 523T255 462T213 374T197 270Q197 194 229
150T333 106Q362 106 390 120T444 156L501 68Q472 41 422 15T304 -12ZM134 -239V-180Q192 -178 216 -168T244 -135Q246 -120 232 -110T175 -94L241 4H326L286 -61Q323 -70 338 -87T350 -134Q342 -186 286 -211T134 -239Z" />
<glyph unicode="&#xc8;" glyph-name="Egrave" horiz-adv-x="527" d="M28 0L159 652H545L523 537H272L244 395H457L435 280H222L188 115H447L425 0H28ZM387 676L223 810L317 897L464 743L387 676Z" />
<glyph unicode="&#xc9;" glyph-name="Eacute" horiz-adv-x="527" d="M28 0L159 652H545L523 537H272L244 395H457L435 280H222L188 115H447L425 0H28ZM325 686L273 765L468 889L529 788L325 686Z" />
<glyph unicode="&#xca;" glyph-name="Ecircumflex" horiz-adv-x="527" d="M28 0L159 652H545L523 537H272L244 395H457L435 280H222L188 115H447L425 0H28ZM253 685L196 729L306 835H466L535 724L468 686L382 769H378L253 685Z" />
<glyph unicode="&#xcb;" glyph-name="Edieresis" horiz-adv-x="527" d="M28 0L159 652H545L523 537H272L244 395H457L435 280H222L188 115H447L425 0H28ZM265 701Q240 701 224 716T207 759Q207 786 228 810T281 834Q304 834 321 819T338 777Q338 749 318 725T265
701ZM475 701Q451 701 435 716T418 759Q418 786 439 810T491 834Q514 834 531 819T548 777Q548 749 528 725T475 701Z" />
<glyph unicode="&#xcc;" glyph-name="Igrave" horiz-adv-x="294" d="M28 0L159 652H296L166 0H28ZM260 676L96 810L190 897L337 743L260 676Z" />
<glyph unicode="&#xcd;" glyph-name="Iacute" horiz-adv-x="294" d="M28 0L159 652H296L166 0H28ZM198 686L146 765L341 889L402 788L198 686Z" />
<glyph unicode="&#xce;" glyph-name="Icircumflex" horiz-adv-x="294" d="M28 0L159 652H296L166 0H28ZM126 685L69 729L179 835H339L408 724L341 686L255 769H251L126 685Z" />
<glyph unicode="&#xcf;" glyph-name="Idieresis" horiz-adv-x="294" d="M28 0L159 652H296L166 0H28ZM138 701Q113 701 97 716T80 759Q80 786 101 810T154 834Q177 834 194 819T211 777Q211 749 191 725T138 701ZM348 701Q324 701 308 716T291 759Q291 786 312
810T364 834Q387 834 404 819T421 777Q421 749 401 725T348 701Z" />
<glyph unicode="&#xd0;" glyph-name="Eth" horiz-adv-x="634" d="M46 0L108 307H38L50 369L121 374L177 652H320Q457 652 532 589T608 396Q608 268 562 180T436 46T250 0H46ZM206 110H247Q310 110 360 139T439 230T468 387Q468 468 427 505T317 542H291L258 374H383L368
307H245L206 110Z" />
<glyph unicode="&#xd1;" glyph-name="Ntilde" horiz-adv-x="643" d="M28 0L159 652H292L398 312L433 169H437Q442 220 447 284T464 405L514 652H644L514 0H382L275 339L242 484H238Q233 429 227 368T209 250L159 0H28ZM484 692Q449 692 427 706T389 735T356 750Q343
750 331 740T311 701L218 708Q235 784 276 818T369 852Q404 852 426 838T464 809T496 794Q510 794 522 805T542 843L635 836Q618 760 577 726T484 692Z" />
<glyph unicode="&#xd2;" glyph-name="Ograve" horiz-adv-x="660" d="M302 -12Q190 -12 124 61T57 264Q57 350 83 423T156 550T262 634T388 664Q463 664 518 631T603 537T633 388Q633 302 607 229T534 102T428 18T302 -12ZM309 106Q344 106 377 127T436 185T477
272T493 379Q493 457 465 501T382 545Q347 545 314 524T255 466T213 379T197 273Q197 195 226 151T309 106ZM436 676L272 810L366 897L513 743L436 676Z" />
<glyph unicode="&#xd3;" glyph-name="Oacute" horiz-adv-x="660" d="M302 -12Q190 -12 124 61T57 264Q57 350 83 423T156 550T262 634T388 664Q463 664 518 631T603 537T633 388Q633 302 607 229T534 102T428 18T302 -12ZM309 106Q344 106 377 127T436 185T477
272T493 379Q493 457 465 501T382 545Q347 545 314 524T255 466T213 379T197 273Q197 195 226 151T309 106ZM374 686L322 765L517 889L578 788L374 686Z" />
<glyph unicode="&#xd4;" glyph-name="Ocircumflex" horiz-adv-x="660" d="M302 -12Q190 -12 124 61T57 264Q57 350 83 423T156 550T262 634T388 664Q463 664 518 631T603 537T633 388Q633 302 607 229T534 102T428 18T302 -12ZM309 106Q344 106 377 127T436 185T477
272T493 379Q493 457 465 501T382 545Q347 545 314 524T255 466T213 379T197 273Q197 195 226 151T309 106ZM302 685L245 729L355 835H515L584 724L517 686L431 769H427L302 685Z" />
<glyph unicode="&#xd5;" glyph-name="Otilde" horiz-adv-x="660" d="M302 -12Q190 -12 124 61T57 264Q57 350 83 423T156 550T262 634T388 664Q463 664 518 631T603 537T633 388Q633 302 607 229T534 102T428 18T302 -12ZM309 106Q344 106 377 127T436 185T477
272T493 379Q493 457 465 501T382 545Q347 545 314 524T255 466T213 379T197 273Q197 195 226 151T309 106ZM486 692Q451 692 429 706T391 735T358 750Q345 750 333 740T313 701L220 708Q237 784 278 818T371 852Q406 852 428 838T466 809T498 794Q512 794 524
805T544 843L637 836Q620 760 579 726T486 692Z" />
<glyph unicode="&#xd6;" glyph-name="Odieresis" horiz-adv-x="660" d="M302 -12Q190 -12 124 61T57 264Q57 350 83 423T156 550T262 634T388 664Q463 664 518 631T603 537T633 388Q633 302 607 229T534 102T428 18T302 -12ZM309 106Q344 106 377 127T436 185T477
272T493 379Q493 457 465 501T382 545Q347 545 314 524T255 466T213 379T197 273Q197 195 226 151T309 106ZM314 701Q289 701 273 716T256 759Q256 786 277 810T330 834Q353 834 370 819T387 777Q387 749 367 725T314 701ZM524 701Q500 701 484 716T467 759Q467
786 488 810T540 834Q563 834 580 819T597 777Q597 749 577 725T524 701Z" />
<glyph unicode="&#xd7;" glyph-name="multiply" d="M130 120L63 187L199 330L63 473L130 540L267 398L403 540L471 473L334 330L471 187L403 120L267 263L130 120Z" />
<glyph unicode="&#xd8;" glyph-name="Oslash" horiz-adv-x="660" d="M52 -40L-10 16L87 116Q73 147 65 184T57 264Q57 350 83 423T156 550T262 634T388 664Q492 664 557 601L651 698L711 642L605 532Q619 502 626 466T633 388Q633 302 607 229T534 102T428 18T302
-12Q200 -12 137 48L52 -40ZM197 273Q197 262 197 252T199 232L463 504Q433 545 382 545Q347 545 314 524T255 466T213 379T197 273ZM309 106Q344 106 377 127T436 185T477 272T493 379Q493 389 493 397T491 415L230 144Q260 106 309 106Z" />
<glyph unicode="&#xd9;" glyph-name="Ugrave" horiz-adv-x="643" d="M308 -12Q193 -12 134 44T75 215Q75 237 79 266T88 320L155 652H292L221 295Q217 275 215 256T213 219Q213 164 235 135T312 106Q359 106 390 144T439 274L515 652H649L573 276Q543 126 478
57T308 -12ZM442 676L278 810L372 897L519 743L442 676Z" />
<glyph unicode="&#xda;" glyph-name="Uacute" horiz-adv-x="643" d="M308 -12Q193 -12 134 44T75 215Q75 237 79 266T88 320L155 652H292L221 295Q217 275 215 256T213 219Q213 164 235 135T312 106Q359 106 390 144T439 274L515 652H649L573 276Q543 126 478
57T308 -12ZM380 686L328 765L523 889L584 788L380 686Z" />
<glyph unicode="&#xdb;" glyph-name="Ucircumflex" horiz-adv-x="643" d="M308 -12Q193 -12 134 44T75 215Q75 237 79 266T88 320L155 652H292L221 295Q217 275 215 256T213 219Q213 164 235 135T312 106Q359 106 390 144T439 274L515 652H649L573 276Q543 126
478 57T308 -12ZM308 685L251 729L361 835H521L590 724L523 686L437 769H433L308 685Z" />
<glyph unicode="&#xdc;" glyph-name="Udieresis" horiz-adv-x="643" d="M308 -12Q193 -12 134 44T75 215Q75 237 79 266T88 320L155 652H292L221 295Q217 275 215 256T213 219Q213 164 235 135T312 106Q359 106 390 144T439 274L515 652H649L573 276Q543 126 478
57T308 -12ZM320 701Q295 701 279 716T262 759Q262 786 283 810T336 834Q359 834 376 819T393 777Q393 749 373 725T320 701ZM530 701Q506 701 490 716T473 759Q473 786 494 810T546 834Q569 834 586 819T603 777Q603 749 583 725T530 701Z" />
<glyph unicode="&#xdd;" glyph-name="Yacute" d="M138 0L184 236L80 652H222L250 495Q257 458 262 424T275 351H279Q299 390 318 425T359 497L450 652H597L321 236L274 0H138ZM306 686L254 765L449 889L510 788L306 686Z" />
<glyph unicode="&#xde;" glyph-name="Thorn" horiz-adv-x="595" d="M28 0L159 660H296L275 556H363Q423 556 470 539T544 484T572 383Q572 292 531 237T421 156T270 130H190L164 0H28ZM212 239H283Q357 239 396 270T436 363Q436 407 410 427T334 447H253L212 239Z" />
<glyph unicode="&#xdf;" glyph-name="germandbls" horiz-adv-x="609" d="M374 -12Q336 -12 299 -2T227 32L283 123Q303 110 325 100T373 90Q400 90 417 106T434 149Q434 169 421 185T387 216T346 248T312 288T298 341Q298 375 315 399T355 443T395 487T413 543Q413
572 400 588T354 604Q313 604 286 568T247 479L151 0H14L116 505Q128 564 159 611T241 685T359 713Q406 713 448 697T518 648T545 563Q545 520 528 491T488 440T448 400T431 360Q431 344 444 330T476 301T515 267T548 223T561 163Q561 114 536 75T469 12T374 -12Z"
/>
<glyph unicode="&#xe0;" glyph-name="agrave" horiz-adv-x="552" d="M171 -12Q106 -12 69 35T31 170Q31 241 53 302T112 410T197 482T296 508Q330 508 360 491T404 443H406L428 496H537L438 0H327L329 65H326Q292 30 251 9T171 -12ZM231 100Q256 100 284 115T337
173L372 349Q360 374 342 385T306 396Q272 396 242 369T192 294T173 187Q173 142 188 121T231 100ZM365 569L211 740L328 827L449 634L365 569Z" />
<glyph unicode="&#xe1;" glyph-name="aacute" horiz-adv-x="552" d="M171 -12Q106 -12 69 35T31 170Q31 241 53 302T112 410T197 482T296 508Q330 508 360 491T404 443H406L428 496H537L438 0H327L329 65H326Q292 30 251 9T171 -12ZM231 100Q256 100 284 115T337
173L372 349Q360 374 342 385T306 396Q272 396 242 369T192 294T173 187Q173 142 188 121T231 100ZM312 578L252 656L437 822L519 718L312 578Z" />
<glyph unicode="&#xe2;" glyph-name="acircumflex" horiz-adv-x="552" d="M171 -12Q106 -12 69 35T31 170Q31 241 53 302T112 410T197 482T296 508Q330 508 360 491T404 443H406L428 496H537L438 0H327L329 65H326Q292 30 251 9T171 -12ZM231 100Q256 100 284
115T337 173L372 349Q360 374 342 385T306 396Q272 396 242 369T192 294T173 187Q173 142 188 121T231 100ZM199 561L151 616L282 744H432L517 613L456 561L350 657H346L199 561Z" />
<glyph unicode="&#xe3;" glyph-name="atilde" horiz-adv-x="552" d="M171 -12Q106 -12 69 35T31 170Q31 241 53 302T112 410T197 482T296 508Q330 508 360 491T404 443H406L428 496H537L438 0H327L329 65H326Q292 30 251 9T171 -12ZM231 100Q256 100 284 115T337
173L372 349Q360 374 342 385T306 396Q272 396 242 369T192 294T173 187Q173 142 188 121T231 100ZM406 573Q381 573 364 583T334 605T309 628T281 638Q266 638 254 625T237 582L146 587Q160 665 196 702T288 739Q313 739 330 730T360 707T385 685T413 675Q428
675 440 688T457 730L548 725Q535 648 498 611T406 573Z" />
<glyph unicode="&#xe4;" glyph-name="adieresis" horiz-adv-x="552" d="M171 -12Q106 -12 69 35T31 170Q31 241 53 302T112 410T197 482T296 508Q330 508 360 491T404 443H406L428 496H537L438 0H327L329 65H326Q292 30 251 9T171 -12ZM231 100Q256 100 284 115T337
173L372 349Q360 374 342 385T306 396Q272 396 242 369T192 294T173 187Q173 142 188 121T231 100ZM230 572Q205 572 188 587T171 631Q171 661 193 683T246 706Q271 706 288 690T305 646Q305 615 284 594T230 572ZM440 572Q415 572 399 587T382 631Q382 661 403
683T456 706Q482 706 498 690T515 646Q515 615 494 594T440 572Z" />
<glyph unicode="&#xe5;" glyph-name="aring" horiz-adv-x="552" d="M171 -12Q106 -12 69 35T31 170Q31 241 53 302T112 410T197 482T296 508Q330 508 360 491T404 443H406L428 496H537L438 0H327L329 65H326Q292 30 251 9T171 -12ZM231 100Q256 100 284 115T337
173L372 349Q360 374 342 385T306 396Q272 396 242 369T192 294T173 187Q173 142 188 121T231 100ZM334 566Q285 566 253 589T220 655Q220 704 260 737T364 770Q414 770 446 747T478 681Q478 632 438 599T334 566ZM343 619Q363 619 377 636T392 677Q392 693 383
705T355 717Q336 717 321 700T306 659Q306 642 315 631T343 619Z" />
<glyph unicode="&#xe6;" glyph-name="ae" horiz-adv-x="754" d="M155 -12Q99 -12 61 21T22 112Q22 185 63 227T173 289T326 310Q327 316 327 321T327 331Q327 368 310 384T260 401Q232 401 200 391T133 363L103 458Q147 480 196 494T294 508Q338 508 369 492T416
441Q483 508 563 508Q623 508 658 483T709 416T725 322Q725 288 716 256T702 212H428Q424 149 453 120T530 91Q553 91 577 102T620 126L669 40Q641 19 598 4T500 -12Q448 -12 406 11T343 69Q299 31 254 10T155 -12ZM210 93Q232 93 258 107T309 152Q307 170 307
187T308 227Q230 225 193 201T155 139Q155 117 170 105T210 93ZM439 296H609Q611 305 612 313T613 330Q613 360 599 381T546 403Q515 403 485 376T439 296Z" />
<glyph unicode="&#xe7;" glyph-name="ccedilla" horiz-adv-x="443" d="M223 -12Q168 -12 124 12T55 82T29 192Q29 257 51 314T114 414T207 483T321 508Q368 508 401 489T454 447L378 366Q363 382 348 390T312 398Q273 398 241 371T189 297T169 195Q169 150 190
124T253 98Q279 98 297 108T332 130L389 46Q361 25 322 7T223 -12ZM64 -239V-180Q122 -178 146 -168T174 -135Q176 -120 162 -110T105 -94L171 4H256L216 -61Q253 -70 268 -87T280 -134Q272 -186 216 -211T64 -239Z" />
<glyph unicode="&#xe8;" glyph-name="egrave" horiz-adv-x="496" d="M232 -12Q142 -12 86 44T29 200Q29 269 53 325T117 423T207 486T305 508Q364 508 399 483T451 416T467 322Q467 288 458 256T443 212H159Q155 148 188 120T270 91Q293 91 318 102T362 126L410
40Q380 19 335 4T232 -12ZM170 296H350Q355 311 355 330Q355 360 341 381T288 403Q253 403 220 376T170 296ZM362 569L208 740L325 827L446 634L362 569Z" />
<glyph unicode="&#xe9;" glyph-name="eacute" horiz-adv-x="496" d="M232 -12Q142 -12 86 44T29 200Q29 269 53 325T117 423T207 486T305 508Q364 508 399 483T451 416T467 322Q467 288 458 256T443 212H159Q155 148 188 120T270 91Q293 91 318 102T362 126L410
40Q380 19 335 4T232 -12ZM170 296H350Q355 311 355 330Q355 360 341 381T288 403Q253 403 220 376T170 296ZM309 578L249 656L434 822L516 718L309 578Z" />
<glyph unicode="&#xea;" glyph-name="ecircumflex" horiz-adv-x="496" d="M232 -12Q142 -12 86 44T29 200Q29 269 53 325T117 423T207 486T305 508Q364 508 399 483T451 416T467 322Q467 288 458 256T443 212H159Q155 148 188 120T270 91Q293 91 318 102T362 126L410
40Q380 19 335 4T232 -12ZM170 296H350Q355 311 355 330Q355 360 341 381T288 403Q253 403 220 376T170 296ZM196 561L148 616L279 744H429L514 613L453 561L347 657H343L196 561Z" />
<glyph unicode="&#xeb;" glyph-name="edieresis" horiz-adv-x="496" d="M232 -12Q142 -12 86 44T29 200Q29 269 53 325T117 423T207 486T305 508Q364 508 399 483T451 416T467 322Q467 288 458 256T443 212H159Q155 148 188 120T270 91Q293 91 318 102T362 126L410
40Q380 19 335 4T232 -12ZM170 296H350Q355 311 355 330Q355 360 341 381T288 403Q253 403 220 376T170 296ZM227 572Q202 572 185 587T168 631Q168 661 190 683T243 706Q268 706 285 690T302 646Q302 615 281 594T227 572ZM437 572Q412 572 396 587T379 631Q379
661 400 683T453 706Q479 706 495 690T512 646Q512 615 491 594T437 572Z" />
<glyph unicode="&#xec;" glyph-name="igrave" horiz-adv-x="265" d="M14 0L114 496H250L151 0H14ZM232 569L78 740L195 827L316 634L232 569Z" />
<glyph unicode="&#xed;" glyph-name="iacute" horiz-adv-x="265" d="M14 0L114 496H250L151 0H14ZM179 578L119 656L304 822L386 718L179 578Z" />
<glyph unicode="&#xee;" glyph-name="icircumflex" horiz-adv-x="265" d="M14 0L114 496H250L151 0H14ZM66 561L18 616L149 744H299L384 613L323 561L217 657H213L66 561Z" />
<glyph unicode="&#xef;" glyph-name="idieresis" horiz-adv-x="265" d="M14 0L114 496H250L151 0H14ZM97 572Q72 572 55 587T38 631Q38 661 60 683T113 706Q138 706 155 690T172 646Q172 615 151 594T97 572ZM307 572Q282 572 266 587T249 631Q249 661 270 683T323
706Q349 706 365 690T382 646Q382 615 361 594T307 572Z" />
<glyph unicode="&#xf0;" glyph-name="eth" horiz-adv-x="537" d="M157 193Q157 153 177 126T236 98Q272 98 299 124T343 195T365 299Q351 320 330 335T280 351Q240 351 213 328T171 268T157 193ZM223 -12Q171 -12 128 11T60 79T34 182Q34 232 49 280T93 368T165
431T263 455Q293 455 320 442T364 401Q357 482 318 543L173 485L147 550L271 600Q255 616 235 631T191 661L254 740Q291 720 323 697T382 644L527 702L553 637L428 587Q460 539 477 482T494 356Q494 288 478 223T428 104T343 20T223 -12Z" />
<glyph unicode="&#xf1;" glyph-name="ntilde" horiz-adv-x="552" d="M14 0L114 496H225L223 430H227Q263 462 304 485T392 508Q454 508 482 476T510 381Q510 364 508 347T502 310L440 0H303L362 293Q365 308 367 319T370 340Q370 391 319 391Q296 391 272 376T215
327L151 0H14ZM440 573Q415 573 398 583T368 605T343 628T315 638Q300 638 288 625T271 582L180 587Q194 665 230 702T322 739Q347 739 364 730T394 707T419 685T447 675Q462 675 474 688T491 730L582 725Q569 648 532 611T440 573Z" />
<glyph unicode="&#xf2;" glyph-name="ograve" horiz-adv-x="533" d="M222 -12Q135 -12 83 44T30 192Q30 264 54 322T118 422T207 486T308 508Q366 508 409 483T476 412T500 304Q500 232 476 174T412 74T323 10T222 -12ZM237 98Q271 98 299 124T344 197T362 301Q362
347 345 372T292 398Q259 398 231 372T185 299T168 195Q168 150 185 124T237 98ZM366 569L212 740L329 827L450 634L366 569Z" />
<glyph unicode="&#xf3;" glyph-name="oacute" horiz-adv-x="533" d="M222 -12Q135 -12 83 44T30 192Q30 264 54 322T118 422T207 486T308 508Q366 508 409 483T476 412T500 304Q500 232 476 174T412 74T323 10T222 -12ZM237 98Q271 98 299 124T344 197T362 301Q362
347 345 372T292 398Q259 398 231 372T185 299T168 195Q168 150 185 124T237 98ZM313 578L253 656L438 822L520 718L313 578Z" />
<glyph unicode="&#xf4;" glyph-name="ocircumflex" horiz-adv-x="533" d="M222 -12Q135 -12 83 44T30 192Q30 264 54 322T118 422T207 486T308 508Q366 508 409 483T476 412T500 304Q500 232 476 174T412 74T323 10T222 -12ZM237 98Q271 98 299 124T344 197T362
301Q362 347 345 372T292 398Q259 398 231 372T185 299T168 195Q168 150 185 124T237 98ZM200 561L152 616L283 744H433L518 613L457 561L351 657H347L200 561Z" />
<glyph unicode="&#xf5;" glyph-name="otilde" horiz-adv-x="533" d="M222 -12Q135 -12 83 44T30 192Q30 264 54 322T118 422T207 486T308 508Q366 508 409 483T476 412T500 304Q500 232 476 174T412 74T323 10T222 -12ZM237 98Q271 98 299 124T344 197T362 301Q362
347 345 372T292 398Q259 398 231 372T185 299T168 195Q168 150 185 124T237 98ZM407 573Q382 573 365 583T335 605T310 628T282 638Q267 638 255 625T238 582L147 587Q161 665 197 702T289 739Q314 739 331 730T361 707T386 685T414 675Q429 675 441 688T458 730L549
725Q536 648 499 611T407 573Z" />
<glyph unicode="&#xf6;" glyph-name="odieresis" horiz-adv-x="533" d="M222 -12Q135 -12 83 44T30 192Q30 264 54 322T118 422T207 486T308 508Q366 508 409 483T476 412T500 304Q500 232 476 174T412 74T323 10T222 -12ZM237 98Q271 98 299 124T344 197T362
301Q362 347 345 372T292 398Q259 398 231 372T185 299T168 195Q168 150 185 124T237 98ZM231 572Q206 572 189 587T172 631Q172 661 194 683T247 706Q272 706 289 690T306 646Q306 615 285 594T231 572ZM441 572Q416 572 400 587T383 631Q383 661 404 683T457
706Q483 706 499 690T516 646Q516 615 495 594T441 572Z" />
<glyph unicode="&#xf7;" glyph-name="divide" d="M48 282V379H485V282H48ZM267 76Q235 76 213 96T191 148Q191 179 213 200T267 221Q299 221 321 200T343 148Q343 116 321 96T267 76ZM267 438Q235 438 213 459T191 512Q191 543 213 563T267 584Q299 584 321 564T343
512Q343 480 321 459T267 438Z" />
<glyph unicode="&#xf8;" glyph-name="oslash" horiz-adv-x="533" d="M158 195Q158 191 158 187T159 179L350 376Q331 401 297 401Q252 401 221 370T174 291T158 195ZM43 -25L0 16L59 76Q30 123 30 192Q30 264 54 322T118 422T207 486T308 508Q385 508 436 463L490
519L534 480L473 417Q486 395 493 367T500 304Q500 232 476 174T412 74T323 10T222 -12Q148 -12 97 31L43 -25ZM232 95Q278 95 309 126T356 205T372 299Q372 303 372 306T371 313L181 117Q200 95 232 95Z" />
<glyph unicode="&#xf9;" glyph-name="ugrave" horiz-adv-x="545" d="M156 -12Q95 -12 67 21T39 116Q39 133 41 150T47 186L109 496H245L187 203Q183 188 181 177T179 156Q179 105 229 105Q271 105 328 169L392 496H529L431 0H320L322 67H318Q284 36 243 12T156
-12ZM364 569L210 740L327 827L448 634L364 569Z" />
<glyph unicode="&#xfa;" glyph-name="uacute" horiz-adv-x="545" d="M156 -12Q95 -12 67 21T39 116Q39 133 41 150T47 186L109 496H245L187 203Q183 188 181 177T179 156Q179 105 229 105Q271 105 328 169L392 496H529L431 0H320L322 67H318Q284 36 243 12T156
-12ZM311 578L251 656L436 822L518 718L311 578Z" />
<glyph unicode="&#xfb;" glyph-name="ucircumflex" horiz-adv-x="545" d="M156 -12Q95 -12 67 21T39 116Q39 133 41 150T47 186L109 496H245L187 203Q183 188 181 177T179 156Q179 105 229 105Q271 105 328 169L392 496H529L431 0H320L322 67H318Q284 36 243 12T156
-12ZM198 561L150 616L281 744H431L516 613L455 561L349 657H345L198 561Z" />
<glyph unicode="&#xfc;" glyph-name="udieresis" horiz-adv-x="545" d="M156 -12Q95 -12 67 21T39 116Q39 133 41 150T47 186L109 496H245L187 203Q183 188 181 177T179 156Q179 105 229 105Q271 105 328 169L392 496H529L431 0H320L322 67H318Q284 36 243 12T156
-12ZM229 572Q204 572 187 587T170 631Q170 661 192 683T245 706Q270 706 287 690T304 646Q304 615 283 594T229 572ZM439 572Q414 572 398 587T381 631Q381 661 402 683T455 706Q481 706 497 690T514 646Q514 615 493 594T439 572Z" />
<glyph unicode="&#xfd;" glyph-name="yacute" horiz-adv-x="499" d="M36 -194Q23 -194 2 -188T-35 -174L7 -76Q24 -86 44 -86Q71 -86 96 -67T138 -14L150 11L64 496H200L223 272Q227 240 229 199T232 123H236Q252 158 269 198T302 272L406 496H539L271 -11Q219
-100 166 -147T36 -194ZM292 578L232 656L417 822L499 718L292 578Z" />
<glyph unicode="&#xfe;" glyph-name="thorn" horiz-adv-x="553" d="M-23 -184L155 701H292L259 542L234 449H236Q269 476 306 492T380 508Q446 508 483 461T520 326Q520 255 498 194T439 86T355 14T256 -12Q225 -12 199 3T155 47H153L139 -50L114 -184H-23ZM246
100Q281 100 311 127T360 202T379 309Q379 354 363 375T321 396Q298 396 270 383T219 334L181 146Q192 122 209 111T246 100Z" />
<glyph unicode="&#xff;" glyph-name="ydieresis" horiz-adv-x="499" d="M36 -194Q23 -194 2 -188T-35 -174L7 -76Q24 -86 44 -86Q71 -86 96 -67T138 -14L150 11L64 496H200L223 272Q227 240 229 199T232 123H236Q252 158 269 198T302 272L406 496H539L271 -11Q219
-100 166 -147T36 -194ZM210 572Q185 572 168 587T151 631Q151 661 173 683T226 706Q251 706 268 690T285 646Q285 615 264 594T210 572ZM420 572Q395 572 379 587T362 631Q362 661 383 683T436 706Q462 706 478 690T495 646Q495 615 474 594T420 572Z" />
<glyph unicode="&#x2013;" glyph-name="endash" horiz-adv-x="464" d="M34 208L52 297H429L411 208H34Z" />
<glyph unicode="&#x2014;" glyph-name="emdash" horiz-adv-x="771" d="M34 208L52 297H737L719 208H34Z" />
<glyph unicode="&#x2018;" glyph-name="quoteleft" horiz-adv-x="291" d="M171 355Q137 355 117 380T97 451Q97 511 120 556T183 632T269 677L291 618Q254 604 229 582T190 538T177 500Q179 500 180 500T182 500Q213 500 233 484T254 437Q254 405 232 380T171 355Z" />
<glyph unicode="&#x2019;" glyph-name="quoteright" horiz-adv-x="291" d="M129 374L107 434Q145 448 170 470T209 514T222 552Q221 552 220 552T216 552Q185 552 165 568T145 615Q145 647 167 672T228 697Q262 697 282 672T302 600Q302 541 278 496T215 420T129 374Z" />
<glyph unicode="&#x201a;" glyph-name="quotesinglbase" horiz-adv-x="291" d="M23 -159L1 -99Q39 -85 64 -63T103 -19T116 19Q115 19 114 19T110 19Q79 19 59 35T39 82Q39 114 61 139T122 164Q156 164 176 139T196 67Q196 8 172 -37T109 -113T23 -159Z" />
<glyph unicode="&#x201c;" glyph-name="quotedblleft" horiz-adv-x="510" d="M171 355Q137 355 117 380T97 451Q97 511 120 556T183 632T269 677L291 618Q254 604 229 582T190 538T177 500Q179 500 180 500T182 500Q213 500 233 484T254 437Q254 405 232 380T171
355ZM390 355Q356 355 336 380T316 451Q316 511 339 556T402 632T488 677L510 618Q473 604 448 582T409 538T396 500Q398 500 399 500T401 500Q432 500 452 484T473 437Q473 405 451 380T390 355Z" />
<glyph unicode="&#x201d;" glyph-name="quotedblright" horiz-adv-x="510" d="M129 374L107 434Q145 448 170 470T209 514T222 552Q221 552 220 552T216 552Q185 552 165 568T145 615Q145 647 167 672T228 697Q262 697 282 672T302 600Q302 541 278 496T215 420T129
374ZM348 374L326 434Q364 448 389 470T428 514T441 552Q440 552 439 552T435 552Q404 552 384 568T364 615Q364 647 386 672T447 697Q481 697 501 672T521 600Q521 541 497 496T434 420T348 374Z" />
<glyph unicode="&#x201e;" glyph-name="quotedblbase" horiz-adv-x="510" d="M23 -159L1 -99Q39 -85 64 -63T103 -19T116 19Q115 19 114 19T110 19Q79 19 59 35T39 82Q39 114 61 139T122 164Q156 164 176 139T196 67Q196 8 172 -37T109 -113T23 -159ZM242 -159L220
-99Q258 -85 283 -63T322 -19T335 19Q334 19 333 19T329 19Q298 19 278 35T258 82Q258 114 280 139T341 164Q375 164 395 139T415 67Q415 8 391 -37T328 -113T242 -159Z" />
<glyph unicode="&#x2022;" glyph-name="bullet" horiz-adv-x="330" d="M154 127Q105 127 72 161T39 247Q39 284 56 318T104 375T178 398Q227 398 260 365T293 278Q293 242 276 207T228 150T154 127Z" />
<glyph unicode="&#x2039;" glyph-name="guilsinglleft" horiz-adv-x="272" d="M144 58L40 207L58 305L211 444L253 399L120 247L198 93L144 58Z" />
<glyph unicode="&#x203a;" glyph-name="guilsinglright" horiz-adv-x="272" d="M69 58L27 103L160 255L81 409L136 444L240 295L222 197L69 58Z" />
</font>
</defs>
</svg>
